osu file format v6

[General]
AudioFilename: Joe Hisaishi - Tenki Wa No Warutsu.mp3
AudioLeadIn: 1489
PreviewTime: -1
Countdown: 1
SampleSet: Soft
StackLeniency: 0.7
Mode: 0
LetterboxInBreaks: 1

[Editor]
DistanceSpacing: 0.800000011920929
BeatDivisor: 4
GridSize: 8

[Metadata]
Title:Tenki Wa No Warutsu
Artist:Joe Hisaishi
Creator:akatsukl
Version:Easy
Source:Yinnaka Tetsudou No Yoru
Tags:Joe Hisaishi Piano

[Difficulty]
HPDrainRate:3
CircleSize:4
OverallDifficulty:3
SliderMultiplier:1.4
SliderTickRate:2

[Events]
//Background and Video events
0,0,"jsr.jpg"
//Break Periods
2,30159,36455
//Storyboard Layer 0 (Background)
//Storyboard Layer 1 (Fail)
//Storyboard Layer 2 (Pass)
//Storyboard Layer 3 (Foreground)
//Storyboard Sound Samples
//Background Colour Transformations
3,100,163,162,255

[TimingPoints]
380,721.457343834546,4,2,1,20,1,0

[Colours]
Combo1 : 151,151,253
Combo2 : 240,4,210

[HitObjects]
56,88,1101,1,0
128,296,2544,1,0
240,296,3265,1,0
160,88,4708,1,0
272,88,5430,5,0
336,296,6873,1,0
448,296,7594,1,0
368,88,9037,1,0
264,45,9758,5,0
185,124,10480,2,0,B|270:99|387:150|440:250,1,280
225,326,13366,5,0
296,262,14087,2,0,B|182:245|104:155|108:75,1,280
219,84,16252,1,2
81,59,17694,5,0
148,148,18416,2,0,B|227:102|330:121|376:211,1,280
354,301,20580,1,0
284,341,22745,5,0
201,265,23466,2,0,B|295:268|432:157|436:92,1,280
177,105,25991,5,0
222,138,26352,1,0
330,108,27073,5,0
239,42,27795,2,0,B|163:44|77:114|41:225,1,280
133,284,29959,1,2
97,86,37895,5,0
153,182,38617,2,0,B|188:268|292:347|400:332,1,280
475,135,41503,5,0
396,55,42224,2,0,B|100:-33|12:127,1,420
102,204,45110,1,2
186,277,45831,5,0
297,281,46553,2,0,B|299:158|272:4|10:167,1,420
128,56,50882,6,0,B|136:312|376:352,1,420
484,227,54128,5,0
433,202,54489,1,0
409,92,55210,2,0,B|274:69|128:148|54:284,1,420
229,117,58818,5,2
256,192,59539,12,0,63146
79,56,65311,5,0
191,56,66032,2,0,B|278:73|341:135|369:254,2,280
407,112,70361,2,0,B|304:106|232:154|218:283,2,280
221,235,74690,5,0
117,191,75411,1,0
175,95,76133,1,0
275,144,76854,1,0
374,195,77575,1,0
318,292,78297,1,0
425,259,79018,6,0,B|387:149|282:107|163:104|61:149,1,420
257,264,82626,1,0
151,230,83347,6,0,B|189:340|294:382|413:385|479:256,1,420
416,48,87676,6,0,B|224:192|192:208|40:40,1,420,0|0
240,33,90922,5,0
277,74,91283,1,0
386,95,92005,1,0
104,278,94169,5,2
