osu file format v5

[General]
AudioFilename: My Neighbor Totoro.mp3
AudioLeadIn: 0
PreviewTime: -1
Countdown: 1
SampleSet: Soft
StackLeniency: 0.7
Mode: 0
LetterboxInBreaks: 1

[Metadata]
Title:My Neighbours House
Artist:Joe Hisaishi
Creator:dipsy
Version:Easy
Source:
Tags:

[Difficulty]
HPDrainRate:4
CircleSize:4
OverallDifficulty:4
SliderMultiplier:1.4
SliderTickRate:1

[Events]
//Background and Video events
0,0,"totoro.jpg"
//Break Periods
2,10662,18779
//Storyboard Layer 0 (Background)
//Storyboard Layer 1 (Failing)
//Storyboard Layer 2 (Passing)
//Storyboard Layer 3 (Foreground)
//Storyboard Sound Samples
//Background Colour Transformations
3,100,163,162,255

[TimingPoints]
4668,464.396284829721,4,2,0,70,1

[Colours]
Combo1 : 128,128,0
Combo2 : 255,255,128
Combo3 : 128,255,255
Combo4 : 128,128,255

[HitObjects]
72,64,4659,2,0,B|304:64,1,210
368,128,5828,2,0,B|80:128,1,280
472,200,8383,2,0,B|256:200,1,210
184,280,9544,2,0,B|328:280,2,140
256,200,19993,5,0
144,198,20457,1,0
88,104,20921,2,0,B|376:104,1,280
256,280,23708,5,0
368,280,24172,1,0
256,280,24637,2,0,B|256:112,2,140
72,192,26959,5,0
184,192,27423,1,0
296,192,27887,1,0
408,192,28352,1,0
408,304,28816,5,0
296,304,29281,1,0
184,304,29745,1,0
120,190,30209,1,0
120,190,30674,1,0
120,190,31138,2,0,B|476:188,1,350
48,304,34853,5,0
48,192,35318,1,0
160,192,35782,1,0
215,191,36014,1,0
472,304,38568,5,0
472,192,39033,1,0
360,192,39497,1,0
312,192,39729,1,0
72,80,41819,6,0,B|432:88,1,350
424,144,43212,1,0
427,256,43677,1,0
200,80,44838,5,0
311,80,45302,1,0
423,80,45767,2,0,B|427:231|298:339|124:300,1,420
140,190,47624,2,0,B|292:190,1,140
96,48,49250,6,0,B|240:48,1,140
344,56,50178,2,0,B|344:208,1,140
256,264,51107,2,0,B|96:264,1,140
112,152,52036,1,0
224,152,52500,1,0
256,192,52965,12,0,55286
64,192,55751,1,0
130,101,56215,1,0
196,191,56680,2,0,B|412:191,3,210
48,80,60395,5,0
159,77,60859,2,0,B|305:78,1,140
293,133,61556,1,0
270,242,62020,2,0,B|414:242,1,140
80,72,64110,6,0,B|520:72,1,420
464,176,65968,1,0
352,176,66432,1,0
296,176,66664,1,0
136,336,67825,5,0
136,224,68290,1,0
136,112,68754,1,0
248,112,69219,1,0
360,112,69683,1,0
80,128,70612,5,0
76,239,71076,1,0
192,240,71541,5,0
200,352,72005,2,0,B|280:352,1,70
384,352,72702,1,0
440,256,73166,1,0
440,144,73630,1,0
256,192,75256,12,0,78506
256,192,78971,5,0
368,192,79435,1,0
384,304,79900,2,0,B|72:304,1,280
256,240,81525,1,0
312,240,81757,1,0
464,168,82454,2,0,B|-45:167,1,490
256,192,84544,12,0,86401
256,192,86866,12,0,88259
