osu file format v9

[General]
AudioFilename: mp3.mp3
AudioLeadIn: 3000
PreviewTime: -1
Countdown: 1
SampleSet: Soft
StackLeniency: 0.7
Mode: 2
LetterboxInBreaks: 1

[Editor]
DistanceSpacing: 0.8
BeatDivisor: 3
GridSize: 8

[Metadata]
Title:Laputa:Castle in the Sky
Artist:Joe Hisaishi
Creator:Sektor1
Version:Normal
Source:Laputa:Castle in the Sky
Tags:music comic

[Difficulty]
HPDrainRate:7
CircleSize:5
OverallDifficulty:8
ApproachRate:8
SliderMultiplier:1.4
SliderTickRate:1

[Events]
//Background and Video events
0,0,"123.jpg"
//Break Periods
//Storyboard Layer 0 (Background)
//Storyboard Layer 1 (Fail)
//Storyboard Layer 2 (Pass)
//Storyboard Layer 3 (Foreground)
//Storyboard Sound Samples
//Background Colour Transformations
3,100,163,162,255

[TimingPoints]
556,625.190869293308,4,2,0,100,1,0
59944,-100,4,2,0,100,0,1
79325,-100,4,2,0,100,0,0
83076,-100,4,2,0,100,0,1
90578,-100,4,2,0,100,0,0
101829,-100,4,2,0,100,0,1
122463,-100,4,2,0,100,0,0
202487,-100,4,2,0,100,0,1
207489,-100,4,2,0,100,0,0

[HitObjects]
96,104,19311,1,0
232,280,20562,1,0
120,88,21812,1,0
320,200,23062,1,0
96,200,24313,1,0
320,176,25563,1,0
104,136,26814,1,0
288,256,28064,1,0
408,88,29158,1,0
176,168,30565,5,0
360,248,31659,1,0
120,192,33065,5,0
336,216,34316,5,0
96,184,35722,5,0
280,216,36817,5,0
384,200,37442,5,0
296,128,38067,5,0
192,216,40568,5,0
368,88,41818,5,0
264,120,42443,5,0
160,176,43068,5,0
192,184,45413,5,0
440,144,46820,5,0
328,160,47445,5,0
208,184,48070,5,0
248,184,50571,5,0
152,200,51196,5,0
248,208,51665,5,0
384,192,52446,5,0
280,168,53072,5,0
176,176,53697,5,0
240,264,54322,5,0
344,224,54947,5,0
232,200,55572,5,0
280,296,56197,5,0
320,200,56823,5,0
224,216,57448,5,0
216,112,58073,5,0
224,192,60574,5,0
104,168,61199,5,0
216,144,61824,5,0
312,208,62449,5,0
200,248,63075,5,0
256,216,65575,5,0
160,160,66201,5,0
176,272,66826,5,0
280,224,67451,5,0
200,144,68076,5,0
288,192,68701,5,0
200,248,69326,5,0
416,192,70577,5,0
312,192,71202,5,0
200,208,71827,5,0
160,304,72452,5,0
272,248,73078,5,0
336,224,73390,5,0
392,184,73859,5,0
88,184,75578,5,0
152,184,75891,5,0
304,184,76672,5,0
160,168,77454,5,0
256,232,78079,5,0
368,64,79173,5,0
192,232,80580,5,0
392,168,81830,5,0
168,200,83081,5,0
248,128,83706,5,0
144,152,84331,5,0
232,232,84956,5,0
336,224,85581,5,0
264,160,86207,5,0
168,208,86832,5,0
160,104,87457,5,0
232,192,88082,5,0
336,184,88707,5,0
320,280,89176,5,0
216,240,89801,5,0
216,104,90583,5,0
368,264,91833,5,0
152,224,93084,5,0
240,168,93709,5,0
312,248,94334,5,0
392,184,94959,5,0
296,128,95585,5,0
200,168,96210,5,0
280,240,96835,5,0
56,240,98085,5,0
152,216,98554,5,0
168,96,99179,5,0
264,168,99805,5,0
384,112,100586,5,0
256,192,101836,12,0,111214
240,152,113090,5,0
152,200,113715,5,0
248,232,114340,5,0
344,200,114965,5,0
240,160,115591,5,0
64,304,116841,5,0
272,248,118091,5,0
352,168,118717,5,0
248,120,119342,5,0
160,176,119967,5,0
216,272,120592,5,0
272,216,122937,5,0
72,160,124031,5,0
216,160,124812,5,0
112,224,125437,5,0
216,240,126063,5,0
256,240,126219,5,0
328,224,126688,5,0
112,144,127938,5,0
224,184,128563,5,0
424,96,129970,5,0
328,136,130595,5,0
232,168,131064,5,0
128,232,131689,5,0
360,192,133096,5,0
256,200,133721,5,0
160,200,134346,5,0
208,112,134972,5,0
296,168,135597,5,0
336,200,135909,5,0
336,256,136222,5,0
280,264,136535,5,0
88,80,138097,5,0
120,104,138410,5,0
160,136,138723,5,0
248,192,139348,5,0
288,208,139660,5,0
336,224,139973,5,0
416,136,140598,5,0
320,176,143568,5,0
0,336,145600,5,0
184,248,146694,5,0
280,208,147319,5,0
352,176,147788,5,0
312,136,148101,5,0
112,160,149195,5,0
352,224,150601,5,0
128,208,151852,5,0
352,216,153102,5,0
144,208,154196,5,0
392,232,155603,1,0
192,216,156697,1,0
288,200,157322,1,0
224,152,157791,1,0
184,184,158104,1,0
368,288,159198,1,0
152,184,160604,1,0
352,232,161698,1,0
296,128,162324,1,0
224,200,162949,5,0
224,232,162949,1,0
120,200,163574,5,0
168,128,163574,5,0
168,128,164043,5,0
128,240,164199,5,0
272,184,164668,5,0
80,120,164981,5,0
144,192,165293,5,0
168,176,165606,5,0
224,176,165918,5,0
272,184,166231,5,0
184,208,167950,5,0
280,192,168419,5,0
184,104,169201,5,0
216,200,169826,5,0
320,176,170451,5,0
280,168,170764,5,0
232,176,171076,5,0
240,192,172952,5,0
352,184,173577,5,0
264,144,174202,5,0
168,184,174827,5,0
256,232,175452,5,0
368,248,176078,5,0
344,200,176234,5,0
336,144,176703,5,0
176,176,177641,5,0
224,216,177953,5,0
360,120,178891,5,0
336,168,179204,5,0
240,176,179673,5,0
216,304,180454,5,0
128,120,181548,5,0
368,208,182955,5,0
208,168,183893,5,0
160,176,184205,5,0
176,240,184518,5,0
320,240,185299,5,0
120,120,186550,5,0
320,224,187800,5,0
264,112,188425,5,0
208,144,188738,5,0
216,280,189519,5,0
320,176,190301,5,0
192,176,191082,5,0
240,256,191551,5,0
424,88,192958,5,0
272,176,193896,5,0
296,240,194364,5,0
336,224,194521,5,0
184,184,195459,5,0
272,240,196084,5,0
360,208,196553,5,0
232,184,197334,5,0
208,288,197959,5,0
296,272,198428,5,0
336,240,198741,5,0
352,200,199053,5,0
48,168,200773,5,0
88,184,201085,5,0
128,200,201242,5,0
408,152,202805,5,0
344,160,203117,5,0
272,176,203586,5,0
232,192,203899,5,0
240,160,205305,5,0
264,224,205774,5,0
304,256,206087,5,0
352,248,206399,5,0
96,40,208275,5,0
136,72,208588,5,0
184,112,208900,5,0
352,304,210307,5,0
304,264,210619,5,0
248,232,210932,5,0
192,200,211245,5,0
464,120,212808,5,0
408,136,213120,5,0
352,160,213433,5,0
232,184,214058,5,0
168,216,214371,5,0
136,288,214839,5,0
248,264,215465,1,0
376,104,216559,5,0
176,240,217965,5,0
224,224,218278,5,0
272,216,218591,5,0
208,112,219216,5,0
176,160,219528,5,0
128,184,219841,5,0
264,208,220623,5,0
352,240,221091,5,0
216,280,221873,5,0
216,136,222654,5,0
288,240,223280,5,0
152,256,224061,5,0
232,152,224843,5,0
120,184,225468,5,0
208,312,226406,5,0
120,232,227031,5,0
280,232,227969,5,0
168,136,228750,5,0
312,176,229531,5,0
256,192,230626,12,0,251430
