osu file format v9

[General]
AudioFilename: harukanachihe.mp3
AudioLeadIn: 0
PreviewTime: 62321
Countdown: 0
SampleSet: Soft
StackLeniency: 0.4
Mode: 0
LetterboxInBreaks: 0

[Editor]
Bookmarks: 25901,35522,44360,53483,81137,124185,142431,151982,174076,193605
DistanceSpacing: 1.2
BeatDivisor: 4
GridSize: 8

[Metadata]
Title:Haruka na Chi he
Artist:Joe Hisaishi
Creator:Gabriela Robin
Version:Hard
Source:Kaze no tani no Naushika
Tags:Nausicaa of the Valley of the Winds

[Difficulty]
HPDrainRate:5
CircleSize:4
OverallDifficulty:5
ApproachRate:7
SliderMultiplier:1.2
SliderTickRate:1

[Events]
//Background and Video events
0,0,"bg.jpg"
//Break Periods
2,81372,89395
2,152074,160097
//Storyboard Layer 0 (Background)
//Storyboard Layer 1 (Fail)
//Storyboard Layer 2 (Pass)
//Storyboard Layer 3 (Foreground)
//Storyboard Sound Samples
//Background Colour Transformations
3,100,163,162,255

[TimingPoints]
26435,570.179606576071,4,2,1,20,1,0
27575,-100,4,2,1,21,0,0
28715,-100,4,2,1,20,0,0
29856,-100,4,2,1,25,0,0
30996,-100,4,2,1,31,0,0
32136,-100,4,2,1,35,0,0
33277,-100,4,2,1,40,0,0
34417,-100,4,2,1,40,0,0
80221,-100,4,1,1,40,0,0
81100,-100,4,2,1,40,0,0
98206,-100,4,1,1,40,0,0
99346,-100,4,2,1,41,0,0
113743,-100,4,1,1,41,0,0
115311,-100,4,2,1,40,0,0
132702,-100,4,1,1,41,0,0
133557,-100,4,2,1,40,0,0
150947,-100,4,1,1,41,0,0
151803,-100,4,2,1,40,0,0
168908,-100,4,1,1,41,0,0
170048,-100,4,2,1,40,0,0
209961,-100,4,1,1,41,0,0
211101,-100,4,2,1,40,0,0
215734,-100,4,2,1,40,0,0
216304,-100,4,2,1,35,0,0
216874,-100,4,2,1,30,0,0
217445,-100,4,2,1,25,0,0
218015,-100,4,2,1,20,0,0
218585,-100,4,2,1,15,0,0
219155,-100,4,2,1,10,0,0
219725,-100,4,2,1,5,0,0
220296,-100,4,2,1,0,0,0

[Colours]
Combo1 : 243,223,160
Combo2 : 240,240,240
Combo3 : 86,86,252

[HitObjects]
96,96,26435,2,0,B|148:137|224:128,1,120
416,168,27575,2,0,B|344:168,1,60
288,168,28145,1,0
72,272,28715,6,0,B|128:235|209:240,1,120
344,272,29856,2,0,B|392:216,1,60
432,168,30426,1,0
368,40,30996,6,0,B|307:70|288:136,1,120
88,224,32136,2,0,B|144:256,1,60
200,288,32706,1,0
312,224,33277,6,0,B|312:152,1,60
312,96,33847,1,0
312,96,34132,1,0
424,80,34417,2,0,B|424:152,1,60
424,208,34987,1,0
306,151,35557,5,2
232,152,35842,1,0
232,152,36128,2,0,B|168:176|144:240,1,120
134,302,36983,1,0
134,302,37268,1,0
304,344,37838,5,2
356,295,38123,1,0
424,315,38408,2,0,B|470:260|470:183,1,120
424,64,39549,5,0
352,64,39834,1,0
315,125,40119,1,2
265,220,40546,1,0
265,220,40689,2,0,B|243:280|156:296,2,120
232,155,42114,1,0
197,91,42400,2,0,B|137:62|67:99,3,120,2|0|0|0
64,256,44680,5,2
136,256,44965,1,0
136,256,45250,2,0,B|272:256,1,120
328,256,46106,1,0
328,256,46391,1,0
424,144,46961,5,2
352,144,47246,1,0
352,144,47531,2,0,B|232:144,1,120
112,64,48672,5,0
64,120,48957,1,0
112,176,49242,2,0,B|144:240|224:240,2,120,2|0|0
72,232,50667,1,0
104,296,50952,1,0
171,319,51237,1,0
240,300,51522,1,2
256,192,52093,12,0,53233
482,162,53803,5,0
434,107,54088,1,0
366,81,54373,1,8
294,80,54658,2,0,B|254:80,2,30
328,143,55229,5,0
360,207,55514,1,8
319,266,55799,1,0
319,265,55941,1,0
319,266,56084,1,0
258,304,56369,1,0
186,313,56654,1,8
124,275,56939,6,0,B|68:275,2,30
141,205,57509,1,0
174,141,57794,1,8
230,95,58079,1,0
230,95,58222,1,0
230,95,58365,1,0
299,78,58650,5,0
299,78,58935,1,8
343,134,59220,1,0
375,134,59362,1,0
407,134,59505,1,0
440,197,59790,2,0,B|440:269,1,60,0|8
319,321,60360,5,0
318,321,60503,1,0
318,320,60645,1,0
246,320,60930,2,0,B|176:321,1,60,0|8
142,190,61501,1,0
142,190,61643,1,0
142,190,61786,1,0
257,300,62071,5,12
374,189,62356,1,12
256,72,62641,1,12
256,71,62926,5,0
204,121,63211,1,0
204,121,63354,1,0
204,121,63496,2,0,B|184:181|204:249,1,120,8|0
151,291,64351,1,0
152,290,64637,1,8
344,290,64922,5,0
344,290,65207,1,0
395,239,65492,1,0
395,240,65634,1,0
395,240,65777,2,0,B|454:203|475:120,1,120,8|0
466,74,66632,1,0
467,145,66917,6,0,B|467:273,1,120,8|0
368,309,67915,1,0
368,309,68058,2,0,B|312:349|240:301,2,120,8|0|8
394,241,69483,1,0
373,171,69768,2,0,B|345:116|265:98,3,120,0|8|0|8
139,66,72049,5,0
139,137,72334,1,0
139,137,72477,1,0
139,137,72619,2,0,B|139:273,1,120,8|0
206,281,73474,1,0
182,348,73759,1,8
110,348,74044,5,0
51,305,74330,1,0
32,235,74615,1,0
32,199,74757,1,0
32,162,74900,2,0,B|32:42,1,120,8|0
33,43,75755,1,0
103,55,76040,5,8
162,95,76325,1,0
211,147,76610,2,0,B|243:206|209:278,2,120,0|8|0
262,96,78036,5,0
319,53,78321,1,8
373,99,78606,1,0
418,154,78891,2,0,B|382:206|419:270,2,120,0|8|0
296,192,80316,5,0
280,192,80459,1,0
264,192,80602,1,0
248,192,80744,1,0
232,192,80887,1,0
216,192,81029,1,0
200,192,81172,1,4
185,112,90295,5,0
256,112,90580,1,0
327,113,90865,1,2
327,113,91435,1,0
255,113,91720,1,0
183,111,92005,1,8
223,251,92575,6,0,B|277:219,2,60,0|0|2
363,218,93716,2,0,B|415:257,2,60,0|0|8
257,120,94856,5,0
257,48,95141,1,0
257,119,95426,1,2
257,262,95996,1,0
257,334,96282,1,0
257,262,96567,1,8
382,192,97137,5,0
383,192,97422,1,0
311,193,97707,1,2
311,193,97992,1,0
239,194,98277,5,0
208,213,98420,1,0
192,245,98562,1,0
208,277,98705,1,0
240,293,98847,1,0
272,277,98990,1,0
288,245,99132,1,0
272,213,99275,1,0
239,194,99417,5,0
239,193,99560,1,0
239,193,99703,2,0,B|239:129,1,60,0|8
240,61,100273,1,0
240,62,100558,2,0,B|312:62,2,60,2|0|8
387,177,101698,5,0
388,177,101841,1,0
387,177,101983,1,0
415,243,102268,1,8
396,312,102553,1,0
328,337,102839,2,0,B|192:337,1,120,2|8
137,323,103694,5,0
73,289,103979,2,0,B|73:161,1,120,0|8
98,101,104834,1,0
157,61,105119,2,0,B|220:28|288:68,1,120,2|8
200,192,106260,6,0,B|280:192,1,60
331,191,106830,1,8
331,192,107115,1,0
388,234,107400,2,0,B|432:288|388:346,1,120,2|8
168,294,108540,6,0,B|168:359,3,60,0|0|8|0
95,355,109681,2,0,B|42:336|32:259,1,120,0|8
33,188,110536,1,0
76,130,110821,2,0,B|140:97|201:137,3,120,2|2|2|2
151,196,112817,1,0
189,257,113102,2,0,B|254:291|316:251,1,120,2|0
333,237,113815,5,0
357,211,113957,1,0
378,180,114100,1,0
387,145,114242,1,0
374,111,114385,1,0
361,77,114527,1,0
335,51,114670,5,0
303,33,114812,1,0
267,27,114955,1,0
231,27,115097,1,0
197,40,115240,1,0
168,61,115383,5,2
121,115,115668,1,0
121,115,115810,1,0
121,115,115953,2,0,B|121:251,1,120,8|0
122,306,116808,1,0
122,306,117093,1,8
256,307,117378,5,2
256,307,117663,1,0
325,288,117948,1,0
325,288,118091,1,0
326,289,118233,2,0,B|385:263|421:198,1,120,8|0
438,133,119089,1,0
438,133,119374,2,0,B|310:133,1,120,8|0
215,98,120372,5,0
215,98,120514,2,0,B|179:156|225:235,2,120,8|0|8
162,48,121940,1,0
102,88,122225,1,0
74,154,122510,5,0
101,220,122795,1,8
156,265,123080,1,0
156,265,123222,1,0
156,265,123365,1,0
101,221,123650,1,0
74,154,123935,1,8
257,192,124505,5,2
212,248,124790,1,0
238,272,124933,1,0
266,294,125076,1,8
329,260,125361,1,0
357,282,125503,1,0
385,304,125646,1,0
444,343,125931,1,0
444,343,126216,1,8
484,170,126501,5,0
442,111,126786,1,2
399,53,127071,1,0
362,52,127214,1,0
326,53,127356,1,8
329,126,127641,1,0
292,125,127784,1,0
256,125,127926,1,0
195,166,128212,1,0
195,167,128497,5,8
123,165,128782,1,0
123,165,129067,2,0,B|3:165,2,120,0|8|0
194,165,130492,1,0
265,165,130777,1,8
193,165,131062,1,0
265,165,131348,2,0,B|393:165,2,120,0|8|0
322,310,132773,5,0
299,281,132916,1,0
279,311,133058,1,0
259,280,133201,1,0
240,310,133343,1,0
218,280,133486,1,0
198,310,133628,5,2
132,280,133913,1,0
132,280,134056,1,0
132,280,134198,2,0,B|132:144,1,120,8|0
132,87,135054,1,0
132,88,135339,1,8
131,88,135624,5,0
181,136,135909,1,2
231,186,136194,1,0
258,209,136337,1,0
284,232,136479,1,8
322,292,136764,1,0
350,270,136907,1,0
378,248,137049,1,0
433,202,137334,2,0,B|433:138,1,60,0|8
392,81,137905,5,0
392,81,138190,1,0
291,119,138617,1,0
291,119,138760,2,0,B|163:119,2,120,8|0|8
270,187,140185,1,0
249,256,140470,2,0,B|378:255,3,120,0|8|0|8
152,193,142751,5,2
173,124,143036,1,0
194,95,143179,1,0
226,79,143321,1,8
297,79,143606,1,0
326,100,143749,1,0
346,129,143891,1,0
372,196,144177,1,0
372,196,144462,1,8
372,267,144747,5,0
345,334,145032,1,2
273,334,145317,1,0
262,299,145459,1,0
239,270,145602,1,8
167,269,145887,1,0
146,298,146030,1,0
138,332,146172,1,0
73,300,146457,1,0
74,299,146742,5,8
72,227,147027,1,2
72,154,147313,2,0,B|72:34,2,120,0|8|0
104,218,148738,1,2
162,175,149023,1,8
221,215,149308,1,0
281,175,149593,2,0,B|323:124|414:124,2,120,0|8|0
284,256,151019,5,0
262,284,151161,1,0
235,308,151304,1,0
206,329,151446,1,0
172,342,151589,1,0
136,349,151731,1,0
100,343,151874,1,4
160,88,160997,5,0
352,88,161282,1,0
160,88,161567,1,2
344,296,162137,1,0
160,296,162422,1,0
344,296,162707,1,8
88,192,163278,6,0,B|160:192,2,60,0|0|2
424,192,164418,2,0,B|352:192,2,60,0|0|8
160,72,165558,5,0
256,192,165843,1,0
160,304,166129,1,2
352,304,166699,1,0
256,192,166984,1,0
352,72,167269,1,8
256,192,167839,2,0,B|329:192,3,60,0|0|2|0
184,193,168979,5,0
147,193,169122,1,0
111,193,169264,1,0
74,193,169407,1,0
37,193,169550,1,0
74,194,169692,1,0
110,194,169835,1,0
147,194,169977,1,0
184,193,170120,5,0
183,193,170262,1,0
184,192,170405,1,0
248,192,170690,2,0,B|328:192,4,60,8|0|2|0|8
392,192,172400,5,0
392,152,172543,1,0
392,112,172686,2,0,B|392:40,1,60,0|8
320,56,173256,1,0
248,56,173541,2,0,B|112:56,1,120,2|8
72,104,174396,5,0
43,170,174681,1,0
43,170,174966,1,0
57,240,175251,1,8
100,297,175536,1,0
163,331,175822,2,0,B|219:379|291:323,1,120,2|8
256,208,176962,6,0,B|336:208,1,60
384,208,177532,1,8
384,208,177817,1,0
456,208,178102,2,0,B|512:256|456:320,1,120,2|8
328,280,179243,6,0,B|256:280,3,60,0|0|8|0
200,280,180383,2,0,B|144:336|80:264,1,120,0|8
64,216,181238,1,0
96,152,181523,2,0,B|152:96|216:168,3,120,2|2|2|2
160,216,183519,1,0
224,248,183804,6,2,B|224:296,1,30
264,232,184089,2,2,B|288:272,1,30
288,192,184374,2,2,B|320:208,1,30
304,144,184659,2,2,B|344:144,1,30
288,104,184944,2,2,B|336:88,1,30
256,80,185230,2,2,B|280:56,1,30
224,64,185515,2,2,B|224:16,1,30
184,72,185800,2,2,B|168:32,1,30
146,68,186085,5,0
110,67,186227,1,0
73,68,186370,1,0
72,139,186655,2,0,B|72:211,3,60,8|0|0|0
72,270,187795,1,8
216,268,188366,5,0
251,268,188508,1,0
287,269,188651,1,0
358,269,188936,2,0,B|430:269,2,60,8|0|2
214,270,190076,5,8
164,217,190361,1,0
211,163,190646,2,0,B|259:123,1,60
315,83,191216,2,0,B|387:83,3,60,8|0|2|0
447,85,192357,1,8
432,248,192927,6,0,B|352:248,1,60
304,248,193497,2,0,B|224:248,3,60,8|0|2|0
176,248,194637,1,8
40,192,195208,5,0
112,192,195493,1,0
112,120,195778,1,8
184,120,196063,1,0
184,48,196348,1,0
256,48,196633,1,0
328,48,196918,1,8
328,120,197203,1,0
400,120,197488,5,2
472,120,197773,1,0
473,156,197916,1,0
472,192,198059,1,2
400,200,198344,1,0
400,235,198486,1,0
400,271,198629,1,2
328,272,198914,1,0
328,307,199056,1,0
328,343,199199,1,2
328,344,199484,1,2
232,272,199769,5,0
160,272,200054,1,0
123,272,200197,1,0
87,272,200339,1,2
56,208,200624,1,0
92,208,200767,1,0
127,208,200909,1,2
168,144,201195,1,0
132,144,201337,1,0
95,144,201480,1,2
96,144,201765,1,2
80,72,202050,5,4
152,72,202335,1,0
152,72,202477,1,0
152,72,202620,2,0,B|184:48|240:104|272:72,2,120,0|0|8
295,88,204331,5,0
237,130,204616,1,0
220,200,204901,1,8
242,268,205186,1,0
242,268,205328,1,0
242,268,205471,1,0
303,306,205756,1,0
373,293,206041,1,8
323,164,206611,5,0
361,103,206896,1,0
392,121,207039,1,0
416,146,207181,2,0,B|457:192|473:252,2,120,8|0|8
288,80,208892,5,0
288,80,209177,1,0
288,80,209462,1,8
288,80,209747,1,0
219,100,210032,5,0
184,111,210175,1,0
154,130,210317,1,0
135,161,210460,1,0
124,195,210603,1,0
128,230,210745,1,0
143,262,210888,1,0
168,287,211030,1,0
200,301,211173,5,0
271,301,211458,1,0
342,301,211743,1,8
436,192,212313,1,0
381,145,212598,1,0
326,192,212883,1,8
257,68,213453,1,0
256,140,213739,1,0
257,68,214024,1,8
214,233,214594,6,0,B|163:271,1,60
299,157,215164,2,0,B|355:109,1,60,8|0
256,192,215734,12,0,220296
