osu file format v14

[General]
AudioFilename: Hareta Hi Ni [On a Clear Day].mp3
AudioLeadIn: 0
PreviewTime: 979
Countdown: 1
SampleSet: Soft
StackLeniency: 0.6
Mode: 0
LetterboxInBreaks: 1
WidescreenStoryboard: 0

[Editor]
DistanceSpacing: 1
BeatDivisor: 4
GridSize: 4
TimelineZoom: 1

[Metadata]
Title:Hareta Hi Ni
TitleUnicode:Hareta Hi Ni
Artist:Joe Hisaishi
ArtistUnicode:Joe Hisaishi
Creator:andrei7
Version:Clear day?
Source:Kiki's Delivery Service
Tags:On a Clear Day OST
BeatmapID:748631
BeatmapSetID:338390

[Difficulty]
HPDrainRate:7
CircleSize:3.8
OverallDifficulty:4
ApproachRate:6.9
SliderMultiplier:1.2
SliderTickRate:1

[Events]
//Background and Video events
0,0,"jz5k.jpg",0,0
//Break Periods
//Storyboard Layer 0 (Background)
//Storyboard Layer 1 (Fail)
//Storyboard Layer 2 (Pass)
//Storyboard Layer 3 (Foreground)
//Storyboard Sound Samples

[TimingPoints]
979,540.540540540541,3,2,0,20,1,0
4210,508.474576271186,3,2,0,20,1,0
13396,512.820512820513,3,2,0,20,1,0
18011,493.827160493827,3,2,0,20,1,0
19548,507.61421319797,3,2,0,20,1,0
24187,505.47598989048,3,2,0,20,1,0
24187,-71.4285714285714,3,2,0,20,0,0
24439,-71.4285714285714,3,2,0,5,0,0
24692,-76.9230769230769,3,2,0,20,0,0
24945,-76.9230769230769,3,2,0,5,0,0
25197,-83.3333333333333,3,2,0,20,0,0
25450,-83.3333333333333,3,2,0,5,0,0
25732,508.044030482642,3,2,0,20,1,0
25732,-90.9090909090909,3,2,0,20,0,0
31834,493.827160493827,3,2,0,20,1,0
32804,500,3,2,0,20,1,0
34814,500,3,2,0,20,1,0
36652,502.092050209205,3,2,0,20,1,0
37859,497.92531120332,3,2,0,20,1,0
41089,508.474576271186,3,2,0,20,1,0
41343,508.474576271186,3,2,0,20,1,0
42359,508.474576271186,3,2,0,20,1,0
48207,512.820512820513,3,2,0,20,1,0
48463,517.241379310345,3,2,0,20,1,0
48463,-71.4285714285714,3,2,0,20,0,0
48721,-71.4285714285714,3,2,0,5,0,0
48980,521.739130434783,3,2,0,20,1,0
48980,-76.9230769230769,3,2,0,20,0,0
49240,-76.9230769230769,3,2,0,5,0,0
49501,526.315789473684,3,2,0,20,1,0
49501,-83.3333333333333,3,2,0,20,0,0
50027,-90.9090909090909,3,2,0,20,0,0
50517,526.315789473684,3,2,0,20,1,0
58386,526.315789473684,3,2,0,20,1,0
62596,545.454545454546,3,2,0,20,1,0
65323,500,3,2,0,20,1,0
66323,545.454545454546,3,2,0,20,1,0
67413,560.747663551402,3,2,0,20,1,0
67973,500,3,2,0,20,1,0
68473,535.714285714286,3,2,0,20,1,0
73294,545.454545454546,3,2,0,20,1,0
73839,674.157303370787,3,2,0,20,1,0
74513,1395.3488372093,3,2,0,20,1,0
75908,508.474576271186,3,2,0,20,1,0
81501,545.454545454546,3,2,0,20,1,0
82046,500,3,2,0,20,1,0
98546,508.474576271186,3,2,0,20,1,0
99054,517.241379310345,3,2,0,20,1,0
99571,517.241379310345,3,2,0,20,1,0
100605,500,3,2,0,20,1,0
101105,508.474576271186,3,2,0,20,1,0
102121,500,3,2,0,20,1,0
103112,500,3,2,0,20,1,0
124112,521.739130434783,3,2,0,20,1,0
127764,530.973451327434,3,2,0,20,1,0
128294,1000,3,2,0,20,1,0

[Colours]
Combo1 : 86,122,228
Combo2 : 99,193,207

[HitObjects]
76,104,979,6,0,B|80:139|111:171|162:162|162:162|216:152|248:176|254:225,1,240
184,316,2600,2,0,P|292:332|372:224,1,240
328,124,4210,2,0,P|284:104|212:104,2,120
392,228,5735,2,0,L|444:112,2,120
288,288,7260,6,0,B|268:320|220:328|180:308|180:308|144:288|100:292|68:328,1,240
96,208,8786,2,0,B|140:172|208:189|208:189|204:112|264:72,1,240
372,84,10311,2,0,P|400:112|480:128,2,120
292,176,11837,1,0,0:0:0:0:
331,287,12345,2,0,P|368:272|448:260,1,120
413,374,13396,6,0,P|336:332|176:352,1,240
96,272,14934,2,0,B|40:252|88:216|48:172|48:172|80:128|52:72|4:72,1,240
128,28,16472,2,0,B|172:76|236:56|236:56|240:128|294:153|294:153|352:184|352:256,1,360
232,260,18504,2,0,P|208:292|208:372,1,120
92,308,19548,6,0,B|104:248|104:248|84:193|84:193|108:136|92:72,1,240
200,24,21070,2,0,B|232:84|300:68|300:68|368:52|404:116,1,240
432,228,22593,1,0,0:0:0:0:
352,316,23101,2,0,L|212:336,1,120
40,120,24187,6,0,P|91:115|162:92,1,111.999996582031
183,196,24692,2,0,P|223:175|278:121,1,103.999995239258
332,220,25197,2,0,P|360:184|380:120,1,95.9999970703126
468,204,25732,6,0,B|500:220|508:256|508:256|516:308|472:340|472:340|428:368|376:352,1,264.000008056641
272,272,27256,2,0,B|251:209|290:145|290:145|212:148|168:80,1,264.000008056641
266,11,28780,2,0,B|296:0|332:16|332:16|363:29|395:20|395:20|386:55|388:104|435:139|435:139|474:173|485:219|471:261,1,396.000012084961
420,320,30558,2,0,L|288:332,1,132.00000402832
216,292,31320,2,0,B|204:260|204:260|184:204,1,66.0000020141602
124,186,31834,6,0,B|140:152|188:136|228:156|228:156|268:176|316:160|332:124,1,240
240,48,33304,2,0,B|208:69|200:119|227:155|227:155|254:191|246:241|214:263,1,240
324,312,34821,2,0,L|392:292,1,60
424,224,35321,2,0,P|412:180|460:96,1,120
332,52,36321,1,0,0:0:0:0:
332,52,36652,2,0,B|316:52|300:56|300:56|296:112|248:132,1,120
216,56,37405,2,0,L|152:44,1,60
174,123,37859,6,0,L|116:112,1,60
184,200,38356,2,0,B|144:224|148:276|148:276|152:328|108:356,1,180
221,356,39352,2,0,B|236:328|236:296|236:296|280:260|280:260|280:224|291:201,1,180
352,152,40348,2,0,P|368:120|364:36,1,120
288,20,41089,1,0,0:0:0:0:
288,20,41343,2,0,P|252:36|216:40,1,60
156,20,41851,2,0,P|138:55|113:81,1,60
54,104,42359,2,0,B|80:168|40:217|40:217|56:280,1,180
140,304,43376,2,0,L|154:245,1,60
238,215,43885,5,0,0:0:0:0:
238,215,44139,2,0,P|276:276|340:308,1,120
392,280,44902,2,0,L|456:264,1,60
488,196,45410,1,0,0:0:0:0:
376,88,45919,2,0,B|316:76|316:76|248:104,1,120
144,80,46936,2,0,P|136:128|88:180,1,120
117,254,47698,1,0,0:0:0:0:
191,286,47953,1,0,0:0:0:0:
265,257,48207,1,0,0:0:0:0:
297,183,48463,6,0,P|280:124|304:64,1,111.999996582031
372,128,48980,2,0,P|386:67|436:28,1,103.999995239258
464,116,49501,2,0,B|488:112|512:132|520:168|504:204|472:232,1,143.999995605469
400,260,50290,5,0,0:0:0:0:
400,260,50517,2,0,B|340:264|340:264|281:308,1,120
216,328,51306,1,0,0:0:0:0:
216,328,51569,2,0,P|160:312|108:248,1,120
105,193,52359,1,0,0:0:0:0:
145,127,52622,1,0,0:0:0:0:
217,102,52885,1,0,0:0:0:0:
289,129,53148,2,0,L|352:108,1,60
420,164,53674,2,0,L|476:183,1,60
344,196,54201,2,0,L|288:216,1,60
418,250,54727,2,0,L|474:269,1,60
343,283,55253,2,0,B|308:316|260:304|260:304|208:292|176:332,1,180
104,304,56306,6,0,P|84:284|72:256,1,60
108,180,56832,2,0,P|140:172|196:92,1,120
168,32,57622,1,0,0:0:0:0:
168,32,57885,2,0,P|184:96|304:108,1,180
326,53,58912,1,0,0:0:0:0:
393,94,59175,1,0,0:0:0:0:
460,135,59438,2,0,P|472:160|480:204,1,60
396,192,59964,2,0,P|393:219|378:261,1,60
312,209,60491,1,0,0:0:0:0:
312,209,60754,2,0,P|256:196|192:148,1,120
132,128,61543,2,0,P|100:128|64:136,1,60
28,200,62070,2,0,P|33:229|33:259,1,60
8,332,62596,5,0,0:0:0:0:
88,312,62868,1,0,0:0:0:0:
168,292,63141,2,0,B|212:276|252:308|252:308|288:340|344:324,1,180
400,272,64232,2,0,B|412:212|412:212|464:172,1,120
384,68,65323,1,0,0:0:0:0:
258,105,65823,2,0,P|226:89|140:89,1,120
84,136,66595,1,0,0:0:0:0:
25,183,66868,2,0,L|16:248,1,60
76,296,67413,2,0,P|120:312|200:308,1,120
292,260,68473,2,0,P|351:256|408:274,1,120
448,340,69276,5,0,0:0:0:0:
448,340,69544,2,0,B|416:304|428:256|428:256|440:208|408:168,1,180
340,124,70615,2,0,B|304:138|256:116|243:75|243:75|244:116|215:151|168:152,1,240
76,228,72223,2,0,L|84:292,1,60
156,316,72758,2,0,B|196:284|241:302|241:302|288:321|332:284,1,180
420,268,73839,1,0,0:0:0:0:
