osu file format v5

[General]
AudioFilename: 07-Journey of the Sorcerer.mp3
AudioLeadIn: 2007
PreviewTime: -1
Countdown: 1
SampleSet: Normal

[Metadata]
Title:Journey of the Sorcerer
Artist:Joby Talbot
Creator:MOOMANiBE
Version:Normal

[Difficulty]
HPDrainRate:4
CircleSize:4
OverallDifficulty:5
SliderMultiplier:0.7
SliderTickRate:1

[Events]
//Background and Video events
0,0,"HHG2.jpg"
//Break Periods
//Storyboard Layer 0 (Background)
//Storyboard Layer 1 (Failing)
//Storyboard Layer 2 (Passing)
//Storyboard Layer 3 (Foreground)
//Storyboard Sound Samples
//Background Colour Transformations
3,100,163,162,255

[TimingPoints]
1640,375.297837905237,4,1,0,62
37637,373.831937905237,4,1,0,100
62309,373.831937905237,4,1,0,100

[HitObjects]
256,192,1640,1,4
256,64,3141,5,0
312,64,3328,1,0
256,176,3891,1,0
312,176,4079,1,0
416,176,4642,1,4
256,248,6143,5,0
192,248,6331,1,0
88,248,6706,1,0
88,184,6894,1,0
88,120,7081,1,0
192,120,7644,5,4
304,120,8395,1,0
192,104,8958,1,0
192,168,9145,1,0
192,232,9333,2,0,B|265:232|360:232,1,140
416,232,10271,1,0
416,104,10647,5,4
256,120,12148,1,0
200,120,12335,1,0
96,120,12711,1,0
96,168,12898,1,0
96,224,13086,1,0
200,224,13649,5,4
304,328,14400,2,0,B|304:136|248:56|80:64,1,350
88,168,16651,1,0
112,336,18153,5,0
160,336,18340,1,0
264,336,18716,2,0,B|352:336,1,70
320,192,19654,1,0
320,32,21155,6,0,B|320:71|320:80,1,70
256,144,21718,1,0
200,144,21906,1,0
256,232,22281,1,0
312,232,22469,1,0
368,232,22657,1,0
368,328,23031,1,0
256,328,23407,1,0
256,192,23782,5,0
256,96,24157,1,0
168,256,24533,1,0
336,256,24908,1,0
336,160,25283,1,0
336,96,25471,1,0
336,32,25659,2,0,B|142:24|81:45|88:344,1,420
184,232,28286,5,0
184,328,28661,2,0,B|461:366|456:16,1,420
304,32,31288,1,0
240,32,31476,1,0
176,32,31663,2,0,B|122:351|448:328,1,420
432,208,34290,1,0
432,144,34478,1,0
432,80,34666,2,0,B|95:68|112:344,1,420
256,192,37637,5,0
256,296,38758,1,0
368,224,39132,2,0,B|251:157|136:224,1,210
192,136,40627,5,4
312,136,41001,1,0
224,216,41749,1,0
288,216,41936,1,0
256,264,42122,1,0
256,344,42496,1,0
368,344,42870,2,0,B|368:176,1,140
448,256,43992,5,0
448,160,44739,1,0
448,96,44926,1,0
448,32,45113,2,0,B|120:32,1,280
128,120,46982,5,4
224,120,47730,1,0
280,120,47917,1,0
336,120,48104,1,0
336,168,48291,1,0
336,216,48478,1,0
224,216,48851,2,0,B|56:216,1,140
64,136,49973,1,4
256,56,50721,5,0
216,120,50908,1,0
296,120,51094,1,0
216,240,51842,1,0
296,240,52029,1,0
256,288,52216,1,0
344,344,52590,5,0
456,344,52964,2,0,B|456:96,1,210
360,104,54459,2,0,B|272:104,1,70
96,160,55580,2,0,B|264:160,1,140
360,160,56702,1,0
360,224,56889,1,0
360,288,57076,1,0
256,272,58571,5,0
168,272,58945,1,0
48,272,59693,1,0
88,224,59880,1,0
128,176,60066,1,0
192,104,60440,1,0
256,56,60814,2,0,B|256:224,1,140
256,288,61936,1,0
256,152,62683,5,0
256,96,62870,1,0
252,35,63057,2,0,B|68:34|66:199|70:361|254:368|428:358|428:199|420:34|256:35,2,840
200,168,72543,5,0
312,168,72918,1,0
200,264,73291,1,0
312,272,73664,1,0
