osu file format v5

[General]
AudioFilename: 07-Journey of the Sorcerer.mp3
AudioLeadIn: 2007
PreviewTime: -1
Countdown: 1
SampleSet: Normal

[Metadata]
Title:Journey of the Sorcerer
Artist:Joby Talbot
Creator:MOOMANiBE
Version:Insane

[Difficulty]
HPDrainRate:7
CircleSize:7
OverallDifficulty:7
SliderMultiplier:0.7
SliderTickRate:1

[Events]
//Background and Video events
0,0,"HHG2.jpg"
//Break Periods
//Storyboard Layer 0 (Background)
//Storyboard Layer 1 (Failing)
//Storyboard Layer 2 (Passing)
//Storyboard Layer 3 (Foreground)
//Storyboard Sound Samples
//Background Colour Transformations
3,100,163,162,255

[TimingPoints]
1640,375.304935259899,4,2,0,62
37637,373.831775700935,4,1,0,61

[HitObjects]
256,192,1640,1,4
256,64,3141,5,0
296,40,3328,2,0,B|336:79|337:137,1,105
312,168,4079,1,0
256,192,4642,1,4
256,248,6143,5,0
200,248,6331,2,0,B|134:118|121:85,1,175
256,64,7644,5,4
256,152,8395,2,0,B|256:224,1,70
256,272,8958,1,0
232,312,9146,1,0
280,312,9333,2,0,B|399:312|400:207,1,175
400,96,10647,5,4
256,144,11773,1,0
232,184,11960,1,0
280,184,12148,1,0
256,224,12336,1,0
232,304,12711,1,0
280,304,12899,1,0
256,344,13086,1,0
144,344,13649,5,4
144,256,14400,2,0,B|144:144,1,105
144,104,15150,1,0
144,56,15338,1,0
232,56,15713,1,0
232,104,15901,1,0
232,152,16089,1,0
232,200,16276,2,0,B|304:200,1,70
320,192,18153,6,0,B|319:161|320:144,1,35
256,200,18716,2,0,B|256:160,2,35
256,240,19279,1,0
192,192,19654,1,0
256,48,21062,6,0,B|256:70|256:88,1,35
256,144,21624,1,0
240,176,21812,1,0
272,192,22000,1,0
240,208,22187,1,0
272,224,22375,1,0
256,256,22563,1,0
200,304,23032,1,0
312,304,23407,1,0
256,280,23782,5,0
256,232,23970,1,0
256,184,24158,1,0
280,144,24345,1,0
328,144,24533,1,0
376,144,24721,1,0
424,144,24908,1,0
472,144,25096,1,0
472,192,25284,1,0
424,192,25471,1,0
424,240,25659,2,0,B|254:383|2:205|111:80,1,490
160,88,28661,1,0
160,168,29037,1,0
96,168,29412,1,0
88,88,29975,5,0
128,64,30163,1,0
128,112,30350,1,0
176,64,30538,1,0
176,112,30726,1,0
224,64,30913,1,0
224,112,31101,1,0
264,88,31289,1,0
312,88,31476,1,0
360,88,31664,2,0,B|464:260|262:349|56:336,1,490
64,288,34479,5,0
64,168,35042,1,0
152,232,35417,1,4
208,144,35980,5,0
256,160,36168,1,0
304,144,36355,1,0
320,96,36543,1,0
304,48,36731,1,0
256,32,36918,1,0
208,48,37106,1,0
192,96,37293,1,0
256,96,37481,1,0
256,160,37683,2,0,B|256:344,1,175
192,336,38805,5,4
176,224,39132,2,0,B|164:188|232:148|321:169|335:201|336:228,1,210
192,64,40627,5,4
320,64,41001,1,0
232,96,41749,1,0
280,96,41936,1,0
256,136,42122,1,0
256,176,42309,1,0
256,216,42496,1,0
256,296,42870,2,0,B|256:154,1,140
256,96,43992,6,0,B|112:96,1,140
112,144,44926,1,0
112,192,45113,2,0,B|400:193,1,280
392,96,46982,5,4
224,88,47730,1,0
288,88,47917,1,0
232,128,48104,1,0
280,128,48291,1,0
256,168,48478,1,0
256,248,48851,2,0,B|255:103,1,140
256,48,49973,1,4
256,112,50721,5,0
256,160,50908,1,0
255,208,51094,1,0
255,208,51281,1,0
255,208,51468,1,0
255,208,51655,1,0
255,208,51842,1,0
256,208,52029,1,0
256,208,52216,1,0
256,208,52403,1,0
304,208,52590,5,0
328,160,52964,2,0,B|183:161,1,140
184,112,53898,1,0
232,112,54085,1,0
280,112,54272,1,0
264,64,54459,2,0,B|180:64,3,70
192,128,55954,2,0,B|335:128,1,140
336,176,56889,2,0,B|287:176,1,35
256,192,57450,5,0
256,192,57823,1,0
312,144,58571,5,0
312,64,58945,1,0
256,96,59693,1,0
232,136,59879,1,0
280,136,60066,1,0
304,96,60253,1,0
280,56,60440,1,0
208,96,60814,2,0,B|208:248,1,140
256,176,61936,2,0,B|333:176,1,70
256,104,62730,5,0
256,56,62917,1,0
256,8,63151,2,0,B|40:10|44:352|254:352|468:352|469:8|256:8,2,840
304,72,72543,1,4
328,112,72917,1,4
352,152,73291,1,4
184,56,73665,1,4
