osu file format v5

[General]
AudioFilename: Sonic and Knuckles - Lava Reach - OC Remix.mp3
AudioLeadIn: 0
PreviewTime: -1
Countdown: 1
SampleSet: Soft
StackLeniency: 0.7
Mode: 0

[Metadata]
Title:Sonic & Knuckles Lava Reach OC ReMix
Artist:Jivemaster
Creator:buraimaster1234
Version:Insane
Source:
Tags:

[Difficulty]
HPDrainRate:5
CircleSize:6
OverallDifficulty:7
SliderMultiplier:2.2
SliderTickRate:4

[Events]
//Background and Video events
0,0,"screensk42rw.png"
//Break Periods
2,60988,74942
2,136578,150297
2,163744,165415
2,196933,210769
//Storyboard Layer 0 (Background)
//Storyboard Layer 1 (Failing)
//Storyboard Layer 2 (Passing)
//Storyboard Layer 3 (Foreground)
//Storyboard Sound Samples
//Background Colour Transformations
3,100,159,158,249

[TimingPoints]
294,472.44094488189,4,2,0,100
150530,472.44094488189,4,1,0,100
165646,472.44094488189,4,2,0,100
174152,472.44094488189,4,1,0,100
211002,472.44094488189,4,2,0,100

[HitObjects]
64,64,30530,1,2
160,64,31002,1,2
256,64,31475,1,2
352,64,31947,1,6
448,64,32419,1,2
448,160,32892,1,2
352,160,33364,1,2
304,160,33601,1,0
256,160,33837,1,6
160,160,34309,1,2
64,160,34782,1,2
64,256,35254,5,2
112,256,35490,1,0
160,256,35727,1,6
256,256,36199,1,2
352,256,36671,1,6
400,256,36908,1,0
448,256,37144,1,2
400,304,37380,1,4
352,352,37616,1,6
376,352,37734,1,4
424,352,37971,1,0
448,352,38089,5,2
352,352,38561,1,2
256,352,39034,1,2
160,352,39506,1,6
64,352,39979,1,2
64,256,40451,1,2
160,256,40923,1,2
208,256,41160,1,0
256,256,41396,1,6
352,256,41868,1,2
448,256,42341,1,2
448,160,42813,5,2
400,160,43049,1,0
352,160,43286,1,6
256,160,43758,1,2
160,160,44231,1,6
112,160,44467,1,0
64,160,44703,1,2
112,112,44939,1,4
160,64,45175,1,6
160,64,45293,1,4
256,160,45648,5,0
320,160,45884,2,2,B|384:160|416:256|384:320|288:320,1,220
288,320,46475,1,0
208,272,46711,1,0
256,192,46947,1,0
288,192,47065,1,0
352,192,47301,1,0
352,288,47538,5,0
288,288,47774,2,2,B|224:288|192:192|224:128|320:128,1,220
320,128,48364,1,0
400,160,48601,1,0
320,192,48837,1,0
296,168,48955,1,0
320,96,49191,1,0
256,160,49427,5,0
256,96,49664,2,2,B|160:96|192:192,2,110
256,160,50254,1,0
128,160,50490,1,0
192,224,50727,1,0
192,256,50845,1,0
96,224,51081,1,0
96,320,51317,5,0
96,256,51553,2,2,B|192:256|160:160,2,110
96,320,52144,1,0
192,320,52380,1,0
256,256,52616,1,0
280,280,52734,1,0
240,176,52971,1,0
288,96,53207,5,0
416,96,53561,1,0
416,224,53916,1,0
256,224,54388,1,0
96,224,54860,1,0
96,128,55097,1,0
224,128,55451,1,0
352,128,55805,1,0
352,288,56278,1,0
224,288,56750,1,0
160,224,56986,5,2
224,160,57341,1,2
160,96,57695,1,2
288,96,58168,1,0
288,224,58640,1,0
256,192,58876,12,0,60766
96,96,76120,5,6
192,96,76475,1,6
288,96,76829,1,6
288,192,77183,1,6
192,192,77538,1,6
96,288,78010,5,6
192,288,78364,1,6
192,192,78719,1,6
192,288,79073,1,6
288,288,79427,1,6
256,192,79900,5,6
256,96,80254,1,6
352,96,80608,1,6
352,192,80963,1,6
256,192,81317,1,6
192,256,81790,5,6
288,256,82144,1,6
384,160,82498,1,6
288,160,82734,1,6
384,160,82971,1,6
352,192,83089,1,4
320,224,83207,1,2
352,160,83443,1,6
416,256,83679,5,6
320,256,84034,1,6
224,256,84388,1,6
224,160,84742,1,6
320,256,85097,1,6
416,96,85569,5,6
320,96,85923,1,6
416,192,86278,1,6
416,288,86632,1,6
320,288,86986,1,6
128,288,87459,5,6
224,288,87813,1,6
224,192,88168,1,6
320,192,88522,1,6
224,192,88876,1,6
320,128,89349,5,6
224,128,89703,1,6
128,224,90057,1,6
224,224,90293,1,4
160,256,90530,1,4
192,288,90648,1,4
224,320,90766,6,2,B|224:288|288:288,2,55
224,224,91356,1,0
320,224,91711,1,2
416,160,92419,1,0
384,96,92656,1,2
288,64,93010,2,0,B|224:64|224:96,1,55
96,64,94545,6,2,B|128:64|128:128,2,55
96,192,95136,1,0
160,256,95490,1,2
352,192,96199,1,0
384,256,96435,1,2
288,288,96790,2,2,B|288:256|224:256,1,55
224,64,98325,6,2,B|224:96|288:96,2,55
224,160,98916,1,0
320,160,99270,1,2
416,224,99979,1,0
384,288,100215,1,2
288,320,100569,2,0,B|224:320|224:288,1,55
96,320,102105,6,2,B|128:320|128:256,2,55
96,192,102695,1,0
160,128,103049,1,2
352,192,103758,1,0
384,128,103994,1,2
288,96,104349,2,2,B|288:128|224:128,1,55
96,128,105884,6,2,B|160:128|160:160,1,55
192,160,106120,2,2,B|128:224|96:288|160:352|256:320|288:256|224:192,1,330
192,128,108010,1,2
256,192,108364,1,0
320,128,108719,1,2
384,288,110136,5,2
320,256,110372,1,0
288,320,110608,1,0
224,288,110845,1,2
136,336,111199,1,0
144,248,111553,1,0
144,184,111790,1,2
104,112,112144,1,0
192,144,112380,1,0
192,104,112498,1,2
248,144,112734,1,2
352,160,113207,1,2
224,224,113679,5,0
288,256,113916,1,0
320,224,114034,1,0
320,304,114388,1,2
192,288,115097,1,2
128,224,115569,1,0
96,160,115805,1,0
128,128,115923,1,0
224,96,116160,1,0
192,128,116278,1,2
384,64,117459,5,0
352,128,117695,1,0
384,160,117813,1,0
352,224,118168,1,2
224,192,118876,1,0
256,192,119349,12,0,121238
64,128,121711,1,0
128,96,121947,1,0
200,96,122183,1,2
320,96,123128,1,0
256,128,123364,1,0
320,192,123719,1,0
224,192,124073,1,0
160,256,124545,5,0
224,256,124782,1,0
288,256,125018,1,0
352,192,125490,1,0
352,128,125727,1,0
320,64,125963,1,2
224,96,126908,5,0
160,64,127144,1,0
96,128,127498,1,0
160,192,127853,1,0
256,192,128325,5,0
256,128,128561,1,0
320,128,128797,1,0
384,192,129270,1,0
320,224,129506,1,0
320,288,129742,1,2
256,288,129979,1,0
320,288,130215,1,0
256,288,130451,1,0
192,288,130687,5,0
128,288,130923,1,0
160,224,131278,1,0
224,192,131632,1,0
256,96,132105,5,0
256,160,132341,1,0
320,160,132577,1,0
384,224,133049,1,0
384,160,133286,1,0
320,224,133522,1,2
320,224,133758,1,0
288,288,133994,1,0
224,288,134231,1,0
160,288,134467,5,0
96,288,134703,1,0
128,224,135057,1,0
192,192,135412,1,0
360,192,135884,5,0
296,192,136120,1,0
232,192,136356,1,0
320,128,151474,5,0
192,128,152774,1,0
192,128,152892,1,0
160,160,153128,1,0
224,224,154309,1,0
288,288,154781,1,0
288,288,154900,1,0
288,288,155018,1,0
352,128,155726,5,0
384,160,155963,1,0
360,320,156553,1,0
360,320,156671,1,0
392,288,156907,1,0
320,192,158089,1,0
384,128,158561,1,0
184,192,159742,5,0
328,192,160215,1,0
400,192,161632,1,0
112,192,162104,1,0
144,224,162341,1,0
144,224,162459,1,0
288,192,163522,1,0
288,128,166590,5,0
352,128,166827,1,0
368,160,166945,1,0
384,192,167063,1,0
416,256,167299,2,0,B|352:288|288:288,2,110
256,288,168480,1,0
192,256,168716,1,0
192,224,168834,1,0
192,192,168953,1,0
192,128,169189,2,0,B|256:128|320:96,3,110
352,64,170134,1,0
352,128,170370,5,0
352,160,170488,1,0
352,192,170606,1,0
352,256,170842,1,0
352,288,170960,1,0
352,320,171079,2,0,B|256:224,3,110
224,192,172023,1,0
128,160,172260,5,0
144,128,172378,1,0
160,96,172496,1,0
224,160,172850,1,0
256,192,172968,1,0
320,256,173323,1,0
320,160,173677,1,0
224,256,174031,1,0
192,256,174152,5,0
128,224,174388,1,0
128,160,174624,1,0
160,96,174860,1,0
224,96,175096,1,0
288,64,175333,1,0
352,64,175569,1,0
352,64,175687,1,0
352,64,175805,1,0
416,96,176041,5,0
352,128,176277,1,0
352,192,176514,1,0
384,256,176750,1,0
352,272,176868,1,0
320,288,176986,1,0
256,288,177222,1,0
192,288,177459,2,0,B|96:288|128:192,2,110
224,288,178049,1,0
256,288,178167,5,0
224,352,178403,1,0
160,352,178640,1,0
144,320,178758,1,0
128,288,178876,1,0
128,224,179112,1,0
96,160,179348,1,0
96,96,179585,2,0,B|96:160|192:128,1,110
224,120,179939,1,0
224,120,180057,5,0
288,128,180293,1,0
288,160,180411,1,0
288,192,180529,1,0
352,160,180766,1,0
352,192,180884,1,0
352,224,181002,1,0
416,224,181238,1,0
416,256,181356,1,0
416,288,181474,1,0
416,320,181592,1,0
416,288,181711,1,0
352,288,181947,5,2
320,224,182183,1,2
320,224,182301,1,0
352,96,183600,1,0
288,128,183837,1,2
224,96,184073,1,2
224,96,184191,1,0
128,224,185490,1,0
160,288,185726,1,2
208,240,185963,1,2
208,240,186081,1,0
384,160,187380,1,0
320,192,187616,5,2
256,192,187852,1,2
256,192,187970,1,0
216,128,188207,1,2
216,128,188325,1,0
128,160,188561,1,2
128,160,188679,1,0
216,128,188915,1,0
216,128,189033,1,2
256,128,189151,1,0
288,128,189270,1,0
384,96,189506,5,2
352,160,189742,1,2
352,160,189860,1,0
192,256,191159,1,0
256,224,191396,1,2
272,288,191632,1,2
272,288,191750,1,0
448,224,193049,1,0
384,256,193285,1,2
320,288,193522,1,2
320,288,193640,1,0
64,160,194939,1,0
128,192,195175,5,2
192,192,195411,1,2
192,192,195529,1,0
264,128,195766,1,2
264,128,195884,1,0
368,152,196120,1,2
368,152,196238,1,0
368,152,196356,5,4
280,224,196592,1,4
280,224,196711,1,4
256,128,211946,6,2,B|128:96|96:192,1,165
96,224,212655,1,2
224,224,213364,1,2
288,288,213836,1,2
352,256,214190,1,2
320,192,214545,1,2
208,208,215253,1,2
288,128,215962,5,2
208,160,216316,1,2
256,224,216671,1,2
224,304,217025,1,2
160,256,217379,1,2
96,256,217616,1,2
128,176,217970,1,2
208,224,218324,1,2
256,192,218561,1,2
288,256,219033,1,2
96,96,219505,5,2
192,96,219742,1,2
224,128,219860,1,2
256,192,220214,1,2
256,288,220687,1,2
320,288,220923,1,2
400,240,221395,1,2
368,192,221631,1,0
352,160,221750,1,2
448,128,221986,1,2
416,128,222104,1,2
288,128,222576,1,2
224,192,223049,1,2
224,256,223285,5,2
320,256,223521,1,0
320,288,223639,1,2
384,160,223994,1,2
320,96,224466,1,2
256,96,224702,1,2
256,192,225175,1,2
128,160,225411,1,0
192,160,225529,1,2
128,160,225765,1,2
128,224,226001,1,2
256,192,226120,12,0,226592
