osu file format v13

[General]
AudioFilename: Jioyi - RAM Overload.mp3
AudioLeadIn: 0
PreviewTime: 125319
Countdown: 0
SampleSet: Normal
StackLeniency: 0.7
Mode: 0
LetterboxInBreaks: 1
WidescreenStoryboard: 1

[Editor]
Bookmarks: 36440,45329,107551,123107,214218,223107
DistanceSpacing: 1.2
BeatDivisor: 4
GridSize: 4
TimelineZoom: 0.9999994

[Metadata]
Title:RAM Overload
TitleUnicode:RAM Overload
Artist:Jioyi
ArtistUnicode:Jioyi
Creator:Meyrink
Version:Hard
Source:NightCore Network
Tags:NightCore Jioyi RAM Overload Electronic Piano
BeatmapID:521051
BeatmapSetID:222969

[Difficulty]
HPDrainRate:6
CircleSize:4
OverallDifficulty:5
ApproachRate:7
SliderMultiplier:1.6
SliderTickRate:1

[Events]
//Background and Video events
0,0,"BG.jpg",0,0
//Break Periods
2,36629,44419
2,107741,122197
//Storyboard Layer 0 (Background)
//Storyboard Layer 1 (Fail)
//Storyboard Layer 2 (Pass)
//Storyboard Layer 3 (Foreground)
//Storyboard Sound Samples
//Background Colour Transformations
3,100,64,0,128

[TimingPoints]
875,555.555555555556,4,1,1,40,1,0
885,-100,4,2,1,5,0,0
18652,-100,4,1,1,55,0,0
36152,-66.6666666666667,4,1,1,55,0,0
36430,-100,4,2,1,10,0,0
54208,-100,4,1,1,60,0,1
56986,-83.3333333333333,4,1,1,60,0,1
57541,-100,4,1,1,60,0,1
61986,-66.6666666666667,4,1,1,60,0,1
62541,-100,4,1,1,60,0,1
63097,-100,4,1,1,60,0,0
66708,-83.3333333333333,4,1,1,60,0,0
67263,-100,4,1,1,60,0,0
89763,-100,4,2,1,50,0,0
125319,-100,4,1,1,60,0,1
130597,-83.3333333333333,4,1,1,60,0,1
131152,-100,4,1,1,60,0,1
134208,-100,4,1,1,60,0,0
140875,-100,4,2,1,60,0,0
143097,-100,4,1,1,60,0,0
160875,-100,4,1,1,70,0,1
195319,-100,4,1,1,60,0,0
200875,-100,4,1,1,50,0,0
205319,-100,4,1,1,40,0,0
209763,-100,4,1,1,30,0,0
218652,-100,4,1,1,20,0,0
223097,-100,4,1,1,15,0,0

[Colours]
Combo1 : 128,0,255
Combo2 : 255,128,128
Combo3 : 128,0,128
Combo4 : 0,0,160

[HitObjects]
256,192,15875,12,0,17819,0:0:0:0:
110,244,18652,6,0,B|57:214|48:142|48:142|12:124,1,160,0|8,0:0|0:0,0:0:0:0:
104,64,19486,1,0,0:0:0:0:
104,64,19625,1,0,0:0:0:0:
104,64,19763,1,0,0:0:0:0:
213,39,20041,1,0,0:0:0:0:
301,94,20319,1,8,0:0:0:0:
384,59,20597,2,0,L|460:15,2,80,0|0|0,0:0|0:0|0:0,0:0:0:0:
301,94,21430,1,8,0:0:0:0:
384,59,21708,2,0,P|385:136|323:182,1,160
483,247,22541,1,8,0:0:0:0:
304,248,23097,6,0,P|248:232|176:248,1,120
188,242,23652,1,8,0:0:0:0:
120,176,23930,1,0,0:0:0:0:
200,128,24208,1,0,0:0:0:0:
120,176,24486,1,0,0:0:0:0:
192,40,24763,1,8,0:0:0:0:
46,47,25319,2,0,B|56:107|120:139|120:139|120:187,1,160,0|8,0:0|0:0,0:0:0:0:
64,256,26152,1,0,0:0:0:0:
112,336,26430,1,0,0:0:0:0:
200,288,26708,1,0,0:0:0:0:
296,304,26986,1,8,0:0:0:0:
424,88,27541,6,0,P|440:128|424:176,1,80
328,240,28097,2,0,P|312:203|319:164,2,80,8|0|0,0:0|0:0|0:0,0:0:0:0:
432,163,28930,2,0,P|439:124|424:88,1,80,0|8,0:0|0:0,0:0:0:0:
496,24,29486,1,0,0:0:0:0:
424,88,29763,2,0,B|352:96|308:48|308:48|276:60,1,160,0|8,0:0|0:0,0:0:0:0:
192,104,30597,1,0,0:0:0:0:
100,68,30875,2,0,L|12:28,2,80,0|0|8,0:0|0:0|0:0,0:0:0:0:
192,104,31708,1,0,0:0:0:0:
273,67,31986,6,0,P|274:144|212:190,1,160
126,226,32819,2,0,P|129:149|196:101,1,160,0|0,0:3|0:0,0:0:0:0:
191,101,33652,1,0,0:0:0:0:
328,192,34208,1,0,0:0:0:0:
440,96,34486,1,0,0:0:0:0:
440,96,34625,1,0,0:0:0:0:
440,96,34763,1,0,0:0:0:0:
488,176,35041,1,0,0:0:0:0:
440,96,35319,2,0,B|392:64|320:80|320:80|288:56,1,160
176,80,36152,2,0,P|128:144|120:208,1,120.000004577637,0|4,0:0|0:0,0:0:0:0:
120,146,45319,6,0,P|152:222|92:303,1,160,0|0,0:0|0:0,0:0:0:0:
40,218,46153,1,0,0:0:0:0:
118,148,46430,2,0,P|177:112|191:80,1,80
331,104,46986,2,0,P|358:133|395:148,1,80
255,130,47541,2,0,L|256:210,2,80,0|0|0,0:0|0:0|0:0,0:0:0:0:
330,57,48375,1,0,0:0:0:0:
426,96,48653,1,0,0:0:0:0:
448,197,48931,1,0,0:0:0:0:
392,284,49208,1,0,0:0:0:0:
159,172,49764,5,0,0:0:0:0:
87,96,50042,1,0,0:0:0:0:
158,171,50319,1,0,0:0:0:0:
107,262,50597,2,0,L|63:339,2,80,0|0|0,0:0|0:0|0:0,0:0:0:0:
159,171,51430,1,0,0:0:0:0:
256,192,51986,12,0,54208,0:0:0:0:
232,264,54763,5,8,0:0:0:0:
312,312,55041,1,0,0:0:0:0:
464,144,55458,2,0,L|440:72,2,40,0|0|0,0:0|0:0|0:0,0:0:0:0:
464,168,55875,2,0,P|416:216|312:200,1,160,8|0,0:0|0:0,0:0:0:0:
264,144,56708,1,0,0:0:0:0:
168,196,56986,2,0,L|56:260,2,95.9999970703126,8|0|0,0:0|0:0|0:0,0:0:0:0:
264,144,57819,1,0,0:0:0:0:
432,80,58097,1,8,0:0:0:0:
432,80,58652,6,0,B|360:56|304:80|304:80|264:48,1,160,0|8,0:0|0:0,0:0:0:0:
200,16,59486,1,0,0:0:0:0:
281,61,59763,1,0,0:0:0:0:
112,80,60041,1,0,0:0:0:0:
112,80,60180,1,0,0:0:0:0:
112,80,60319,2,0,B|89:127|89:127|59:145,1,80,8|0,0:0|0:0,0:0:0:0:
136,240,60875,2,0,L|88:336,1,80
248,280,61430,2,0,L|296:184,1,80,8|0,0:0|0:0,0:0:0:0:
384,144,61986,2,0,P|464:128|496:88,2,120.000004577637,0|0|8,0:0|0:0|0:0,0:0:0:0:
384,144,62819,1,0,0:0:0:0:
288,128,63097,6,0,B|224:128|200:64|200:64|150:55,1,160,0|8,0:0|0:0,0:0:0:0:
83,93,63930,2,0,B|79:88|79:88|70:96|70:96|62:88|62:88|54:96|54:96|47:88|47:88|39:97|39:97|30:88|30:88|23:96|23:96|14:88|14:88|7:96|7:96|-1:88,2,120,0|0|8,0:0|0:0|0:0,0:0:0:0:
172,132,65041,1,0,0:0:0:0:
95,191,65319,2,0,P|163:229|236:203,1,160
236,203,66152,1,0,0:0:0:0:
236,203,66430,1,0,0:0:0:0:
312,128,66708,2,0,L|392:40,2,95.9999970703126,0|8|0,0:0|0:0|0:0,0:0:0:0:
237,203,67541,6,0,B|184:265|184:265|144:265,1,120
145,265,68097,1,0,0:0:0:0:
128,180,68375,2,0,P|72:216|68:304,1,160
145,265,69208,1,0,0:0:0:0:
313,220,69763,1,0,0:0:0:0:
418,64,70319,1,0,0:0:0:0:
436,248,70875,1,0,0:0:0:0:
311,112,71430,1,0,0:0:0:0:
480,144,71986,5,0,0:0:0:0:
408,240,72263,2,0,B|376:272|376:272|320:264,1,80,0|8,0:0|0:0,0:0:0:0:
224,232,72819,1,0,0:0:0:0:
120,296,73097,2,0,B|108:294|108:294|107:305|107:305|95:303|95:303|94:314|94:314|82:313|82:313|81:324|81:324|69:322|69:322|68:333|68:333|57:331|57:331|55:343|55:343|44:341|44:341|42:352|42:352|31:350|31:350|27:373,1,160,0|8,0:0|0:0,2:0:0:0:
48,120,74208,1,0,0:0:0:0:
120,184,74486,2,0,B|160:176|160:176|184:144,1,80,0|8,0:0|0:0,0:0:0:0:
256,80,75041,1,0,0:0:0:0:
328,144,75319,2,0,B|352:176|352:176|392:184,2,80,0|0|0,0:0|0:0|0:0,0:0:0:0:
256,80,76152,6,0,L|344:40,2,80,0|0|0,0:0|0:0|0:0,0:0:0:0:
160,104,76986,1,8,0:0:0:0:
88,40,77263,1,0,0:0:0:0:
160,104,77541,1,0,0:0:0:0:
80,152,77819,1,0,0:0:0:0:
256,80,78097,6,0,P|277:159|223:217,1,160
134,280,78930,1,0,0:0:0:0:
134,280,79069,1,0,0:0:0:0:
134,280,79208,1,8,0:0:0:0:
230,214,79486,1,0,0:0:0:0:
140,164,79763,1,0,0:0:0:0:
230,214,80041,1,0,0:0:0:0:
324,268,80319,6,0,B|340:329|414:333|414:333|437:378,2,160,8|0|8,0:0|0:0|0:0,0:0:0:0:
408,200,81708,2,0,B|416:208|416:208|423:200|423:200|432:208|432:208|439:200|439:200|448:209|448:209|456:200|456:200|463:208|463:208|471:200|471:200|479:208|479:208|488:200|488:200|495:208,2,120,0|0|8,0:0|0:0|0:0,0:0:0:0:
304,136,82819,1,0,0:0:0:0:
200,72,83097,2,0,B|154:42|154:42|96:64,1,80
154,158,83652,2,0,L|222:199,2,80,8|0|0,0:0|0:0|0:0,0:0:0:0:
69,105,84486,1,0,0:0:0:0:
153,158,84763,6,0,P|154:237|89:296,2,160,8|0|8,0:0|0:0|0:0,0:0:0:0:
64,200,86152,2,0,L|232:272,1,160
211,263,86986,1,8,0:0:0:0:
400,224,87541,1,0,0:0:0:0:
211,263,88097,1,0,0:0:0:0:
224,72,88652,1,8,0:0:0:0:
456,48,89208,2,0,L|480:16,2,40,8|0|8,0:0|0:0|0:0,0:0:0:0:
392,144,89763,6,0,P|360:224|416:304,1,160,0|8,0:0|0:0,0:0:0:0:
458,216,90597,1,0,0:0:0:0:
390,286,90875,2,0,L|310:342,1,80,0|0,0:0|0:0,0:0:0:0:
182,317,91430,2,0,L|248:272,1,80,8|0,0:0|0:0,0:0:0:0:
224,176,91986,2,0,B|199:135|199:135|144:120,2,80,0|0|8,0:0|0:0|0:0,0:0:0:0:
248,272,92819,1,0,0:0:0:0:
160,312,93097,1,0,0:0:0:0:
72,264,93375,1,0,0:0:0:0:
32,176,93652,1,8,0:0:0:0:
171,101,94208,5,0,0:0:0:0:
211,13,94486,1,0,0:0:0:0:
294,81,94763,1,0,0:0:0:0:
384,48,95041,2,0,L|472:40,2,80,0|0|0,0:0|0:0|0:0,0:0:0:0:
294,81,95875,2,0,P|362:145|431:135,2,160,8|0|8,0:0|0:0|0:0,0:0:0:0:
384,48,97263,1,0,0:0:0:0:
423,139,97541,2,0,B|427:205|475:245|475:245|450:286,1,160,0|8,0:0|0:0,0:0:0:0:
232,296,98652,5,0,0:0:0:0:
168,224,98930,1,0,0:0:0:0:
232,296,99208,1,8,0:0:0:0:
136,320,99486,2,0,L|48:336,2,80,0|0|0,0:0|0:0|0:0,0:0:0:0:
232,296,100319,2,0,P|267:227|232:151,1,160,8|0,0:0|0:0,0:0:0:0:
176,224,101152,2,0,L|72:208,2,80,0|8|0,0:0|0:0|0:0,0:0:0:0:
272,200,101986,1,0,0:0:0:0:
344,136,102263,1,0,0:0:0:0:
400,56,102541,1,8,0:0:0:0:
400,56,102819,1,0,0:0:0:0:
344,136,103097,6,0,B|272:128|256:64|256:64|192:64,1,160,0|8,0:0|0:0,0:0:0:0:
128,40,103930,2,0,L|48:16,2,80,0|0|0,0:0|0:0|0:0,0:0:0:0:
216,64,104763,1,8,0:0:0:0:
104,144,105319,2,0,P|96:184|104:232,1,80
264,304,105875,2,0,P|271:264|267:225,1,80,8|0,0:0|0:0,0:0:0:0:
184,184,106430,2,0,P|176:224|184:272,1,80
344,344,106986,2,0,P|351:304|347:265,1,80,8|0,0:0|0:0,0:0:0:0:
256,192,107541,5,4,0:0:0:0:
256,192,123097,12,0,125319,0:0:0:0:
24,80,125875,6,0,B|80:128|56:192|56:192|104:224,1,160,8|0,0:0|0:0,0:0:0:0:
159,144,126708,1,0,0:0:0:0:
159,144,126986,2,0,P|183:232|143:296,2,160,8|0|8,0:0|0:0|0:0,0:0:0:0:
84,211,128375,1,0,0:0:0:0:
159,144,128652,1,0,0:0:0:0:
80,80,128930,2,0,L|24:24,1,80,0|8,0:0|0:0,0:0:0:0:
176,64,129486,5,0,0:0:0:0:
176,64,129763,2,0,B|240:64|240:64|280:40|280:40|344:40,1,160,0|8,0:0|0:0,0:0:0:0:
416,80,130597,2,0,P|448:128|464:184,2,95.9999970703126,0|0|0,0:0|0:0|0:0,0:0:0:0:
329,40,131430,1,8,0:0:0:0:
248,96,131708,2,0,L|160:96,1,80
96,192,132263,2,0,L|176:192,1,80,0|8,0:0|0:0,0:0:0:0:
248,288,132819,2,0,L|160:288,2,80,0|0|0,0:0|0:0|0:0,0:0:0:0:
409,296,133652,1,0,0:0:0:0:
409,296,134208,6,0,P|449:213|426:152,1,160,0|8,0:0|0:0,0:0:0:0:
352,216,135041,2,0,B|240:208|240:208|192:240,1,160
120,280,135875,1,8,0:0:0:0:
40,328,136152,1,0,0:0:0:0:
32,232,136430,2,0,P|80:160|24:96,1,160,0|8,0:0|0:0,0:0:0:0:
46,104,137263,2,0,L|120:56,2,80,0|0|0,0:0|0:0|0:0,0:0:0:0:
46,104,138097,1,8,0:0:0:0:
200,56,138652,6,8,B|248:104|312:64|312:64|344:112,1,160,0|8,0:0|0:0,0:0:0:0:
416,40,139486,1,0,0:0:0:0:
332,94,139763,1,0,0:0:0:0:
416,152,140041,1,0,0:0:0:0:
332,94,140319,1,8,0:0:0:0:
152,48,140875,5,0,0:0:0:0:
72,96,141152,1,0,0:0:0:0:
72,96,141291,1,0,0:0:0:0:
72,96,141430,2,0,P|112:176|176:208,1,160
200,216,142125,1,0,0:0:0:0:
232,224,142263,1,0,0:0:0:0:
264,240,142402,1,0,0:0:0:0:
288,264,142541,2,0,L|312:304,2,40,0|0|0,0:0|0:0|0:0,0:0:0:0:
416,266,143097,6,0,P|468:209|460:127,1,160,0|8,0:0|0:0,0:0:0:0:
376,176,143930,1,0,0:0:0:0:
384,88,144208,2,0,L|440:32,2,80,0|0|8,0:0|0:0|0:0,0:0:0:0:
289,72,145041,1,0,0:0:0:0:
196,47,145319,2,0,P|110:25|59:75,2,160,0|8|0,0:0|0:0|0:0,0:0:0:0:
136,104,146708,1,0,0:0:0:0:
136,104,146986,1,8,0:0:0:0:
208,224,147541,6,0,B|208:264|208:264|176:304,1,80
280,128,148097,2,0,B|308:99|308:99|348:95,1,80,8|0,0:0|0:0,0:0:0:0:
200,144,148652,2,0,B|160:143|160:143|120:111,1,80
296,215,149208,2,0,B|324:243|324:243|328:283,2,80,8|0|0,0:0|0:0|0:0,0:0:0:0:
224,160,150041,1,0,0:0:0:0:
128,120,150319,1,8,0:0:0:0:
32,88,150597,2,0,L|-24:72,2,40,0|0|0,0:0|0:0|0:0,0:0:0:0:
143,187,151152,2,0,P|123:255|45:291,1,160
48,192,151986,6,0,L|168:304,1,160,0|8,0:0|0:0,0:0:0:0:
259,319,152819,2,0,B|323:263|323:263|419:303,1,160
482,323,153652,2,0,P|503:284|510:236,1,80,8|0,0:0|0:0,0:0:0:0:
407,199,154208,2,0,P|375:143|407:55,2,160,0|8|0,0:0|0:0|0:0,0:0:0:0:
504,48,155875,1,8,0:0:0:0:
328,56,156430,6,0,B|264:80|208:40|208:40|152:72,1,160
104,104,157263,1,0,0:0:0:0:
56,176,157541,2,0,L|24:264,2,80,0|0|0,0:0|0:0|0:0,0:0:0:0:
256,192,158652,12,0,160319,0:0:0:0:
264,224,160875,6,0,P|303:218|348:173,1,80,0|8,0:0|0:0,0:0:0:0:
408,128,161430,1,0,0:0:0:0:
464,48,161708,1,8,0:0:0:0:
368,40,161986,2,0,B|296:40|296:40|256:72|256:72|208:72,1,160
128,40,162819,1,8,0:0:0:0:
36,73,163097,2,0,P|97:134|178:122,1,160
256,80,163930,1,8,0:0:0:0:
324,147,164208,2,0,L|380:210,2,80,0|0|0,0:0|0:0|0:0,0:0:0:0:
256,80,165041,5,8,0:0:0:0:
325,147,165319,2,0,P|251:178|173:133,1,160
96,112,166152,1,8,0:0:0:0:
56,200,166430,2,0,B|16:248|48:312|48:312|8:344,2,160,0|0|0,0:0|0:0|0:0,0:0:0:0:
96,112,167819,2,0,L|120:40,2,40,0|0|0,0:0|0:0|0:0,0:0:0:0:
168,224,168375,2,0,L|155:261,2,40,0|0|0,0:0|0:0|0:0,0:0:0:0:
264,120,168930,2,0,L|288:48,2,40,0|0|0,0:0|0:0|0:0,0:0:0:0:
456,192,169763,6,0,B|504:256|486:304|464:352,2,160,0|8|0,0:0|0:0|0:0,0:0:0:0:
336,216,171152,2,0,B|332:211|332:211|323:219|323:219|315:211|315:211|307:219|307:219|300:211|300:211|292:220|292:220|283:211|283:211|276:218|276:218|267:210|267:210,2,80,0|0|0,0:0|0:0|0:0,0:0:0:0:
408,152,171986,1,0,0:0:0:0:
464,80,172263,2,0,L|512:8,2,80,0|8|0,0:0|0:0|0:0,0:0:0:0:
408,152,173097,2,0,B|339:129|334:69|334:69|270:56,1,160,0|8,0:0|0:0,0:0:0:0:
200,64,173930,5,0,0:0:0:0:
104,64,174208,1,0,0:0:0:0:
56,152,174486,1,0,0:0:0:0:
56,152,174763,2,0,B|64:216|64:216|112:248|112:248|128:296,2,160,0|0|0,0:0|0:0|0:0,0:0:0:0:
224,64,176430,1,0,0:0:0:0:
320,88,176708,1,0,0:0:0:0:
400,32,176986,1,0,0:0:0:0:
224,64,177541,2,0,B|232:71|232:71|223:79|223:79|232:87|232:87|223:95|223:95|232:104|232:104|224:112|224:112|232:120|232:120|224:128|224:128|231:135|231:135|224:143|224:143|232:152|232:152|224:160|224:160|232:168|232:168|224:176|224:176|232:184,1,160
341,284,178652,6,0,P|291:342|215:333,1,160,0|8,0:0|0:0,0:0:0:0:
137,274,179486,1,0,0:0:0:0:
62,214,179763,2,0,L|6:158,2,80,0|0|8,0:0|0:0|0:0,0:0:0:0:
232,104,180875,1,0,0:0:0:0:
304,40,181153,1,0,0:0:0:0:
368,112,181430,1,8,0:0:0:0:
280,280,181986,1,0,0:0:0:0:
208,344,182264,1,0,0:0:0:0:
144,272,182541,1,8,0:0:0:0:
32,144,183097,6,0,L|64:56,1,80
144,208,183652,2,0,L|116:283,1,80,8|0,0:0|0:0,0:0:0:0:
248,128,184208,2,0,L|280:40,1,80
344,240,184763,2,0,L|316:315,2,80,8|0|0,0:0|0:0|0:0,0:0:0:0:
376,152,185597,1,0,0:0:0:0:
462,134,185875,2,0,P|417:69|341:70,2,160,8|0|8,0:0|0:0|0:0,0:0:0:0:
462,134,187263,1,0,0:0:0:0:
368,152,187541,6,0,L|208:168,1,160,0|8,0:0|0:0,0:0:0:0:
80,112,188375,2,0,L|40:80,2,40,0|0|0,0:0|0:0|0:0,0:0:0:0:
136,192,188930,2,0,P|144:248|128:288,1,80,0|8,0:0|0:0,0:0:0:0:
72,336,189486,1,0,0:0:0:0:
137,269,189763,2,0,B|192:312|248:296|248:296|280:352,1,160,0|8,0:0|0:0,0:0:0:0:
360,312,190597,1,0,0:0:0:0:
360,312,190875,2,0,B|448:312|448:312|488:240,1,160,0|8,0:0|0:0,0:0:0:0:
440,64,191986,5,0,0:0:0:0:
360,112,192263,2,0,B|320:128|320:128|280:112,1,80
48,152,193097,1,0,0:0:0:0:
128,200,193374,2,0,B|168:216|168:216|208:200,1,80
432,264,194208,1,0,0:0:0:0:
352,312,194485,2,0,B|312:328|312:328|272:312,1,80
247,194,195319,2,0,P|207:118|119:110,1,160,0|8,0:0|0:0,0:0:0:0:
152,200,196430,6,0,L|264:64,1,160,0|8,0:0|0:0,0:0:0:0:
344,48,197263,2,0,L|432:40,2,80,0|0|0,0:0|0:0|0:0,0:0:0:0:
253,76,198097,1,0,0:0:0:0:
160,48,198375,1,0,0:0:0:0:
64,72,198652,6,0,P|40:112|48:184,1,120
72,216,199208,1,8,0:0:0:0:
160,168,199486,1,0,0:0:0:0:
264,160,199763,1,0,0:0:0:0:
264,160,200041,1,0,0:0:0:0:
264,160,200319,2,0,L|288:240,1,80,8|0,0:0|0:0,0:0:0:0:
382,233,200875,6,0,P|362:305|266:328,2,160,0|8|0,0:0|0:0|0:0,0:0:0:0:
456,152,202263,1,0,0:0:0:0:
360,112,202541,1,8,0:0:0:0:
432,48,202819,1,0,0:0:0:0:
360,112,203097,2,0,B|296:160|248:144|248:144|216:200,1,160,0|8,0:0|0:0,0:0:0:0:
176,256,203930,1,0,0:0:0:0:
40,304,204208,2,0,L|0:320,2,40,0|0|0,0:0|0:0|0:0,0:0:0:0:
176,256,204763,1,8,0:0:0:0:
32,128,205319,5,0,0:0:0:0:
120,88,205597,1,0,0:0:0:0:
72,8,205875,1,8,0:0:0:0:
120,88,206152,2,0,P|184:104|208:96,1,80
288,72,206708,1,0,0:0:0:0:
384,48,206986,1,8,0:0:0:0:
288,72,207263,5,0,0:0:0:0:
352,144,207541,1,0,0:0:0:0:
384,48,207819,2,0,L|488:32,2,80,0|8|0,0:0|0:0|0:0,0:0:0:0:
352,144,208652,1,0,0:0:0:0:
352,144,208930,1,0,0:0:0:0:
464,240,209208,1,8,0:0:0:0:
136,288,209763,6,0,P|80:344|0:344,2,160,0|8|0,0:0|0:0|0:0,0:0:0:0:
232,256,211152,2,0,L|312:240,1,80,0|8,0:0|0:0,0:0:0:0:
352,64,211708,2,0,L|273:79,1,80
232,168,212263,2,0,L|271:163,2,40,0|0|8,0:0|0:0|0:0,0:0:0:0:
136,168,212819,1,0,0:0:0:0:
48,240,213097,1,0,0:0:0:0:
48,240,213236,1,0,0:0:0:0:
48,240,213375,1,0,0:0:0:0:
136,272,213652,2,0,L|224:304,1,80,8|0,0:0|0:0,0:0:0:0:
256,192,214208,12,0,223097,0:0:0:0:
