osu file format v14

[General]
AudioFilename: Daze.mp3
AudioLeadIn: 0
PreviewTime: 54840
Countdown: 0
SampleSet: Soft
StackLeniency: 0.2
Mode: 0
LetterboxInBreaks: 0
WidescreenStoryboard: 0

[Editor]
DistanceSpacing: 1.8
BeatDivisor: 4
GridSize: 4
TimelineZoom: 1.1

[Metadata]
Title:daze (short ver.)
TitleUnicode:daze (short ver.)
Artist:Jin ft. MARiA from GARNiDELiA
ArtistUnicode:じん ft. メイリア from GARNiDELiA
Creator:Priti
Version:Extreme
Source:メカクシティアクターズ
Tags:mekakucity actors shidu 自然の敵p shizen no teki-p kagerou project opening tv size Yoeri KuranteMelodii Rohit6 Sing
BeatmapID:1132466
BeatmapSetID:534635

[Difficulty]
HPDrainRate:6
CircleSize:4.2
OverallDifficulty:9
ApproachRate:9.3
SliderMultiplier:1.9
SliderTickRate:1

[Events]
//Background and Video events
0,0,"BG.jpg",0,0
//Break Periods
//Storyboard Layer 0 (Background)
//Storyboard Layer 1 (Fail)
//Storyboard Layer 2 (Pass)
//Storyboard Layer 3 (Foreground)
//Storyboard Sound Samples

[TimingPoints]
1962,303.030303030303,4,2,1,70,1,0
6658,-100,4,2,1,90,0,0
16355,-125,4,2,1,70,0,0
26052,-125,4,2,1,75,0,0
35901,-100,4,2,1,80,0,0
54992,-80,4,2,1,80,0,0
55295,-66.6666666666667,4,3,1,90,0,1
74689,-133.333333333333,4,2,1,90,0,0
74992,-66.6666666666667,4,2,1,90,0,0
81810,-133.333333333333,4,2,1,90,0,0
85598,-133.333333333333,4,2,1,55,0,0
85749,-133.333333333333,4,2,1,90,0,0
85901,-133.333333333333,4,2,1,55,0,0
86052,-133.333333333333,4,2,1,90,0,0
86204,-133.333333333333,4,2,1,55,0,0
86355,-133.333333333333,4,2,1,90,0,0
86507,-133.333333333333,4,2,1,55,0,0
86658,-133.333333333333,4,2,1,90,0,0
86810,-133.333333333333,4,2,1,55,0,0
86961,-133.333333333333,4,2,1,90,0,0
87113,-133.333333333333,4,2,1,55,0,0
87265,-133.333333333333,4,2,1,90,0,0
87416,-133.333333333333,4,2,1,55,0,0
87568,-133.333333333333,4,2,1,90,0,0
87719,-133.333333333333,4,2,1,55,0,0
87871,-200,4,2,1,80,0,0
87946,-200,4,2,1,5,0,0
88477,-200,4,2,1,40,0,0

[Colours]
Combo1 : 182,199,211
Combo2 : 223,104,91
Combo3 : 204,209,182
Combo4 : 201,120,158

[HitObjects]
150,141,750,6,0,L|137:45,1,95,4|0,0:0|0:0,0:0:0:0:
289,201,1053,2,0,L|325:82,1,95,4|0,0:0|0:0,0:0:0:0:
130,243,1355,1,4,0:0:0:0:
314,293,1507,1,0,1:0:0:0:
285,192,1658,1,0,1:0:0:0:
222,268,1811,6,0,L|18:277,1,190,6|0,1:0|0:0,0:0:0:0:
120,41,2265,1,8,1:0:0:0:
28,21,2416,1,8,1:0:0:0:
235,110,2568,1,4,0:0:0:0:
130,243,2718,1,8,1:0:0:0:
84,232,2794,1,8,1:0:0:0:
51,199,2871,1,8,1:0:0:0:
40,154,2945,1,8,1:0:0:0:
56,109,3023,6,0,B|102:89|143:114|143:114|161:103|161:103|201:128|241:108,1,190,6|0,1:0|0:0,0:0:0:0:
447,37,3477,2,0,L|372:22,1,47.5,8|8,1:0|1:0,0:0:0:0:
343,198,3628,1,0,1:0:0:0:
452,368,3780,2,0,L|460:314,2,47.5,4|4|4,3:0|3:0|3:0,0:0:0:0:
250,318,4083,2,0,L|241:248,1,47.5,0|0,3:0|3:0,0:0:0:0:
380,165,4234,6,0,B|264:191|310:136|193:165,1,190,6|0,1:0|0:0,0:0:0:0:
39,244,4689,2,0,P|20:173|26:133,1,95,8|8,1:0|1:0,0:0:0:0:
64,67,4992,1,4,0:0:0:0:
139,328,5143,1,8,1:0:0:0:
176,298,5218,1,8,1:0:0:0:
200,257,5294,1,8,1:0:0:0:
205,210,5370,1,8,1:0:0:0:
193,165,5446,6,0,P|188:96|212:62,1,95,2|4,1:0|0:0,0:0:0:0:
345,132,5749,2,0,P|322:137|298:138,1,47.5,2|4,1:0|1:3,0:0:0:0:
332,12,5901,1,4,1:3:0:0:
378,10,5976,1,4,1:3:0:0:
418,34,6052,1,2,1:0:0:0:
305,329,6204,1,10,1:0:0:0:
283,237,6355,1,10,1:0:0:0:
283,237,6658,6,0,B|202:232|202:232|185:243|185:243|97:239,1,190,6|0,1:0|1:0,0:0:0:0:
32,48,7113,2,0,L|140:44,1,95,10|8,1:0|1:0,0:0:0:0:
300,112,7416,1,2,0:0:0:0:
300,112,7567,1,0,1:0:0:0:
56,144,7719,2,0,L|164:140,1,95,10|8,1:0|1:0,0:0:0:0:
324,208,8022,2,0,P|320:272|312:312,1,95,2|0,0:0|0:0,0:0:0:0:
112,356,8325,2,0,P|88:288|100:240,1,95,10|10,1:0|1:0,0:0:0:0:
224,192,8628,1,2,0:0:0:0:
4,152,8780,1,0,1:0:0:0:
304,40,8931,2,0,L|296:104,1,47.5,8|0,1:0|0:0,0:0:0:0:
224,192,9083,6,0,L|200:4,1,190,2|0,1:0|1:0,0:0:0:0:
8,110,9537,2,0,B|46:137|46:137|93:127,1,95,10|10,1:0|1:0,0:0:0:0:
312,163,9840,2,0,P|312:219|274:269,1,95,2|0,0:0|0:0,0:0:0:0:
84,224,10143,1,10,1:0:0:0:
105,318,10295,1,2,0:0:0:0:
284,139,10446,2,0,P|347:134|395:134,1,95,0|2,1:0|0:0,0:0:0:0:
470,161,10749,1,10,1:0:0:0:
186,245,10901,1,8,1:0:0:0:
366,50,11052,1,2,1:2:0:0:
322,312,11204,1,8,1:0:0:0:
334,266,11279,1,8,1:0:0:0:
331,219,11355,1,8,1:0:0:0:
314,175,11431,1,8,1:0:0:0:
284,139,11507,6,0,B|400:113|354:168|471:139,1,190,14|0,1:0|0:0,0:0:0:0:
492,48,11962,1,10,1:0:0:0:
212,20,12113,1,10,1:0:0:0:
323,311,12265,2,0,P|336:264|330:218,1,95,2|0,0:0|0:0,0:0:0:0:
116,143,12568,2,0,B|101:188|101:188|135:230,1,95,10|2,1:0|0:0,0:0:0:0:
226,38,12871,2,0,L|36:22,1,190,2|10,1:2|1:0,0:0:0:0:
131,225,13325,2,0,P|139:199|139:178,1,47.5,4|0,1:3|0:0,0:0:0:0:
58,325,13477,2,0,P|110:315|169:315,1,95,0|2,1:0|0:0,0:0:0:0:
391,360,13780,1,10,1:0:0:0:
265,111,13931,6,0,B|245:128|236:158|235:197|241:232|261:249|261:249|261:223|281:203,1,190,2|0,1:0|1:0,0:0:0:0:
331,10,14386,2,0,L|221:3,1,95,10|2,1:0|0:0,0:0:0:0:
36,113,14689,2,0,L|30:58,1,47.5,4|0,1:3|0:0,0:0:0:0:
140,190,14840,2,0,L|146:128,1,47.5,0|0,1:0|0:0,0:0:0:0:
19,242,14992,2,0,L|-1:173,1,47.5,2|0,1:2|0:0,0:0:0:0:
145,318,15143,2,0,L|165:269,1,47.5,0|0,1:0|1:0,0:0:0:0:
125,55,15295,6,0,L|30:65,1,95,10|0,1:0|0:0,0:0:0:0:
244,206,15598,2,2,B|215:89|270:135|244:19,1,190,10|0,1:0|0:0,0:0:0:0:
90,230,16052,2,0,P|107:248|135:261,1,47.5,8|0,1:0|0:0,0:0:0:0:
272,293,16204,2,0,P|312:288|337:273,1,47.5,8|0,1:0|0:0,0:0:0:0:
419,147,16355,6,0,P|367:145|257:108,1,152,6|0,1:0|0:0,0:0:0:0:
325,20,16810,2,0,P|361:9|399:9,1,76,8|0,1:0|0:0,0:0:0:0:
499,185,17113,2,0,L|505:109,1,76
270,209,17416,1,8,1:0:0:0:
426,27,17568,6,0,B|302:35|302:35|325:20,1,152,4|0,1:2|0:0,0:0:0:0:
395,132,18022,2,0,P|396:169|380:203,1,76,8|0,1:0|0:0,0:0:0:0:
137,265,18325,1,0,0:0:0:0:
189,209,18477,1,0,0:0:0:0:
210,282,18629,1,8,1:0:0:0:
41,75,18780,6,0,B|113:71|113:71|121:78|121:78|201:74,1,152,4|0,1:2|0:0,0:0:0:0:
268,24,19234,1,8,1:0:0:0:
422,192,19386,2,0,P|377:215|295:160,1,152
367,139,19840,1,8,1:0:0:0:
293,335,19992,6,0,L|131:323,1,152,4|0,1:2|0:0,0:0:0:0:
43,188,20446,2,0,L|124:179,1,76,8|0,1:0|0:0,0:0:0:0:
352,251,20749,1,0,0:3:0:0:
323,180,20901,1,0,0:3:0:0:
277,240,21053,1,8,1:3:0:0:
424,347,21204,6,0,B|472:287|472:287|457:212,1,152,4|0,1:0|1:0,0:0:0:0:
335,105,21658,2,0,P|327:141|322:198,1,76,8|0,1:0|0:0,0:0:0:0:
175,255,21962,2,0,P|156:200|139:174,1,76,0|0,1:0|0:0,0:0:0:0:
78,151,22265,1,8,1:0:0:0:
138,348,22416,6,0,B|231:371|194:327|287:348,1,152,4|0,1:2|0:0,0:0:0:0:
439,299,22871,2,0,L|444:377,1,76,8|0,1:0|0:0,0:0:0:0:
375,192,23174,1,0,3:0:0:0:
302,213,23325,1,0,0:0:0:0:
320,141,23477,1,8,1:0:0:0:
454,219,23628,6,0,L|302:213,1,152,4|0,1:2|1:0,0:0:0:0:
160,80,24083,1,8,1:0:0:0:
26,158,24234,2,0,L|178:152,1,152,0|0,0:2|1:0,0:0:0:0:
320,19,24690,1,8,1:0:0:0:
454,97,24841,6,0,B|439:209|439:209|420:162,1,152,4|0,1:2|1:0,0:0:0:0:
269,288,25295,2,0,L|358:282,1,76,8|0,1:0|1:0,0:0:0:0:
358,296,25522,1,0,1:0:0:0:
371,309,25598,1,0,1:0:0:0:
116,177,25749,2,0,P|105:213|102:251,1,76,2|0,3:1|0:0,0:0:0:0:
249,139,26052,6,0,P|265:195|265:319,1,152,6|2,1:0|0:0,0:0:0:0:
105,351,26507,2,0,L|18:339,1,76,8|2,1:0|0:0,0:0:0:0:
73,160,26810,2,0,L|157:150,1,76,2|2,0:1|0:0,0:0:0:0:
269,288,27113,2,0,L|259:324,1,38,8|0,1:0|0:0,0:0:0:0:
205,244,27265,6,0,P|280:245|356:235,1,152,4|2,1:2|0:0,0:0:0:0:
409,96,27719,2,0,P|359:82|330:80,1,76,8|2,1:0|0:0,0:0:0:0:
67,211,28022,1,0,0:0:0:0:
55,135,28174,1,2,0:0:0:0:
43,59,28326,1,10,1:0:0:0:
180,215,28477,6,0,L|67:211,1,114,4|0,1:2|0:0,0:0:0:0:
13,264,28780,1,2,0:0:0:0:
220,352,28931,2,0,L|328:340,1,76,8|2,1:0|0:0,0:0:0:0:
400,148,29234,1,2,0:1:0:0:
456,288,29386,1,2,0:0:0:0:
240,176,29537,1,8,1:0:0:0:
381,9,29689,6,0,P|415:75|400:148,1,152,4|2,1:2|0:0,0:0:0:0:
226,281,30143,2,0,P|215:245|218:207,1,76,8|2,1:0|0:0,0:0:0:0:
228,191,30371,1,0,0:0:0:0:
240,176,30446,1,0,0:0:0:0:
452,248,30598,2,0,L|373:252,1,76,2|8,1:0|1:0,0:0:0:0:
200,100,30901,6,0,B|293:77|256:121|349:100,1,152,6|2,1:0|0:0,0:0:0:0:
115,41,31355,2,0,P|99:101|99:129,1,76,10|2,1:0|0:0,0:0:0:0:
263,246,31658,2,0,P|248:188|238:173,1,76,2|2,0:1|0:0,0:0:0:0:
140,220,31962,1,8,1:0:0:0:
206,344,32113,6,0,B|281:361|281:361|348:316,1,152,4|2,1:2|0:0,0:0:0:0:
467,158,32567,2,0,L|477:233,1,76,8|2,1:0|0:0,0:0:0:0:
276,193,32871,2,0,L|284:113,1,76,2|2,0:1|0:0,0:0:0:0:
366,17,33174,1,8,1:0:0:0:
162,93,33325,6,0,P|104:101|60:63,1,114,4|0,1:2|0:0,0:0:0:0:
125,25,33628,1,0,1:0:0:0:
282,76,33780,1,8,1:0:0:0:
233,219,33931,2,0,P|291:227|335:189,1,114,2|0,0:1|0:0,0:0:0:0:
270,151,34234,1,2,0:0:0:0:
113,202,34386,1,8,1:0:0:0:
162,345,34538,6,0,B|229:341|229:341|237:333|237:333|317:328,1,152,4|0,1:2|1:0,0:0:0:0:
472,368,34992,2,0,L|488:272,1,76,10|2,1:0|0:0,0:0:0:0:
336,120,35295,2,0,L|352:204,1,76,2|0,1:1|1:0,0:0:0:0:
336,208,35522,1,0,1:0:0:0:
322,221,35598,2,0,P|272:224|248:208,1,76,10|0,1:0|0:0,0:0:0:0:
304,43,35901,6,0,B|351:36|351:36|403:68,1,95,14|2,1:0|0:0,0:0:0:0:
173,155,36204,2,0,L|60:146,1,95,10|2,1:0|0:0,0:0:0:0:
336,120,36508,2,0,B|360:233|314:192|337:307,1,190,10|2,1:0|0:0,0:0:0:0:
483,362,36962,6,0,P|499:313|499:269,1,95,10|2,1:0|0:0,0:0:0:0:
422,55,37265,1,10,1:0:0:0:
503,153,37416,1,2,0:0:0:0:
322,188,37568,2,0,L|266:180,1,47.5,10|0,1:0|0:0,0:0:0:0:
120,107,37719,5,2,1:0:0:0:
144,146,37794,1,0,3:0:0:0:
140,193,37870,1,8,1:0:0:0:
109,228,37946,1,4,3:0:0:0:
63,238,38023,5,2,1:0:0:0:
47,281,38099,1,0,3:0:0:0:
64,324,38174,1,8,1:0:0:0:
105,345,38250,1,4,3:0:0:0:
150,333,38326,6,0,L|316:347,1,142.5,6|0,1:0|0:0,0:0:0:0:
367,287,38628,1,10,1:0:0:0:
181,97,38780,2,0,P|179:135|202:201,1,95,2|2,0:1|0:0,0:0:0:0:
409,143,39083,2,0,P|422:91|419:23,1,95,2|8,0:1|1:0,0:0:0:0:
264,249,39386,6,2,B|381:220|335:275|451:249,1,190,6|2,1:0|0:0,0:0:0:0:
492,101,39840,1,10,1:0:0:0:
213,188,39991,2,0,P|185:252|265:327,1,190,2|2,0:1|0:0,0:0:0:0:
459,258,40446,2,0,L|438:148,1,95,8|2,1:0|0:0,0:0:0:0:
164,48,40749,6,0,B|141:138|141:138|216:216,1,190,6|8,1:0|1:0,0:0:0:0:
423,80,41204,2,0,P|365:68|308:72,1,95,2|2,0:1|0:0,0:0:0:0:
244,111,41507,1,0,0:0:0:0:
460,217,41658,1,8,1:0:0:0:
319,352,41810,6,0,P|321:257|331:162,1,190,6|2,1:0|0:0,0:0:0:0:
459,46,42265,2,0,P|431:57|393:53,1,47.5,8|0,1:0|0:0,0:0:0:0:
209,14,42416,2,0,L|221:122,2,95,2|0|2,0:1|0:0|0:0,0:0:0:0:
320,69,42871,1,8,1:0:0:0:
128,213,43022,6,0,P|203:195|276:194,1,142.5,6|0,1:0|0:0,0:0:0:0:
334,220,43325,1,0,0:0:0:0:
26,271,43477,2,0,L|34:158,1,95,10|2,1:0|0:0,0:0:0:0:
188,31,43780,2,0,L|212:135,1,95,2|2,0:1|0:0,0:0:0:0:
334,220,44083,1,10,1:0:0:0:
187,344,44234,6,0,B|286:385|265:306|382:363,1,190,6|2,1:0|0:0,0:0:0:0:
426,199,44689,2,0,P|357:211|309:233,1,95,8|2,1:0|0:0,0:0:0:0:
267,323,44992,1,0,1:0:0:0:
512,217,45143,1,2,0:0:0:0:
507,169,45218,1,8,1:0:0:0:
502,122,45296,2,0,B|510:73|510:73|478:41,1,95,10|2,1:0|0:0,0:0:0:0:
212,116,45598,6,0,L|324:125,1,95,2|2,1:0|0:0,0:0:0:0:
361,312,45901,2,0,L|257:324,1,95,2|2,1:0|0:0,0:0:0:0:
76,252,46204,1,2,1:0:0:0:
288,196,46355,1,4,3:0:0:0:
264,194,46430,1,4,3:0:0:0:
240,192,46506,1,4,3:0:0:0:
124,60,46658,6,0,P|207:73|319:27,1,190,2|2,1:0|1:0,0:0:0:0:
460,53,47113,1,2,0:0:0:0:
375,238,47265,2,0,L|368:120,1,95,2|2,1:0|3:2,0:0:0:0:
478,342,47568,2,0,L|416:335,1,47.5,8|8,0:1|0:1,0:0:0:0:
360,326,47719,1,8,0:1:0:0:
267,217,47871,2,0,L|219:222,1,47.5,8|8,0:1|0:1,0:0:0:0:
149,233,48022,6,0,P|128:154|141:79,1,142.5,6|0,1:0|0:0,0:0:0:0:
219,49,48325,1,8,1:0:0:0:
13,13,48477,2,0,L|21:109,1,95,2|0,0:1|1:0,0:0:0:0:
262,155,48780,1,2,0:1:0:0:
149,233,48931,1,8,1:0:0:0:
360,326,49083,6,0,B|355:247|355:247|374:222|374:222|370:142,1,190,6|2,1:0|0:0,0:0:0:0:
144,52,49537,2,0,L|128:160,1,95,10|2,1:0|0:0,0:0:0:0:
250,326,49840,6,0,P|266:266|254:230,1,95,10|0,1:0|0:0,0:0:0:0:
114,225,50068,2,0,P|144:261|188:276,1,95,10|0,1:0|0:0,0:0:0:0:
221,165,50296,2,0,P|201:177|185:195,1,47.5,10|0,1:0|0:0,0:0:0:0:
250,326,50446,6,0,L|379:315,1,95,6|2,1:0|0:0,0:0:0:0:
472,129,50749,2,0,B|383:164|383:164|317:79,1,190,8|2,1:0|1:0,0:0:0:0:
421,21,51204,1,2,0:0:0:0:
439,248,51355,2,0,L|329:241,1,95,10|2,1:0|0:0,0:0:0:0:
176,292,51658,6,0,B|152:164|203:233|177:104,1,190,0|8,1:0|1:0,0:0:0:0:
70,10,52113,1,2,0:0:0:0:
0,137,52265,2,0,L|95:150,1,95,2|2,1:0|0:0,0:0:0:0:
270,75,52568,1,8,1:0:0:0:
248,263,52719,1,2,0:1:0:0:
422,186,52871,5,8,1:0:0:0:
398,187,52946,1,4,3:0:0:0:
374,189,53022,1,4,3:0:0:0:
350,191,53098,1,4,3:0:0:0:
327,192,53174,1,4,3:0:0:0:
199,332,53325,5,8,1:0:0:0:
222,333,53400,1,4,3:0:0:0:
246,335,53476,1,4,3:0:0:0:
270,337,53552,1,4,3:0:0:0:
293,338,53628,1,4,3:0:0:0:
164,186,53780,5,8,1:0:0:0:
141,187,53856,1,4,3:0:0:0:
117,189,53932,1,4,3:0:0:0:
93,191,54008,1,4,3:0:0:0:
70,192,54083,6,0,L|64:126,1,47.5,8|0,1:0|0:0,0:0:0:0:
171,26,54234,2,0,L|166:73,1,47.5,8|0,1:0|0:0,0:0:0:0:
269,220,54386,2,0,L|263:154,1,47.5,8|0,1:0|0:0,0:0:0:0:
370,54,54537,2,0,P|354:133|443:150,1,190,8|2,1:0|3:0,0:0:0:0:
269,220,54992,6,0,L|279:338,1,118.75,2|2,1:0|0:0,0:0:0:0:
0,140,55295,6,0,B|87:135|87:135|113:158|113:158|212:152,1,213.750008153916,6|0,1:0|0:0,0:0:0:0:
248,56,55598,1,8,1:0:0:0:
152,340,55749,1,2,0:1:0:0:
446,282,55901,2,0,L|273:274,1,142.500005435944,0|2,1:0|0:1,0:0:0:0:
248,56,56204,1,10,1:0:0:0:
384,170,56355,1,2,0:2:0:0:
117,247,56507,6,0,P|126:162|158:104,1,142.500005435944,0|2,1:0|0:1,0:0:0:0:
248,56,56810,1,8,1:0:0:0:
43,304,56961,2,0,P|8:225|7:159,1,142.500005435944,2|2,0:1|1:2,0:0:0:0:
60,73,57264,1,0,0:0:0:0:
346,251,57416,2,0,L|203:240,1,142.500005435944,10|2,1:0|0:2,0:0:0:0:
445,99,57719,6,0,B|404:226|484:174|445:309,1,213.750008153916,6|0,1:0|0:0,0:0:0:0:
355,363,58022,1,8,1:0:0:0:
248,56,58174,1,2,0:1:0:0:
61,229,58325,2,0,L|204:240,1,142.500005435944,2|2,1:0|0:2,0:0:0:0:
390,48,58628,2,0,L|248:56,1,142.500005435944,8|2,1:0|0:1,0:0:0:0:
127,341,58931,5,2,1:0:0:0:
68,129,59083,1,2,0:2:0:0:
281,183,59235,1,8,1:0:0:0:
45,259,59386,2,0,P|34:190|68:129,1,142.500005435944,2|2,0:1|1:2,0:0:0:0:
191,56,59689,1,0,0:0:0:0:
253,346,59840,2,0,P|208:291|207:221,1,142.500005435944,10|2,1:0|0:2,0:0:0:0:
479,198,60143,6,0,B|449:263|449:263|307:254,1,213.750008153916,6|0,1:0|0:0,0:0:0:0:
207,222,60446,1,8,1:0:0:0:
410,77,60598,2,0,P|340:67|277:97,1,142.500005435944,2|2,0:1|1:2,0:0:0:0:
388,356,60901,1,2,0:1:0:0:
207,222,61052,1,8,1:0:0:0:
499,57,61204,6,0,L|479:198,1,142.500005435944,2|2,0:1|1:2,0:0:0:0:
227,363,61507,2,0,L|207:222,1,142.500005435944,2|8,0:1|1:0,0:0:0:0:
355,60,61810,2,0,B|299:76|225:86|277:31|205:39|148:61,1,213.750008153916,2|0,1:1|2:0,0:0:0:0:
77,108,62113,1,0,0:0:0:0:
345,333,62265,2,0,P|367:234|353:173,1,142.500005435944,10|2,1:0|0:2,0:0:0:0:
20,237,62568,6,0,L|234:250,1,213.750008153916,6|0,1:0|2:0,0:0:0:0:
360,194,62871,1,10,1:0:0:0:
112,22,63022,2,0,L|129:163,1,142.500005435944,2|2,0:1|0:2,0:0:0:0:
345,333,63325,1,2,0:1:0:0:
377,52,63477,2,0,L|359:193,1,142.500005435944,8|2,1:0|0:1,0:0:0:0:
127,312,63780,5,2,1:2:0:0:
255,45,63931,2,0,L|266:121,1,71.2500027179719,2|0,1:1|0:0,0:0:0:0:
281,200,64083,1,8,1:0:0:0:
63,18,64234,2,0,L|52:94,1,71.2500027179719,2|0,1:1|0:0,0:0:0:0:
29,202,64386,1,8,1:0:0:0:
292,270,64537,2,0,L|281:199,1,71.2500027179719,8|4,0:1|0:0,0:0:0:0:
204,315,64689,2,0,P|271:316|355:336,1,142.500005435944,2|2,1:0|1:2,0:0:0:0:
468,376,64916,1,0,1:0:0:0:
493,350,64992,6,0,B|506:208|506:208|442:148,1,213.750008153916,6|0,1:0|2:0,0:0:0:0:
369,92,65295,1,8,1:0:0:0:
204,315,65446,1,2,0:2:0:0:
36,170,65598,2,0,L|191:157,1,142.500005435944,2|2,1:0|0:2,0:0:0:0:
331,286,65901,1,10,1:0:0:0:
369,92,66052,1,2,0:2:0:0:
56,39,66204,6,0,P|23:101|36:170,1,142.500005435944,2|2,1:0|0:2,0:0:0:0:
121,312,66507,1,8,1:0:0:0:
306,84,66658,2,0,P|246:120|222:186,1,142.500005435944,2|2,1:1|0:2,0:0:0:0:
225,351,66961,1,0,0:0:0:0:
499,246,67113,2,0,P|429:247|375:292,1,142.500005435944,10|2,1:0|0:2,0:0:0:0:
121,312,67416,6,0,B|79:213|79:213|155:129,1,213.750008153916,6|0,1:0|2:0,0:0:0:0:
254,160,67719,1,12,1:0:0:0:
1,271,67871,1,2,0:1:0:0:
67,52,68022,2,0,L|248:37,1,142.500005435944,2|2,1:0|0:2,0:0:0:0:
321,246,68325,2,0,L|178:234,1,142.500005435944,10|2,1:0|0:2,0:0:0:0:
456,16,68628,6,0,P|432:96|440:172,1,142.500005435944,2|2,1:0|0:1,0:0:0:0:
492,316,68931,1,8,1:0:0:0:
288,28,69083,2,0,P|281:111|304:183,1,142.500005435944,2|2,1:0|0:2,0:0:0:0:
385,313,69386,1,0,0:0:0:0:
126,74,69537,2,0,P|136:156|174:223,1,142.500005435944,10|2,1:0|0:2,0:0:0:0:
280,333,69840,6,0,B|111:343|111:343|58:298,1,213.750008153916,2|0,1:0|2:0,0:0:0:0:
36,214,70143,1,8,1:0:0:0:
368,241,70295,2,0,L|354:383,2,142.500005435944,2|2|0,1:0|0:2|0:0,0:0:0:0:
312,80,70749,1,10,1:0:0:0:
201,210,70901,1,0,0:2:0:0:
481,112,71052,6,0,P|466:205|461:332,1,213.750008153916,6|0,1:0|2:0,0:0:0:0:
481,240,71355,1,10,1:0:0:0:
301,305,71507,2,0,P|228:306|154:319,1,142.500005435944,2|2,0:1|0:2,0:0:0:0:
30,378,71810,1,2,0:1:0:0:
69,105,71961,2,0,P|139:116|210:118,1,142.500005435944,10|2,1:0|0:2,0:0:0:0:
461,26,72265,6,0,B|436:93|436:93|458:238,1,213.750008153916,14|0,1:0|2:0,0:0:0:0:
475,339,72568,1,0,1:0:0:0:
257,259,72719,2,0,L|87:253,1,142.500005435944,10|2,1:0|0:2,0:0:0:0:
189,99,73022,1,2,0:1:0:0:
296,363,73174,1,8,1:0:0:0:
357,36,73325,6,0,P|241:20|177:29,1,142.500005435944,2|0,1:1|0:0,0:0:0:0:
155,348,73628,2,0,P|271:364|335:355,1,142.500005435944,10|0,1:1|0:0,0:0:0:0:
452,142,73931,1,2,1:0:0:0:
454,159,74006,1,4,0:0:0:0:
457,177,74083,5,8,1:0:0:0:
412,205,74158,1,8,1:0:0:0:
359,209,74234,1,10,1:0:0:0:
311,187,74310,1,8,1:0:0:0:
280,144,74386,1,8,1:0:0:0:
235,115,74462,1,8,1:0:0:0:
182,111,74538,1,10,1:0:0:0:
134,133,74614,1,8,1:0:0:0:
103,176,74690,6,0,L|109:52,1,106.875004076958,4|0,1:0|0:0,0:0:0:0:
75,43,74992,6,0,L|79:119,1,71.2500027179719,4|0,1:2|0:0,0:0:0:0:
161,250,75143,1,2,3:2:0:0:
161,250,75219,1,2,3:2:0:0:
161,250,75295,2,0,P|242:247|311:286,1,142.500005435944,2|2,1:0|0:0,0:0:0:0:
402,368,75598,1,8,1:0:0:0:
392,100,75749,6,0,P|311:97|242:136,1,142.500005435944,2|0,1:0|0:0,0:0:0:0:
296,272,76052,1,0,0:0:0:0:
483,182,76204,2,0,L|491:31,1,142.500005435944,10|0,1:0|0:0,0:0:0:0:
418,238,76507,1,2,1:0:0:0:
392,100,76658,1,2,0:0:0:0:
402,368,76810,1,8,1:0:0:0:
296,272,76961,6,2,B|239:254|199:258|156:288|156:288|123:227|123:227|97:251|53:256,1,285.000010871888,2|0,1:1|0:0,0:1:0:0:
86,50,77416,2,0,L|244:60,1,142.500005435944,10|2,1:0|0:0,0:0:0:0:
367,25,77719,1,2,1:0:0:0:
331,333,77871,1,2,0:0:0:0:
456,192,78022,1,8,1:0:0:0:
231,157,78174,6,0,P|178:188|81:175,1,142.500005435944,2|0,1:1|0:0,0:0:0:0:
12,70,78477,1,2,0:1:0:0:
58,321,78628,2,0,B|191:358|132:280|266:327,1,213.750008153916,10|0,1:0|0:0,0:0:0:0:
340,367,78931,1,0,1:0:0:0:
421,142,79083,1,0,1:0:0:0:
186,185,79235,1,8,1:0:0:0:
432,0,79386,6,0,L|421:142,1,142.500005435944,2|0,1:0|0:0,0:0:0:0:
455,310,79689,1,2,0:1:0:0:
186,185,79840,2,0,P|106:201|36:202,1,142.500005435944,10|2,1:0|0:0,0:0:0:0:
275,3,80143,2,0,P|355:19|425:20,1,142.500005435944,2|2,1:0|0:0,0:0:0:0:
316,257,80446,1,10,1:0:0:0:
114,96,80598,1,2,0:0:0:0:
76,352,80749,6,0,L|226:357,1,142.500005435944,10|0,1:0|0:0,0:0:0:0:
14,59,81052,2,0,L|330:52,1,285.000010871888,10|0,1:0|0:0,0:0:0:0:
472,8,81507,1,10,1:0:0:0:
433,260,81658,1,8,1:0:0:0:
299,52,81810,6,0,P|284:115|284:203,1,142.500005435944,6|0,1:0|0:0,0:0:0:0:
320,315,82265,1,4,1:3:0:0:
114,215,82416,1,2,0:0:0:0:
389,102,82568,1,8,1:0:0:0:
183,2,82719,2,0,P|195:54|196:92,1,71.2500027179719,2|0,0:1|0:0,0:0:0:0:
10,252,83022,6,0,L|23:96,1,142.500005435944,6|0,1:0|0:0,0:0:0:0:
206,277,83477,2,0,L|202:188,1,71.2500027179719,8|0,1:0|0:0,0:0:0:0:
92,347,83780,1,2,1:0:0:0:
127,345,83855,1,0,3:0:0:0:
163,346,83931,1,2,3:2:0:0:
198,349,84007,1,0,3:0:0:0:
234,354,84083,1,0,3:0:0:0:
268,360,84158,1,0,3:0:0:0:
303,369,84234,6,0,P|369:365|451:338,1,142.500005435944,6|0,1:0|0:0,0:0:0:0:
241,178,84689,2,0,P|178:172|151:158,1,71.2500027179719,10|2,1:0|0:0,0:0:0:0:
115,53,84992,1,2,1:0:0:0:
375,16,85143,1,2,1:0:0:0:
378,69,85218,1,0,1:0:0:0:
382,122,85294,1,8,1:0:0:0:
386,175,85370,1,0,1:0:0:0:
390,229,85446,5,10,1:0:0:0:
206,252,85598,1,4,1:2:0:0:
419,312,85749,5,10,1:0:0:0:
185,159,85901,1,4,1:2:0:0:
350,361,86052,5,10,1:0:0:0:
212,67,86204,1,4,1:2:0:0:
231,365,86355,5,10,1:0:0:0:
307,2,86507,1,4,1:2:0:0:
73,268,86659,5,14,1:0:0:0:
322,297,86811,1,4,1:2:0:0:
73,100,86961,5,10,1:0:0:0:
322,129,87113,1,4,1:2:0:0:
206,213,87265,5,10,1:0:0:0:
455,184,87417,1,4,1:2:0:0:
206,45,87568,5,10,1:0:0:0:
455,16,87720,1,4,1:2:0:0:
210,301,87871,6,2,B|335:332|270:275|395:302,1,190,14|6,1:0|0:3,0:1:0:0:
420,315,88552,1,4,0:3:0:0:
435,338,88628,1,4,0:3:0:0:
