osu file format v13

[General]
AudioFilename: daze.mp3
AudioLeadIn: 1
PreviewTime: -1
Countdown: 1
SampleSet: Normal
StackLeniency: 0.7
Mode: 0
LetterboxInBreaks: 1
WidescreenStoryboard: 0

[Editor]
DistanceSpacing: 0.8
BeatDivisor: 4
GridSize: 32
TimelineZoom: 2.799999

[Metadata]
Title:daze
TitleUnicode:daze
Artist:Jin ft. MARiA from GARNiDELiA
ArtistUnicode:Jin ft. MARiA from GARNiDELiA
Creator:eveless
Version:
Source:
Tags:
BeatmapID:490657
BeatmapSetID:208344

[Difficulty]
HPDrainRate:7
CircleSize:4
OverallDifficulty:7
ApproachRate:9
SliderMultiplier:1.6
SliderTickRate:2

[Events]
//Background and Video events
0,0,"43936823_p0.jpg",0,0
//Break Periods
//Storyboard Layer 0 (Background)
//Storyboard Layer 1 (Fail)
//Storyboard Layer 2 (Pass)
//Storyboard Layer 3 (Foreground)
//Storyboard Sound Samples
//Background Colour Transformations
3,100,163,162,255

[TimingPoints]
400,303.030303030303,4,2,1,70,1,0
1915,-100,4,1,1,60,0,0
14945,-80,4,1,1,60,0,0
15627,-100,4,1,1,60,0,0
50096,-133.333333333333,4,1,1,60,0,0
50703,-100,4,1,1,60,0,0
51157,-200,4,1,1,60,0,0
51460,-100,4,1,1,60,0,0
54187,-200,4,1,1,60,0,0
54490,-133.333333333333,4,1,1,60,0,0
54945,-100,4,1,1,60,0,0

[Colours]
Combo1 : 209,209,209
Combo2 : 255,70,70
Combo3 : 179,102,255
Combo4 : 128,128,128
Combo5 : 0,128,128

[HitObjects]
188,188,400,5,0,0:0:0:0:
188,188,703,1,0,0:0:0:0:
188,188,1006,1,0,0:0:0:0:
267,137,1157,1,0,0:0:0:0:
267,137,1233,2,0,L|221:102,1,40
272,226,1460,2,0,P|313:217|351:106,1,160
114,271,1915,6,0,L|193:277,1,80,0|0,0:0|0:0,0:0:0:0:
35,219,2218,1,0,0:0:0:0:
97,147,2369,1,0,0:0:0:0:
97,147,2445,1,0,0:0:0:0:
97,147,2521,1,0,0:0:0:0:
97,147,2596,1,0,0:0:0:0:
97,147,2672,2,0,B|102:206|102:206|72:256|72:256|104:324,1,160
19,121,3127,5,0,0:0:0:0:
14,108,3203,1,0,0:0:0:0:
8,96,3278,2,0,L|-3:-3,1,80
215,134,3581,1,0,0:0:0:0:
301,69,3733,1,0,0:0:0:0:
512,111,3884,6,0,P|482:144|353:131,1,160
275,220,4339,1,0,0:0:0:0:
283,219,4415,1,0,0:0:0:0:
290,218,4490,1,0,0:0:0:0:
386,241,4642,1,0,0:0:0:0:
453,317,4793,1,0,0:0:0:0:
377,259,4945,1,0,0:0:0:0:
373,147,5096,6,0,P|436:114|517:117,1,120
512,121,5400,1,0,0:0:0:0:
274,106,5551,1,0,0:0:0:0:
274,106,5703,1,0,0:0:0:0:
169,84,5854,2,0,P|123:78|57:91,1,80
4,108,6309,5,0,0:0:0:0:
4,108,6612,1,0,0:0:0:0:
54,181,6763,1,0,0:0:0:0:
141,213,6915,1,0,0:0:0:0:
366,183,7066,1,0,0:0:0:0:
276,155,7218,1,0,0:0:0:0:
369,162,7369,1,0,0:0:0:0:
463,138,7521,1,0,0:0:0:0:
199,103,7672,5,0,0:0:0:0:
269,169,7824,1,0,0:0:0:0:
286,263,7975,1,0,0:0:0:0:
246,348,8127,1,0,0:0:0:0:
264,250,8278,2,0,P|303:286|358:289,1,80
355,292,8506,1,0,0:0:0:0:
384,284,8581,2,0,P|342:253|296:259,1,80
163,329,8884,5,0,0:0:0:0:
163,329,9036,2,0,P|116:331|68:310,1,80
28,265,9339,1,0,0:0:0:0:
203,181,9490,1,0,0:0:0:0:
251,329,9642,1,0,0:0:0:0:
136,244,9793,1,0,0:0:0:0:
271,243,9945,1,0,0:0:0:0:
136,244,10096,6,0,L|37:249,1,80
19,225,10324,1,0,0:0:0:0:
104,180,10399,2,0,L|209:203,1,80
354,209,10703,1,0,0:0:0:0:
445,170,10854,1,0,0:0:0:0:
453,151,10930,1,0,0:0:0:0:
460,131,11006,1,0,0:0:0:0:
451,114,11081,1,0,0:0:0:0:
454,98,11157,6,0,B|457:166|435:198|435:198|454:262,1,160
348,355,11612,2,0,L|328:269,1,80
248,221,11915,1,0,0:0:0:0:
248,221,12066,1,0,0:0:0:0:
152,85,12218,2,0,L|173:184,1,80
19,239,12521,6,0,P|59:229|101:236,1,80
175,251,12748,2,0,L|158:317,1,40
241,290,12899,2,0,L|224:356,1,40
308,324,13051,2,0,L|291:390,1,40
312,244,13278,1,0,0:0:0:0:
318,236,13354,1,0,0:0:0:0:
323,230,13430,1,0,0:0:0:0:
241,289,13581,6,0,P|183:311|101:288,1,120
40,302,13884,2,0,P|86:295|137:309,1,80
226,333,14187,1,0,0:0:0:0:
233,312,14263,1,0,0:0:0:0:
241,290,14339,1,0,0:0:0:0:
155,208,14490,1,0,0:0:0:0:
153,180,14566,1,0,0:0:0:0:
150,151,14642,1,0,0:0:0:0:
144,42,14793,1,0,0:0:0:0:
156,232,14945,6,0,B|148:180|148:180|166:139|166:139|141:33,1,200
352,352,15627,1,0,0:0:0:0:
360,344,15703,1,0,0:0:0:0:
388,253,15855,1,0,0:0:0:0:
418,158,16006,1,0,0:0:0:0:
415,146,16309,5,0,0:0:0:0:
473,244,16460,2,0,P|518:199|494:90,1,160
402,149,16915,1,0,0:0:0:0:
360,264,17066,2,0,P|397:262|440:266,1,80
510,323,17369,1,0,0:0:0:0:
179,249,17521,2,0,P|259:237|359:248,2,160,0|0|0,0:0|0:0|0:0,0:0:0:0:
6,288,18278,6,0,P|55:297|103:292,1,80
506,97,18733,1,0,0:0:0:0:
506,96,18884,2,0,P|457:87|409:92,1,80
342,29,19187,2,0,P|329:85|343:123,1,80
396,178,19490,1,0,0:0:0:0:
396,178,19642,2,0,P|325:160|237:173,1,160
160,217,20096,5,0,0:0:0:0:
189,138,20248,1,0,0:0:0:0:
64,198,20400,1,0,0:0:0:0:
92,283,20551,1,0,0:0:0:0:
253,200,20703,1,0,0:0:0:0:
56,190,20854,1,0,0:0:0:0:
48,182,21157,5,0,0:0:0:0:
0,107,21309,2,0,L|55:173|49:282,1,160
79,333,21763,2,0,L|-32:349,1,80
169,294,22066,1,0,0:0:0:0:
169,294,22218,2,0,L|273:305,1,80
380,299,22521,1,0,0:0:0:0:
495,278,22672,2,0,P|426:300|314:267,1,160,0|0,0:0|0:0,0:0:0:0:
259,225,23127,1,0,0:0:0:0:
379,298,23278,6,0,B|427:255|499:254|542:280,1,160
287,332,23733,2,0,L|175:316,1,80
380,299,24036,1,0,0:0:0:0:
463,355,24187,1,0,0:0:0:0:
288,320,24339,1,0,0:0:0:0:
390,284,24490,2,0,B|403:223|373:173|373:173|410:106,1,160
277,220,24945,2,0,P|230:176|153:160,1,120
145,164,25248,5,0,0:0:0:0:
42,193,25400,1,0,0:0:0:0:
204,80,25551,1,0,0:0:0:0:
473,110,25703,2,0,P|394:107|306:112,1,160
100,28,26157,6,0,P|35:30|-17:24,2,80,0|0|0,0:0|0:0|0:0,0:0:0:0:
203,1,26612,1,0,0:0:0:0:
204,80,26763,1,0,0:0:0:0:
207,162,26915,1,0,0:0:0:0:
205,246,27066,1,0,0:0:0:0:
285,328,27218,2,0,P|345:339|420:326,1,120
285,328,27521,2,0,L|183:351,1,80
367,269,27824,5,0,0:0:0:0:
285,328,27975,2,0,L|183:351,1,80
380,278,28278,1,0,0:0:0:0:
483,313,28430,5,0,0:0:0:0:
351,260,28581,2,0,L|334:172,1,80
491,298,28884,1,0,0:0:0:0:
507,108,29036,5,0,0:0:0:0:
463,202,29187,1,0,0:0:0:0:
465,19,29339,2,0,B|454:74|454:74|480:128|480:128|445:193|446:193,1,160
341,357,29793,2,0,P|361:264|346:224,1,120
335,207,30096,1,0,0:0:0:0:
259,133,30248,1,0,0:0:0:0:
263,105,30324,1,0,0:0:0:0:
268,71,30400,1,0,0:0:0:0:
277,0,30551,2,0,L|258:173,1,160
79,246,31006,6,0,L|-16:237,2,80,0|0|0,0:0|0:0|0:0,0:0:0:0:
186,300,31460,1,0,0:0:0:0:
172,197,31612,1,0,0:0:0:0:
192,100,31763,1,0,0:0:0:0:
174,6,31915,1,0,0:0:0:0:
174,6,32066,2,0,B|190:84|190:84|172:142|172:142,1,120
185,138,32369,2,0,L|175:230,1,80
327,346,32672,5,0,0:0:0:0:
327,346,32824,2,0,L|336:253,1,80
499,130,33127,1,0,0:0:0:0:
484,116,33203,1,0,0:0:0:0:
468,107,33278,1,0,0:0:0:0:
384,79,33430,2,0,P|345:67|283:69,1,80
213,86,33733,5,0,0:0:0:0:
136,136,33884,1,0,0:0:0:0:
39,158,34036,1,0,0:0:0:0:
39,158,34187,2,0,B|90:126|128:107|147:160|187:124,1,120
151,135,34490,2,0,L|248:141,1,80
343,128,34793,1,0,0:0:0:0:
448,177,34945,6,0,L|417:227,1,40
479,265,35096,2,0,L|436:305,1,40
458,368,35248,2,0,P|389:341|362:348,1,80
332,338,35475,1,0,0:0:0:0:
283,367,35551,6,0,P|270:326|284:284,1,80
229,17,35854,2,0,P|242:58|228:100,1,80
366,194,36157,2,0,P|456:180|502:195,1,120
279,194,36460,2,0,L|188:189,1,80
80,43,36763,6,0,P|94:91|86:133,1,80
199,194,37066,2,0,L|279:190,1,80
445,271,37369,1,0,0:0:0:0:
422,269,37445,1,0,0:0:0:0:
399,268,37521,1,0,0:0:0:0:
378,280,37596,1,0,0:0:0:0:
357,290,37672,2,0,L|261:284,1,80
86,327,37975,6,0,P|142:314|228:333,1,120
272,277,38278,2,0,L|267:197,1,80
169,153,38581,1,0,0:0:0:0:
276,189,38733,2,0,L|269:78,1,80
272,367,39036,2,0,L|268:178,1,160
160,243,39490,6,0,L|69:234,1,80
168,33,39793,2,0,L|181:112,1,80
204,126,40021,1,0,0:0:0:0:
226,134,40096,2,0,P|279:117|336:128,1,80
161,244,40399,6,0,B|125:264|94:267|56:253|56:253|29:245|-17:263,1,160
254,259,40854,2,0,L|355:245,1,80
465,352,41157,2,0,L|402:271,1,80
409,201,41460,2,0,P|430:137|409:68,1,120
409,201,41763,6,0,L|401:297,1,80
265,373,42066,2,0,P|244:309|265:240,1,120
285,184,42369,2,0,P|290:124|266:75,1,80
308,13,42672,6,0,B|323:131|231:88|288:190,1,160
111,200,43127,2,0,L|206:216,1,80,0|0,0:0|0:0,0:0:0:0:
282,268,43430,1,0,0:0:0:0:
282,268,43506,1,0,0:0:0:0:
282,268,43581,2,0,L|377:284,1,80,0|0,0:0|0:0,0:0:0:0:
231,335,43884,2,0,P|202:285|253:192,1,160
315,343,44339,2,0,L|226:357,1,80
359,235,44642,2,0,L|412:269,1,40
425,188,44793,2,0,L|478:222,1,40
488,139,44945,2,0,P|453:116|439:69,1,80
417,0,45248,5,0,0:0:0:0:
416,0,45399,1,0,0:0:0:0:
425,188,45551,2,0,L|406:291,1,80
256,369,45854,2,0,P|292:328|285:235,1,120
298,264,46157,1,0,0:0:0:0:
298,264,46309,6,0,B|306:224|281:174|229:162|229:162|260:113,1,160
241,142,46763,2,0,P|254:116|253:46,1,80
129,186,47066,1,0,0:0:0:0:
134,210,47142,1,0,0:0:0:0:
151,228,47218,1,0,0:0:0:0:
175,240,47293,1,0,0:0:0:0:
193,259,47369,1,0,0:0:0:0:
203,280,47445,1,0,0:0:0:0:
212,304,47521,1,0,0:0:0:0:
212,329,47596,1,0,0:0:0:0:
209,348,47672,6,0,B|233:280|157:242|212:171,1,160
248,98,48127,1,0,0:0:0:0:
112,314,48278,2,0,L|11:299,1,80
111,315,48581,1,0,0:0:0:0:
288,256,48733,2,0,P|348:282|454:244,1,160
199,191,49187,6,0,L|97:197,1,80
35,228,49490,1,0,0:0:0:0:
111,113,49718,1,0,0:0:0:0:
14,20,49945,1,0,0:0:0:0:
28,127,50096,6,0,P|73:116|131:117,1,90.0000034332277
137,118,50399,2,0,P|172:130|242:113,1,90.0000034332277
356,65,50703,6,0,L|277:53,1,80
419,164,51006,1,0,0:0:0:0:
419,164,51157,2,0,L|326:186,1,80
512,139,51612,1,0,0:0:0:0:
397,160,51763,5,0,0:0:0:0:
322,243,51915,1,0,0:0:0:0:
332,353,52066,1,0,0:0:0:0:
370,262,52218,1,0,0:0:0:0:
270,217,52369,1,0,0:0:0:0:
229,321,52521,5,0,0:0:0:0:
206,328,52596,1,0,0:0:0:0:
186,335,52672,1,0,0:0:0:0:
19,255,52824,1,0,0:0:0:0:
44,250,52899,1,0,0:0:0:0:
71,244,52975,1,0,0:0:0:0:
99,246,53051,1,0,0:0:0:0:
126,249,53127,2,0,L|85:189,1,40
185,194,53278,2,0,L|166:140,1,40
254,130,53430,2,0,L|286:188,1,40
353,162,53581,2,0,L|345:94,1,40
336,46,53733,5,0,0:0:0:0:
141,115,53884,1,0,0:0:0:0:
298,235,54036,1,0,0:0:0:0:
256,128,54187,2,0,P|226:168|217:215,1,80
225,222,54566,1,0,0:0:0:0:
235,243,54642,6,0,L|119:237,1,90.0000034332277
359,269,54945,6,0,L|187:260,1,160
