osu file format v13

[General]
AudioFilename: days (TV Size).mp3
AudioLeadIn: 0
PreviewTime: 39174
Countdown: 0
SampleSet: Soft
StackLeniency: 0.7
Mode: 0
LetterboxInBreaks: 0
WidescreenStoryboard: 0

[Editor]
DistanceSpacing: 2
BeatDivisor: 4
GridSize: 4
TimelineZoom: 1

[Metadata]
Title:days (TV Size)
TitleUnicode:days (TV Size)
Artist:Jin ft. Lia
ArtistUnicode:じん ft. Lia
Creator:Betsuto
Version:Hard
Source:Mekaku City Actors
Tags:メカクシティアクターズ 自然の敵P Shizen no Teki-P Kagerou project
BeatmapID:408114
BeatmapSetID:168131

[Difficulty]
HPDrainRate:6
CircleSize:4
OverallDifficulty:7
ApproachRate:7
SliderMultiplier:1.8
SliderTickRate:1

[Events]
//Background and Video events
Video,0,"days.avi"
0,0,"daysww.jpg",0,0
//Break Periods
//Storyboard Layer 0 (Background)
//Storyboard Layer 1 (Fail)
//Storyboard Layer 2 (Pass)
//Storyboard Layer 3 (Foreground)
//Storyboard Sound Samples
//Background Colour Transformations
3,100,163,162,255

[TimingPoints]
727,625,4,2,1,30,1,0
727,-133.333333333333,4,2,1,30,0,0
8643,-133.333333333333,4,2,1,10,0,0
10414,-133.333333333333,4,2,1,30,0,0
18383,-133.333333333333,4,2,1,10,0,0
19477,-133.333333333333,4,2,1,30,0,0
20727,-133.333333333333,4,2,1,40,0,0
38227,-133.333333333333,4,2,1,10,0,0
40102,-133.333333333333,4,2,1,30,0,0
40727,-100,4,2,1,60,0,1
78227,-100,4,2,1,50,0,0
80727,-133.333333333333,4,2,1,35,0,0

[Colours]
Combo1 : 191,191,191
Combo2 : 197,197,197
Combo3 : 142,142,142
Combo4 : 241,56,61
Combo5 : 104,104,104
Combo6 : 226,226,226

[HitObjects]
300,128,727,6,0,L|376:116,1,67.5000025749208,2|0,1:0|0:0,0:0:0:0:
472,140,1352,1,0,0:0:0:0:
264,208,1664,2,0,P|220:164|228:80,1,135.000005149842,2|0,0:0|0:0,0:0:0:0:
364,212,2602,2,0,L|368:280,1,67.5000025749208,8|8,0:1|0:1,0:0:0:0:
264,208,3227,6,0,B|212:220|212:220|188:244|188:244|136:256,1,135.000005149842,0|0,1:0|0:0,0:0:0:0:
72,328,4164,2,0,P|46:281|58:197,1,135.000005149842,2|8,0:0|0:1,0:0:0:0:
120,128,5102,2,0,P|128:80|124:56,1,67.5000025749208,8|0,0:1|1:0,0:0:0:0:
208,160,5727,22,0,P|260:176|344:168,1,135.000005149842,2|0,1:0|0:0,0:0:0:0:
444,76,6664,2,0,P|416:136|424:204,1,135.000005149842,2|0,0:0|0:0,0:0:0:0:
488,296,7602,2,0,L|416:304,1,67.5000025749208,8|8,0:1|0:1,0:0:0:0:
308,256,8227,1,0,1:0:0:0:
136,92,8852,6,0,L|132:44,1,45.0000017166138,2|0,0:0|0:0,0:0:0:0:
68,132,9268,2,0,L|64:88,1,45.0000017166138,2|2,0:0|0:0,0:0:0:0:
36,224,9789,5,0,0:0:0:0:
112,196,10102,2,0,P|144:196|184:208,1,67.5000025749208,2|0,0:0|1:0,0:0:0:0:
244,268,10727,6,0,P|312:276|392:268,1,135.000005149842,2|0,1:0|0:0,0:0:0:0:
464,224,11664,1,2,0:0:0:0:
416,132,11977,2,0,P|412:80|416:56,1,67.5000025749208,8|0,0:0|0:0,0:0:0:0:
344,176,12602,2,0,L|272:180,1,67.5000025749208,8|8,0:1|0:0,0:0:0:0:
180,240,13227,6,0,P|84:256|44:244,1,135.000005149842,0|0,1:0|0:0,0:0:0:0:
108,124,14164,2,0,L|104:84,2,33.7500012874604,2|0|8,0:0|0:0|0:0,0:0:0:0:
220,160,14789,1,8,0:1:0:0:
304,88,15102,2,0,P|344:80|376:84,1,67.5000025749208,8|0,0:1|1:0,0:0:0:0:
408,260,15727,22,0,P|352:276|296:264,1,101.250003862381,2|0,1:0|0:0,0:0:0:0:
280,256,16352,2,0,L|210:259,1,67.5000025749208,2|8,0:0|0:1,0:0:0:0:
128,304,16977,1,8,0:0:0:0:
228,188,17289,2,0,L|224:152,1,33.7500012874604,0|2,0:0|0:0,0:0:0:0:
76,56,17758,2,0,L|80:92,1,33.7500012874604,2|8,0:0|0:1,0:0:0:0:
228,188,18227,6,0,P|272:196|320:188,1,90.0000034332277,0|0,1:0|0:0,0:0:0:0:
364,128,18852,2,0,L|368:84,1,45.0000017166138,2|0,0:0|0:0,0:0:0:0:
396,200,19268,2,0,L|436:168,1,45.0000017166138,2|10,0:0|0:0,0:0:0:0:
464,272,19789,5,2,0:0:0:0:
360,308,20102,1,8,0:1:0:0:
260,272,20414,1,0,1:0:0:0:
168,324,20727,2,0,P|104:300|64:228,1,135.000005149842,2|2,1:0|0:0,0:0:0:0:
104,144,21664,2,0,B|160:120|180:176|244:152,1,135.000005149842,2|8,0:0|0:1,0:0:0:0:
328,72,22602,5,8,0:1:0:0:
384,156,22914,1,0,1:0:0:0:
352,248,23227,2,0,L|348:320,1,67.5000025749208,0|0,1:0|0:0,0:0:0:0:
280,204,23852,2,0,P|244:200|208:204,1,67.5000025749208,8|8,0:1|0:1,0:0:0:0:
148,336,24477,2,0,L|128:268,2,67.5000025749208,2|0|0,0:0|0:0|0:0,0:0:0:0:
52,240,25414,5,0,1:0:0:0:
104,128,25727,2,0,P|168:96|232:104,1,135.000005149842,2|8,1:0|0:1,0:0:0:0:
184,208,26664,1,8,0:1:0:0:
300,156,26977,2,0,L|376:152,1,67.5000025749208,2|0,0:0|0:0,0:0:0:0:
296,264,27602,2,0,L|364:288,1,67.5000025749208,0|0,0:0|0:0,0:0:0:0:
472,204,28227,22,0,P|480:144|452:72,1,135.000005149842,2|8,0:0|0:1,0:0:0:0:
360,20,29164,1,8,0:1:0:0:
272,76,29477,1,2,0:0:0:0:
360,128,29789,1,0,0:0:0:0:
212,160,30102,2,0,P|204:192|208:232,1,67.5000025749208,0|2,0:0|0:0,0:0:0:0:
304,352,30727,6,0,B|260:344|260:344|216:312|216:312|168:300,1,135.000005149842,2|0,0:1|0:0,0:0:0:0:
88,288,31664,1,2,0:0:0:0:
128,124,32289,2,0,P|108:96|80:76,2,67.5000025749208,0|0|0,0:0|0:0|1:0,0:0:0:0:
168,204,33227,2,0,P|232:216|304:204,1,135.000005149842,0|0,1:0|0:0,0:0:0:0:
396,64,34477,6,0,P|392:120|408:164,1,101.250003862381,2|0,0:0|0:0,0:0:0:0:
432,196,35102,2,0,P|444:232|436:276,1,67.5000025749208,8|0,0:1|0:0,0:0:0:0:
328,320,35727,6,0,P|292:320|260:312,1,67.5000025749208,2|0,1:0|0:0,0:0:0:0:
184,244,36352,1,2,0:0:0:0:
88,280,36664,2,0,L|72:128,1,135.000005149842,0|2,0:0|0:0,0:0:0:0:
32,56,37602,1,8,0:1:0:0:
160,132,37914,2,0,P|196:136|236:128,1,67.5000025749208,0|2,1:0|0:0,0:0:0:0:
184,244,39164,5,0,0:0:0:0:
184,244,39477,1,0,0:0:0:0:
256,308,40102,5,2,0:0:0:0:
260,208,40727,6,0,P|272:160|300:128,1,90,6|0,1:0|0:0,0:0:0:0:
400,124,41352,1,2,0:0:0:0:
256,308,41664,2,0,P|184:268|172:164,1,180,0|0,1:0|0:0,0:0:0:0:
224,68,42602,1,8,0:1:0:0:
72,160,42914,2,0,L|32:180,1,45,0|0,1:0|0:0,0:0:0:0:
104,168,43227,6,0,P|136:120|132:40,1,135,0|0,1:0|0:0,0:0:0:0:
133,44,43852,1,8,0:1:0:0:
136,240,44164,2,0,L|276:264,1,135,0|0,1:0|0:0,0:0:0:0:
300,256,44789,1,2,0:0:0:0:
328,144,45102,2,0,P|324:96|336:52,1,90,8|0,0:0|0:0,0:0:0:0:
460,256,45727,6,0,P|440:312|364:332,1,135,2|0,1:0|0:0,0:0:0:0:
332,320,46352,2,0,L|240:336,1,90,8|0,0:1|1:0,0:0:0:0:
160,256,46977,1,2,0:0:0:0:
56,284,47289,2,0,P|40:236|40:192,1,90,0|8,0:0|0:1,0:0:0:0:
96,64,47914,1,2,0:0:0:0:
256,124,48227,5,0,1:0:0:0:
296,92,48383,2,0,L|348:88,1,45
444,216,48852,1,8,0:1:0:0:
412,252,49008,2,0,L|360:268,2,45,2|0|0,0:0|1:0|0:0,0:0:0:0:
384,340,49477,2,0,P|336:336|304:308,1,90,0|2,0:0|0:0,0:0:0:0:
324,152,50102,1,8,0:0:0:0:
240,224,50414,2,0,L|152:240,1,90,0|2,1:0|1:0,0:0:0:0:
56,152,51039,5,0,0:0:0:0:
56,152,51195,1,0,0:0:0:0:
56,152,51352,2,0,P|48:92|56:60,1,90,8|0,0:1|1:0,0:0:0:0:
156,104,51977,2,0,P|228:120|292:104,1,135,2|0,0:0|0:0,0:0:0:0:
328,80,52602,2,0,P|367:58|420:56,1,90,8|0,0:1|1:0,0:0:0:0:
404,184,53227,22,0,L|392:324,1,135,0|0,1:0|0:0,0:0:0:0:
392,318,53852,1,8,0:1:0:0:
244,208,54164,2,0,P|220:116|268:28,1,180,0|2,1:0|0:0,0:0:0:0:
380,196,55102,2,0,L|472:184,1,90,8|2,0:0|0:0,0:0:0:0:
292,284,55727,6,0,B|240:304|196:280|196:280|152:288,1,135,2|0,1:0|0:0,0:0:0:0:
120,296,56352,1,2,0:0:0:0:
32,176,56664,2,0,P|96:148|160:156,1,135,0|8,1:0|0:1,0:0:0:0:
192,168,57289,2,0,L|284:164,1,90,0|8,0:0|0:1,0:0:0:0:
380,68,57914,1,2,0:0:0:0:
332,224,58227,6,0,L|328:316,1,90,0|0,1:0|0:0,0:0:0:0:
380,68,58852,1,8,0:1:0:0:
432,176,59164,2,0,L|428:268,1,90,0|2,1:0|0:0,0:0:0:0:
212,196,59789,5,8,0:1:0:0:
212,196,59945,1,8,0:0:0:0:
212,196,60102,2,0,L|168:188,3,45,8|8|0|0,0:0|0:1|1:0|0:0,0:0:0:0:
268,120,60727,6,0,P|300:172|288:248,1,135,6|0,1:0|0:0,0:0:0:0:
264,264,61352,2,0,L|176:284,1,90,8|0,0:1|1:0,0:0:0:0:
48,244,61977,2,0,P|20:192|68:88,1,180,2|8,0:0|0:1,0:0:0:0:
176,48,62914,1,0,1:0:0:0:
268,120,63227,2,0,L|360:112,1,90,0|0,1:0|0:0,0:0:0:0:
384,96,63695,1,0,0:0:0:0:
408,76,63852,22,0,L|416:32,2,45,8|0|0,0:1|0:0|1:0,0:0:0:0:
440,164,64320,2,0,L|468:120,2,45,0|2|0,0:0|0:0|0:0,0:0:0:0:
440,252,64789,1,0,0:0:0:0:
248,232,65102,1,8,0:0:0:0:
348,200,65414,1,0,0:0:0:0:
216,324,65727,6,0,P|140:288|120:244,1,135,2|0,1:0|0:0,0:0:0:0:
124,212,66352,2,0,L|112:120,1,90,8|0,0:1|1:0,0:0:0:0:
208,196,66977,2,0,P|260:196|320:144,1,135,2|0,0:0|0:0,0:0:0:0:
320,104,67602,1,8,0:1:0:0:
296,288,67914,5,2,0:0:0:0:
380,208,68227,1,0,1:0:0:0:
320,104,68539,2,0,P|296:60|296:12,1,90,0|8,0:0|0:1,0:0:0:0:
276,184,69164,2,0,L|96:204,1,180,0|2,1:0|0:0,0:0:0:0:
116,92,70102,2,0,P|96:48|64:24,1,90,8|0,0:0|1:0,0:0:0:0:
80,256,70727,6,0,L|52:344,2,90,2|0|2,1:0|0:0|0:0,0:0:0:0:
164,332,71664,2,0,P|248:344|324:288,1,180,0|0,1:0|0:0,0:0:0:0:
336,172,72602,2,0,P|328:124|336:76,1,90,8|0,0:1|1:0,0:0:0:0:
268,236,73227,6,0,L|176:248,1,90,0|2,1:0|0:0,0:0:0:0:
44,192,73852,1,8,0:1:0:0:
208,160,74164,2,0,P|204:80|128:16,1,180,0|2,1:0|0:0,0:0:0:0:
52,184,75102,1,8,0:0:0:0:
160,244,75414,2,0,L|200:216,1,45,0|2,0:0|0:0,0:0:0:0:
128,248,75727,22,0,P|160:296|248:312,1,135,0|0,1:0|0:0,0:0:0:0:
231,315,76352,1,8,0:1:0:0:
304,240,76664,2,0,L|484:236,1,180,0|2,1:0|0:0,0:0:0:0:
392,144,77602,2,0,P|384:96|400:48,1,90,8|0,0:1|0:0,0:0:0:0:
304,168,78227,6,0,P|260:180|208:180,1,90,0|2,1:0|0:0,0:0:0:0:
184,172,78695,1,0,0:0:0:0:
152,156,78852,2,0,L|176:248,1,90,2|0,1:0|0:0,0:0:0:0:
308,328,79477,6,0,P|392:344|456:284,1,180,0|2,0:0|0:0,0:0:0:0:
368,252,80414,1,0,0:0:0:0:
168,284,80727,6,0,P|132:280|96:288,1,67.5000025749208
24,352,81352,1,2,0:0:0:0:
216,216,81664,2,0,L|224:76,1,135.000005149842
136,24,82602,1,2,0:0:0:0:
316,136,82914,1,0,0:0:0:0:
216,216,83227,6,0,P|212:260|220:288,1,67.5000025749208
396,276,83852,2,0,P|400:232|392:204,1,67.5000025749208,2|0,0:0|0:0,0:0:0:0:
316,136,84477,1,0,0:0:0:0:
240,104,84789,1,0,0:0:0:0:
396,132,85102,1,2,0:0:0:0:
358,58,85414,1,0,0:0:0:0:
256,192,85727,5,0,0:0:0:0:
172,120,86039,6,0,P|140:116|96:128,1,67.5000025749208,0|2,0:0|0:0,0:0:0:0:
32,192,86664,1,0,0:0:0:0:
48,312,86977,1,0,0:0:0:0:
144,240,87289,5,0,0:0:0:0:
256,192,87602,1,2,0:0:0:0:
368,240,87914,1,0,0:0:0:0:
