osu file format v13

[General]
AudioFilename: LiSA Yuukei Yesterday.mp3
AudioLeadIn: 1500
PreviewTime: 51991
Countdown: 0
SampleSet: Soft
StackLeniency: 0.7
Mode: 0
LetterboxInBreaks: 0
WidescreenStoryboard: 0

[Editor]
DistanceSpacing: 1.1
BeatDivisor: 4
GridSize: 4
TimelineZoom: 1

[Metadata]
Title:Yuukei Yesterday
TitleUnicode:夕景イエスタデイ
Artist:Jin ft. LiSA
ArtistUnicode:じん ft. LiSA
Creator:captin1
Version:Normal
Source:Mekakucity Actors
Tags:evening ending xchippy mintong mintong89 vocaloid ia メカクシティアクターズ kagerou project カゲロウプロジェクト 小松一也 Kazuya Komatsu tv size
BeatmapID:428875
BeatmapSetID:178291

[Difficulty]
HPDrainRate:4
CircleSize:3.8
OverallDifficulty:4
ApproachRate:5
SliderMultiplier:1.3
SliderTickRate:1

[Events]
//Background and Video events
0,0,"42611504.jpg",0,0
Video,-70,"video.avi"
//Break Periods
//Storyboard Layer 0 (Background)
//Storyboard Layer 1 (Fail)
//Storyboard Layer 2 (Pass)
//Storyboard Layer 3 (Foreground)
//Storyboard Sound Samples
//Background Colour Transformations
3,100,163,162,255

[TimingPoints]
596,465.116279069767,4,2,1,70,1,0
25944,-100,4,2,0,70,0,0
26642,-100,4,2,1,70,0,0
52689,-100,4,2,1,80,0,1
67456,-100,4,2,1,80,0,0
67572,-100,4,2,1,80,0,1
84316,-100,4,2,1,80,0,0
86177,-100,4,2,1,70,0,1
86293,-100,4,2,1,70,0,0
96409,-100,4,2,1,70,0,0

[Colours]
Combo1 : 255,192,0
Combo2 : 92,184,10
Combo3 : 143,71,71
Combo4 : 242,24,57

[HitObjects]
44,208,596,6,0,B|96:192|96:192|192:216,1,130,4|0,0:0|0:0,0:0:0:0:
200,312,1409,2,0,P|276:292|352:352,1,162.5,8|8,0:0|0:0,0:0:0:0:
448,308,2340,2,0,B|420:248|456:188|456:188|444:136,1,162.5,4|8,0:0|0:0,0:0:0:0:
380,68,3270,2,0,L|380:0,2,65,2|2|2,0:0|0:0|0:0,0:0:0:0:
256,200,4316,6,0,B|288:300|288:300|274:357,1,162.5,4|2,0:1|0:0,0:0:0:0:
208,324,5130,2,0,P|148:288|56:324,1,162.5,10|8,0:0|0:0,0:0:0:0:
8,184,6177,2,0,P|68:156|88:120,1,97.5,8|10,0:0|0:0,0:0:0:0:
144,92,6758,2,0,P|191:87|235:108,1,97.5,10|8,0:0|0:0,0:0:0:0:
72,344,8037,6,0,B|128:316|128:316|192:356|264:316,1,195,4|0,0:1|0:0,0:0:0:0:
292,260,8968,2,0,B|348:248|348:248|408:264,2,97.5,2|0|0,0:0|0:0|0:0,0:0:0:0:
220,256,9898,2,0,B|200:204|222:159|222:159|284:144|284:64,1,195,2|2,0:0|0:0,0:0:0:0:
208,88,10828,1,2,0:0:0:0:
84,164,11293,2,0,P|124:184|156:184,1,65,8|0,0:0|0:0,0:0:0:0:
217,178,11758,6,0,B|236:216|216:256|216:256|260:308|320:270,1,195,0|2,0:0|0:0,0:0:0:0:
376,228,12689,2,0,B|432:248|432:248|456:280,2,97.5,2|0|0,0:0|0:0|0:0,0:0:0:0:
312,196,13619,1,2,0:0:0:0:
216,304,14084,2,0,L|80:320,2,130,8|2|8,0:0|0:0|0:0,0:0:0:0:
352,344,15479,6,0,P|428:340|436:228,1,195,2|0,0:0|0:0,0:0:0:0:
376,216,16409,1,2,0:0:0:0:
244,280,16875,2,0,L|168:272,1,65,8|0,0:0|0:0,0:0:0:0:
160,344,17340,2,0,P|84:340|76:228,1,195,2|0,0:0|0:0,0:0:0:0:
136,212,18270,2,0,P|184:156|180:84,1,130,2|8,0:0|0:0,0:0:0:0:
292,8,19200,6,0,B|356:28|356:28|412:12,2,97.5,2|0|0,0:0|0:0|0:0,0:0:0:0:
220,8,20130,2,0,B|156:28|156:28|100:12,2,97.5,2|0|0,0:0|0:0|0:0,0:0:0:0:
256,72,21061,2,0,L|256:212,1,130,2|8,0:0|0:0,0:0:0:0:
300,260,21758,1,0,0:0:0:0:
344,316,21991,1,2,0:0:0:0:
480,364,22456,2,0,L|468:288,1,65,8|8,0:0|0:3,0:0:0:0:
504,236,22921,6,0,B|472:144|472:144|500:36,1,195,4|0,0:1|0:0,0:0:0:0:
424,48,23851,2,0,P|357:34|322:8,2,97.5,0|2|0,0:0|0:0|0:0,0:0:0:0:
408,120,24782,2,0,B|360:168|380:240|380:240|342:237|300:260,1,195,2|2,0:0|0:0,0:0:0:0:
256,296,25712,1,2,0:0:0:0:
199,251,25944,2,0,P|152:240|120:240,1,65,10|10,0:0|0:0,0:0:0:0:
52,356,26642,6,0,B|28:292|28:292|56:164,1,195,2|0,0:0|0:0,0:0:0:0:
120,132,27572,2,0,L|204:80,2,97.5,2|0|0,0:0|0:0|0:0,0:0:0:0:
56,92,28502,1,2,0:0:0:0:
168,4,28968,1,8,0:0:0:0:
256,116,29433,2,0,P|272:192|252:248,1,130,2|8,0:0|0:0,0:0:0:0:
128,300,30363,6,0,B|172:300|172:300|232:368|320:324,1,195,2|0,0:0|0:0,0:0:0:0:
364,280,31293,1,2,0:0:0:0:
440,160,31758,2,0,L|392:100,1,65,8|2,0:0|0:0,0:0:0:0:
340,152,32223,2,0,P|284:148|224:192,1,130,2|8,0:0|0:0,0:0:0:0:
248,260,32921,2,0,B|196:308|128:284|128:284|96:208,1,195,2|8,0:0|0:0,0:0:0:0:
40,92,34084,6,0,P|100:112|160:91,1,130,0|8,0:0|0:0,0:0:0:0:
212,40,34782,1,0,0:0:0:0:
276,8,35014,2,0,P|300:44|288:132,1,130,0|10,0:0|0:0,0:0:0:0:
188,224,35944,2,0,P|190:273|220:320,1,97.5,8|8,0:0|0:0,0:0:0:0:
284,296,36526,2,0,L|380:332,1,97.5,8|8,0:0|0:0,0:0:0:0:
512,276,37340,1,8,0:0:0:0:
396,196,37805,6,0,B|306:206|306:206|254:165|290:88,1,195,4|2,0:1|0:0,0:0:0:0:
76,52,39200,1,8,0:0:0:0:
80,196,39665,2,0,B|169:206|169:206|221:165|185:88,1,195,2|2,0:0|0:0,0:0:0:0:
400,52,41061,1,8,0:0:0:0:
428,192,41526,6,0,B|416:242|363:283|363:283|420:322|429:383,1,227.5,2|2,0:0|0:0,0:0:0:0:
256,328,42921,1,8,0:0:0:0:
316,196,43386,2,0,B|328:133|328:133|371:92,2,97.5,0|8|0,0:0|0:0|0:0,0:0:0:0:
200,280,44549,2,0,L|128:284,2,65,0|8|0,0:0|0:0|0:0,0:0:0:0:
224,212,45247,6,0,P|236:132|88:104,1,260,4|0,0:1|0:0,0:0:0:0:
76,172,46409,1,10,0:0:0:0:
4,188,46642,1,10,0:0:0:0:
40,328,47107,2,0,B|164:272|164:380|290:329,1,260,2|0,0:0|0:0,0:0:0:0:
324,264,48270,1,10,0:0:0:0:
292,200,48502,1,10,0:0:0:0:
256,192,48968,12,12,51642,0:0:0:0:
168,208,52689,6,0,L|256:176,1,65,6|2,0:0|0:0,0:0:0:0:
300,200,53154,2,0,P|348:196|392:144,2,97.5,8|2|0,0:0|0:0|0:0,0:0:0:0:
320,129,54084,1,8,0:0:0:0:
192,68,54549,2,0,P|159:82|124:84,1,65,0|2,0:0|0:0,0:0:0:0:
70,43,55014,2,0,P|86:115|62:179,2,130,8|0|8,0:0|0:0|0:0,0:0:0:0:
160,156,56409,6,0,L|228:196,1,65,2|2,0:0|0:0,0:0:0:0:
236,260,56875,2,0,P|256:300|320:320,2,97.5,8|2|0,0:0|0:0|0:0,0:0:0:0:
308,248,57805,1,8,0:0:0:0:
408,148,58270,2,0,P|404:112|420:76,1,65,0|0,0:0|0:0,0:0:0:0:
467,37,58735,2,0,P|415:53|323:13,2,130,8|0|8,0:0|0:0|0:0,0:0:0:0:
504,100,59898,1,0,0:0:0:0:
484,169,60130,6,0,L|500:257,1,65,2|2,0:0|0:0,0:0:0:0:
460,296,60595,2,0,P|408:312|360:292,2,97.5,8|2|0,0:0|0:0|0:0,0:0:0:0:
412,240,61526,1,8,0:0:0:0:
288,168,61991,2,0,P|256:168|204:148,1,65,0|0,0:0|0:0,0:0:0:0:
208,88,62456,2,0,P|176:60|80:72,2,130,8|0|8,0:0|0:0|0:0,0:0:0:0:
152,220,63851,6,0,L|200:348,1,130,2|8,0:0|0:0,0:0:0:0:
292,232,64782,2,0,L|340:360,1,130,2|8,0:0|0:0,0:0:0:0:
448,264,65712,1,2,0:0:0:0:
480,124,66177,1,10,0:0:0:0:
340,100,66642,2,0,L|268:88,1,65,2|0,0:0|0:0,0:0:0:0:
232,148,67107,2,0,L|160:136,1,65,8|8,0:0|0:3,0:0:0:0:
124,196,67572,5,6,0:0:0:0:
124,196,67805,1,2,0:0:0:0:
100,264,68037,2,0,P|108:316|152:348,2,97.5,8|2|0,0:0|0:0|0:0,0:0:0:0:
172,276,68968,2,0,L|240:280,1,65,8|0,0:0|0:0,0:0:0:0:
280,340,69433,1,2,0:0:0:0:
412,284,69898,2,0,L|424:176,1,97.5,8|2,0:0|0:0,0:0:0:0:
486,152,70479,2,0,L|498:44,1,97.5,2|8,0:0|0:0,0:0:0:0:
360,8,71293,5,2,0:0:0:0:
360,8,71526,1,0,0:0:0:0:
372,80,71758,2,0,P|364:140|324:168,2,97.5,8|2|2,0:0|0:0|0:0,0:0:0:0:
304,100,72689,2,0,L|224:116,1,65,8|0,0:0|0:0,0:0:0:0:
196,172,73154,2,0,P|148:193|108:197,1,65,2|0,0:0|0:0,0:0:0:0:
67,171,73619,2,0,P|44:128|42:79,2,97.5,8|2|0,0:0|0:0|0:0,0:0:0:0:
56,244,74549,2,0,L|140:256,1,65,2|8,0:0|0:0,0:0:0:0:
184,296,75014,5,4,0:1:0:0:
184,296,75247,1,0,0:0:0:0:
248,332,75479,2,0,P|292:320|324:268,2,97.5,8|2|2,0:0|0:0|0:0,0:0:0:0:
252,260,76409,2,0,L|256:196,1,65,8|0,0:0|0:0,0:0:0:0:
316,152,76875,1,0,0:0:0:0:
172,148,77340,2,0,L|68:128,1,97.5,8|0,0:0|0:0,0:0:0:0:
76,56,77921,2,0,L|180:76,1,97.5,2|8,0:0|0:0,0:0:0:0:
312,52,78735,6,0,P|364:88|376:160,1,130,2|8,0:0|0:0,0:0:0:0:
316,280,79665,2,0,P|264:244|252:172,1,130,2|8,0:0|0:0,0:0:0:0:
312,52,80595,1,2,0:0:0:0:
452,28,81061,1,10,0:0:0:0:
408,164,81526,2,0,P|412:200|436:240,1,65,2|8,0:0|0:0,0:0:0:0:
476,276,81991,2,0,P|392:256|336:284,1,130,8|4,0:0|0:1,0:0:0:0:
256,376,82921,5,8,0:0:0:0:
212,240,83386,2,0,L|252:100,1,130,0|8,0:0|0:0,0:0:0:0:
392,128,84316,2,0,P|430:118|476:72,1,97.5,8|8,0:0|0:0,0:0:0:0:
433,19,84898,2,0,P|394:28|348:74,1,97.5,8|8,0:0|0:0,0:0:0:0:
260,176,85712,2,0,L|200:202,1,65,8|8,0:3|0:3,0:0:0:0:
144,156,86177,6,0,P|176:211|168:274,1,130,4|8,0:1|0:0,0:0:0:0:
288,360,87107,2,0,B|348:351|348:351|400:368,2,97.5,2|0|0,0:0|0:0|0:0,0:0:0:0:
248,300,88037,2,0,P|264:248|392:228,1,195,2|0,0:0|0:0,0:0:0:0:
492,124,89200,1,0,0:0:0:0:
492,124,89433,2,0,L|416:104,1,65,8|2,0:0|0:0,0:0:0:0:
416,36,89898,6,0,P|392:104|336:136,1,130,2|8,0:0|0:0,0:0:0:0:
204,100,90828,2,0,B|140:92|140:92|84:112,2,97.5,2|2|2,0:0|0:0|0:0,0:0:0:0:
236,164,91758,2,0,L|252:304,1,130,2|8,0:0|0:0,0:0:0:0:
320,268,92456,1,2,0:0:0:0:
366,128,92921,2,0,L|300:164,2,65,0|8|2,0:0|0:0|0:0,0:0:0:0:
428,92,93619,6,0,P|392:96|304:52,1,130,4|8,0:1|0:0,0:0:0:0:
168,32,94549,2,0,L|128:96,1,65,0|8,0:0|0:0,0:0:0:0:
196,124,95014,2,0,L|198:199,1,65,8|8,0:0|0:3,0:0:0:0:
160,252,95479,2,0,P|176:312|220:344,1,97.5,8|8,0:0|0:0,0:0:0:0:
270,312,96061,2,0,P|318:314|357:341,1,97.5,8|12,0:0|0:0,0:0:0:0:
