osu file format v13

[General]
AudioFilename: LiSA Yuukei Yesterday.mp3
AudioLeadIn: 1500
PreviewTime: 51991
Countdown: 0
SampleSet: Soft
StackLeniency: 0.7
Mode: 0
LetterboxInBreaks: 0
WidescreenStoryboard: 0

[Editor]
DistanceSpacing: 0.5
BeatDivisor: 4
GridSize: 4
TimelineZoom: 1

[Metadata]
Title:Yuukei Yesterday
TitleUnicode:夕景イエスタデイ
Artist:Jin ft. LiSA
ArtistUnicode:じん ft. LiSA
Creator:captin1
Version:Insane
Source:Mekakucity Actors
Tags:evening ending xchippy mintong mintong89 vocaloid ia メカクシティアクターズ kagerou project カゲロウプロジェクト 小松一也 Kazuya Komatsu tv size
BeatmapID:428874
BeatmapSetID:178291

[Difficulty]
HPDrainRate:7
CircleSize:4.2
OverallDifficulty:7.5
ApproachRate:8.3
SliderMultiplier:2
SliderTickRate:1

[Events]
//Background and Video events
0,0,"42611504.jpg",0,0
Video,-70,"video.avi"
//Break Periods
//Storyboard Layer 0 (Background)
//Storyboard Layer 1 (Fail)
//Storyboard Layer 2 (Pass)
//Storyboard Layer 3 (Foreground)
//Storyboard Sound Samples
//Background Colour Transformations
3,100,163,162,255

[TimingPoints]
596,465.116279069767,4,2,1,40,1,0
596,-100,4,2,1,70,0,0
7340,-100,4,2,1,60,0,0
25944,-100,4,2,0,70,0,0
26409,-100,4,2,1,70,0,0
37805,-133.333333333333,4,2,1,60,0,0
48968,-100,4,2,1,70,0,0
51642,-100,4,2,1,80,0,0
52223,-133.333333333333,4,2,1,80,0,0
52689,-83.3333333333333,4,2,1,80,0,1
67456,-83.3333333333333,4,2,1,80,0,0
67572,-83.3333333333333,4,2,1,80,0,1
84316,-83.3333333333333,4,2,1,80,0,0
86177,-100,4,2,1,70,0,1
86293,-100,4,2,1,70,0,0
96409,-83.3333333333333,4,2,1,70,0,0
96875,-83.3333333333333,4,2,1,5,0,0

[Colours]
Combo1 : 255,192,0
Combo2 : 92,184,10
Combo3 : 143,71,71
Combo4 : 242,24,57

[HitObjects]
76,184,363,6,0,L|56:144,2,33.3333333333333,8|8|8,0:3|0:3|0:3,0:0:0:0:
104,208,596,1,4,0:0:0:0:
256,152,828,1,8,0:0:0:0:
224,320,1061,2,0,L|220:264,1,50,0|8,0:0|0:3,0:0:0:0:
160,104,1409,2,0,B|157:136|157:136|192:200,1,100,8|0,0:0|0:0,0:0:0:0:
280,216,1758,2,0,L|340:224,1,50,0|8,0:0|0:0,0:0:0:0:
336,312,1991,2,0,L|388:332,1,50,8|2,0:0|0:0,0:0:0:0:
512,220,2340,6,0,L|408:228,1,100,0|8,0:0|0:0,0:0:0:0:
416,231,2689,1,0,0:0:0:0:
420,235,2805,1,0,0:0:0:0:
424,239,2921,2,0,L|452:283,2,50,8|0|8,0:0|0:0|0:0,0:0:0:0:
428,144,3270,6,0,L|416:92,1,50,2|0,0:0|0:0,0:0:0:0:
272,28,3502,2,0,L|284:80,1,50,2|0,0:0|0:0,0:0:0:0:
336,204,3735,2,0,P|320:260|272:292,1,100,2|0,0:0|0:0,0:0:0:0:
212,300,4084,2,0,L|176:336,1,50,8|0,0:0|0:0,0:0:0:0:
0,336,4316,6,0,P|40:288|84:276,1,100,4|0,0:1|0:0,0:0:0:0:
216,168,4782,1,8,0:0:0:0:
216,168,4898,2,0,L|248:216,1,50
288,328,5130,2,0,L|392:360,1,100,10|8,0:0|0:0,0:0:0:0:
444,290,5479,2,0,L|496:308,1,50
360,216,5712,1,8,0:0:0:0:
360,216,5828,1,0,0:0:0:0:
360,216,5944,1,8,0:3:0:0:
360,216,6061,1,8,0:3:0:0:
360,216,6177,6,0,L|432:216,1,50,8|8,0:0|0:0,0:0:0:0:
256,44,6526,1,10,0:0:0:0:
102,218,6758,1,10,0:0:0:0:
256,340,6991,2,8,L|256:272,1,50
204,160,7340,6,0,L|196:216,1,50,0|8,0:0|0:3,0:0:0:0:
159,297,7572,2,0,P|206:283|256:290,1,100,8|0,0:0|0:0,0:0:0:0:
448,360,8037,6,0,B|428:320|428:320|456:264|424:208,1,150,4|0,0:1|0:0,0:0:0:0:
400,192,8502,2,0,L|412:88,1,100,8|0,0:0|0:0,0:0:0:0:
264,36,8968,1,0,0:0:0:0:
264,36,9084,2,0,L|284:148,1,100
308,164,9433,2,0,P|284:212|240:240,1,100,8|0,0:0|0:0,0:0:0:0:
92,216,9898,5,2,0:0:0:0:
192,352,10130,2,0,L|256:360,1,50
320,328,10363,2,0,P|368:296|416:304,1,100,8|2,0:0|0:0,0:0:0:0:
432,192,10828,1,2,0:0:0:0:
244,264,11061,1,0,0:0:0:0:
328,112,11293,1,8,0:0:0:0:
328,112,11526,1,0,0:0:0:0:
376,251,11758,6,0,P|312:287|244:264,1,150
224,228,12223,2,0,L|124:240,1,100,8|2,0:0|0:0,0:0:0:0:
0,124,12689,2,0,L|100:136,1,100,2|0,0:0|0:0,0:0:0:0:
136,124,13037,1,0,0:0:0:0:
176,112,13154,1,8,0:0:0:0:
284,224,13386,1,0,0:0:0:0:
372,96,13619,6,0,P|368:40|352:0,1,100,2|0,0:0|0:0,0:0:0:0:
104,132,14084,2,0,B|176:112|176:112|208:140|280:120,1,150,10|0,0:0|0:0,0:0:0:0:
324,192,14549,2,0,L|336:240,2,50,0|8|0,0:0|0:0|0:0,0:0:0:0:
240,248,14898,1,2,0:0:0:0:
240,248,15014,2,0,P|236:304|252:344,1,100,8|0,0:0|0:0,0:0:0:0:
476,360,15479,6,0,B|473:349|476:336|476:336|444:320|444:320|460:272|424:228,1,150,2|0,0:0|0:0,0:0:0:0:
392,216,15944,1,8,0:0:0:0:
480,120,16177,1,0,0:0:0:0:
352,296,16409,2,0,P|304:308|252:300,1,100,2|0,0:0|0:0,0:0:0:0:
168,136,16875,1,8,0:0:0:0:
300,188,17107,1,0,0:0:0:0:
168,344,17340,6,0,B|128:328|128:328|16:356,1,150,2|0,0:0|0:0,0:0:0:0:
56,328,17805,2,0,P|73:280|72:228,1,100,8|0,0:0|0:0,0:0:0:0:
32,48,18270,2,0,P|24:104|36:148,1,100,2|0,0:0|0:0,0:0:0:0:
152,244,18735,1,8,0:0:0:0:
256,200,18968,1,0,0:0:0:0:
256,200,19084,1,0,0:0:0:0:
256,200,19200,5,2,0:0:0:0:
260,348,19433,2,0,L|308:332,1,50
344,248,19665,2,0,P|398:253|450:223,1,100,8|0,0:0|0:0,0:0:0:0:
372,56,20130,1,2,0:0:0:0:
372,56,20247,2,0,L|360:156,1,100
380,168,20595,2,0,P|304:148|264:164,1,100,8|0,0:0|0:0,0:0:0:0:
148,288,21061,6,0,L|88:296,2,50
216,336,21409,1,0,0:0:0:0:
216,336,21526,2,0,L|340:368,1,100,8|0,0:0|0:0,0:0:0:0:
464,280,21991,1,2,0:0:0:0:
276,264,22223,2,0,L|211:247,1,50
124,208,22456,1,8,0:0:0:0:
112,172,22572,1,8,0:3:0:0:
100,132,22689,1,8,0:3:0:0:
320,192,22921,6,0,P|388:136|388:64,1,150,4|0,0:1|0:0,0:0:0:0:
364,52,23386,2,0,L|464:64,1,100,8|0,0:0|0:0,0:0:0:0:
472,248,23851,2,0,L|404:256,1,50,2|0,0:0|0:0,0:0:0:0:
216,332,24200,2,0,L|276:348,1,50,2|8,0:0|0:0,0:0:0:0:
456,324,24549,1,0,0:0:0:0:
280,244,24782,6,0,P|252:192|252:144,1,100,2|0,0:0|0:0,0:0:0:0:
260,112,25130,1,0,0:0:0:0:
292,84,25247,1,8,0:0:0:0:
380,248,25479,1,2,0:0:0:0:
280,244,25712,1,0,0:0:0:0:
428,144,25944,1,10,0:0:0:0:
252,344,26177,1,10,0:0:0:0:
332,160,26409,1,0,0:0:0:0:
208,200,26642,6,0,B|164:224|164:224|108:200|136:120,1,150,2|0,0:0|0:0,0:0:0:0:
160,116,27107,2,0,P|208:104|256:64,1,100,8|0,0:0|0:0,0:0:0:0:
404,40,27572,1,2,0:0:0:0:
404,40,27689,2,0,L|416:148,1,100
448,160,28037,2,0,L|460:268,1,100,8|0,0:0|0:0,0:0:0:0:
352,360,28502,6,0,P|360:300|384:260,1,100,2|0,0:0|0:0,0:0:0:0:
260,316,28968,2,0,B|192:312|192:312|104:336,1,150,8|0,0:0|0:0,0:0:0:0:
80,312,29433,2,0,L|142:294,1,50,2|0,0:0|0:0,0:0:0:0:
232,208,29665,2,0,L|172:204,1,50
80,232,29898,2,0,P|44:172|48:132,1,100,8|0,0:0|0:0,0:0:0:0:
220,20,30363,6,0,B|224:80|184:112|184:112|120:88,1,150,2|0,0:0|0:0,0:0:0:0:
120,60,30828,2,0,L|132:168,1,100,8|0,0:0|0:0,0:0:0:0:
243,307,31293,2,0,L|232:208,1,100,0|0,0:0|0:0,0:0:0:0:
220,20,31758,1,8,0:0:0:0:
56,112,31991,1,2,0:0:0:0:
240,112,32223,6,0,B|268:110|288:96|288:96|328:108|328:108|352:92|388:96,1,150,2|0,0:0|0:0,0:0:0:0:
416,116,32689,1,8,0:0:0:0:
380,304,32921,2,0,B|360:276|360:276|352:192,1,100,2|0,0:0|0:0,0:0:0:0:
492,284,33386,1,0,0:0:0:0:
288,368,33619,1,10,0:0:0:0:
84,296,33851,1,0,0:0:0:0:
84,296,33968,1,2,0:0:0:0:
84,296,34084,6,0,L|100:184,1,100,0|0,0:0|0:0,0:0:0:0:
40,152,34433,2,0,L|64:100,1,50,0|8,0:0|0:0,0:0:0:0:
244,24,34782,1,0,0:0:0:0:
188,144,35014,1,0,0:0:0:0:
352,48,35247,1,2,0:0:0:0:
140,40,35479,1,10,0:0:0:0:
284,92,35712,2,0,L|324:144,1,50
312,236,35944,5,8,0:0:0:0:
312,236,36061,1,8,0:0:0:0:
184,216,36293,1,8,0:0:0:0:
384,120,36526,1,8,0:0:0:0:
368,340,36758,1,8,0:0:0:0:
368,340,36875,1,8,0:0:0:0:
188,304,37107,6,0,L|120:280,1,50
96,360,37340,1,8,0:0:0:0:
56,364,37456,1,8,0:3:0:0:
16,368,37572,1,8,0:3:0:0:
52,248,37805,6,0,L|64:128,1,112.500004291535,4|8,0:1|0:0,0:0:0:0:
44,112,38270,1,0,0:0:0:0:
140,216,38502,2,0,L|228:224,1,75.0000028610231,2|0,0:0|0:0,0:0:0:0:
372,184,38968,1,0,0:0:0:0:
452,264,39200,1,8,0:0:0:0:
480,156,39433,1,0,0:0:0:0:
372,184,39665,6,0,L|260:156,1,112.500004291535,2|8,0:0|0:0,0:0:0:0:
244,132,40130,1,0,0:0:0:0:
288,248,40363,2,0,L|377:271,1,75.0000028610231,2|0,0:0|0:0,0:0:0:0:
224,340,40828,1,0,0:0:0:0:
128,284,41061,2,0,P|108:236|112:184,1,75.0000028610231,8|0,0:0|0:0,0:0:0:0:
116,184,41409,1,0,0:0:0:0:
124,156,41526,6,0,L|24:80,1,112.500004291535,2|8,0:0|0:0,0:0:0:0:
4,88,41991,1,0,0:0:0:0:
156,76,42223,1,0,0:0:0:0:
156,76,42340,2,0,L|276:12,1,112.500004291535,2|0,0:0|0:0,0:0:0:0:
256,136,42921,2,0,P|268:184|296:220,1,75.0000028610231,8|0,0:0|0:0,0:0:0:0:
404,120,43386,6,0,P|460:96|508:108,2,112.500004291535,2|8|0,0:0|0:0|0:0,0:0:0:0:
336,252,44316,1,0,0:0:0:0:
348,280,44433,1,0,0:0:0:0:
360,308,44549,1,0,0:0:0:0:
224,256,44782,2,0,L|132:236,1,75.0000028610231,8|0,0:0|0:0,0:0:0:0:
40,328,45247,6,0,P|8:276|12:216,1,112.500004291535,4|8,0:1|0:0,0:0:0:0:
32,208,45712,2,0,L|16:124,1,75.0000028610231,0|8,0:0|0:0,0:0:0:0:
0,40,46177,1,0,0:0:0:0:
196,40,46409,1,10,0:0:0:0:
184,28,46642,1,10,0:0:0:0:
148,160,46875,1,0,0:0:0:0:
280,172,47107,6,0,B|320:208|320:208|344:280,1,112.500004291535,2|8,0:0|0:0,0:0:0:0:
328,292,47572,2,0,P|352:332|380:352,1,75.0000028610231,0|8,0:0|0:0,0:0:0:0:
448,264,48037,1,0,0:0:0:0:
228,252,48270,1,10,0:0:0:0:
240,264,48502,1,10,0:0:0:0:
296,368,48735,1,0,0:0:0:0:
312,208,48968,6,0,P|312:152|292:104,1,100,4|0,0:1|0:0,0:0:0:0:
112,44,49433,1,8,0:0:0:0:
36,180,49665,2,0,L|68:124,1,50
196,172,50014,2,0,L|152:112,1,50
116,264,50363,1,8,0:0:0:0:
130,301,50479,1,0,0:0:0:0:
160,328,50595,1,0,0:0:0:0:
200,336,50712,1,0,0:0:0:0:
239,330,50828,5,8,0:3:0:0:
408,236,51061,2,0,L|457:230,1,50,0|0,0:0|0:0,0:0:0:0:
332,204,51293,2,0,L|283:190,1,50,8|0,0:0|0:3,0:0:0:0:
340,364,51642,5,10,0:0:0:0:
356,88,51875,1,10,0:0:0:0:
356,88,51991,1,10,0:0:0:0:
276,212,52223,6,0,L|188:228,1,75.0000028610231
52,276,52689,6,0,L|128:292,1,59.9999981689454,6|0,0:0|0:0,0:0:0:0:
264,304,52921,2,0,L|200:304,1,59.9999981689454,2|0,0:0|0:0,0:0:0:0:
128,384,53154,1,8,0:0:0:0:
128,384,53270,1,0,0:0:0:0:
348,356,53502,2,0,P|360:292|332:236,1,119.999996337891,2|0,0:0|0:0,0:0:0:0:
300,216,53851,1,0,0:0:0:0:
412,28,54084,2,0,P|375:82|379:144,1,119.999996337891,8|0,0:0|0:0,0:0:0:0:
484,244,54549,5,0,0:0:0:0:
492,72,54782,1,2,0:0:0:0:
332,152,55014,1,8,0:0:0:0:
332,152,55130,1,0,0:0:0:0:
424,308,55363,2,0,L|300:322,1,119.999996337891,2|0,0:0|0:0,0:0:0:0:
270,356,55712,1,0,0:0:0:0:
223,346,55828,2,0,L|192:288,1,59.9999981689454,2|8,0:0|0:0,0:0:0:0:
256,96,56177,5,0,0:0:0:0:
256,96,56293,1,0,0:0:0:0:
256,96,56409,2,0,L|262:163,1,59.9999981689454,2|0,0:0|0:0,0:0:0:0:
184,44,56642,2,0,L|112:24,1,59.9999981689454,2|0,0:0|0:0,0:0:0:0:
264,8,56875,1,8,0:0:0:0:
264,8,56991,1,0,0:0:0:0:
164,152,57223,2,0,P|152:212|184:276,1,119.999996337891,2|0,0:0|0:0,0:0:0:0:
212,296,57572,1,0,0:0:0:0:
392,200,57805,2,0,L|268:204,1,119.999996337891,8|0,0:0|0:0,0:0:0:0:
392,340,58270,5,2,0:0:0:0:
480,224,58502,1,0,0:0:0:0:
312,280,58735,2,0,P|247:291|200:328,1,119.999996337891,8|0,0:0|0:0,0:0:0:0:
116,368,59084,2,0,L|128:292,1,59.9999981689454,2|0,0:0|0:0,0:0:0:0:
184,216,59316,2,0,P|204:132|196:96,1,119.999996337891,10|0,0:0|0:0,0:0:0:0:
156,72,59665,1,8,0:0:0:0:
284,200,59898,5,0,0:0:0:0:
284,200,60014,1,0,0:0:0:0:
284,200,60130,2,0,L|360:188,1,59.9999981689454,2|0,0:0|0:0,0:0:0:0:
448,240,60363,2,0,L|488:176,1,59.9999981689454,2|0,0:0|0:0,0:0:0:0:
408,96,60595,1,8,0:0:0:0:
408,96,60712,1,0,0:0:0:0:
324,272,60944,2,0,P|336:336|380:376,1,119.999996337891,2|0,0:0|0:0,0:0:0:0:
420,384,61293,1,0,0:0:0:0:
252,320,61526,2,0,P|184:328|136:360,1,119.999996337891,8|0,0:0|0:0,0:0:0:0:
0,276,61991,6,0,P|72:288|124:272,1,119.999996337891,0|2,0:0|0:0,0:0:0:0:
196,148,62456,1,8,0:0:0:0:
200,172,62572,1,0,0:0:0:0:
204,196,62689,1,0,0:0:0:0:
208,220,62805,2,0,L|192:292,1,59.9999981689454,2|0,0:0|0:0,0:0:0:0:
283,342,63037,2,0,P|270:284|290:228,1,119.999996337891,2|0,0:0|0:0,0:0:0:0:
332,204,63386,1,8,0:0:0:0:
472,212,63619,2,0,L|440:268,1,59.9999981689454
404,164,63851,6,0,P|396:100|420:40,1,119.999996337891,2|0,0:0|0:0,0:0:0:0:
480,228,64316,2,0,L|362:253,1,119.999996337891,8|0,0:0|0:0,0:0:0:0:
328,288,64665,1,0,0:0:0:0:
292,320,64782,1,2,0:0:0:0:
136,304,65014,1,0,0:0:0:0:
228,176,65247,2,0,B|260:190|260:190|360:180,1,119.999996337891,8|0,0:0|0:0,0:0:0:0:
496,40,65712,5,2,0:0:0:0:
492,44,65828,1,0,0:0:0:0:
280,80,66061,1,0,0:0:0:0:
268,84,66177,1,10,0:0:0:0:
256,88,66293,1,0,0:0:0:0:
72,136,66526,1,0,0:0:0:0:
92,152,66642,2,0,L|112:220,1,59.9999981689454,2|0,0:0|0:0,0:0:0:0:
80,324,66875,5,0,0:0:0:0:
112,308,66991,2,0,L|200:320,1,59.9999981689454,2|8,0:0|0:0,0:0:0:0:
280,356,67223,1,0,0:0:0:0:
320,328,67340,1,8,0:3:0:0:
360,300,67456,1,8,0:3:0:0:
400,272,67572,6,0,L|412:212,1,59.9999981689454,6|0,0:0|0:0,0:0:0:0:
348,68,67805,2,0,L|360:148,1,59.9999981689454,2|0,0:0|0:0,0:0:0:0:
500,160,68037,1,8,0:0:0:0:
500,160,68154,1,0,0:0:0:0:
300,192,68386,2,0,P|240:180|184:200,1,119.999996337891,2|0,0:0|0:0,0:0:0:0:
160,240,68735,1,0,0:0:0:0:
360,300,68968,2,0,L|480:296,1,119.999996337891,8|0,0:0|0:0,0:0:0:0:
240,348,69433,5,2,0:0:0:0:
300,192,69665,1,0,0:0:0:0:
184,236,69898,1,8,0:0:0:0:
184,236,70014,1,0,0:0:0:0:
356,304,70247,1,2,0:0:0:0:
368,132,70479,2,0,L|288:100,1,59.9999981689454,2|0,0:0|0:0,0:0:0:0:
224,160,70712,2,0,L|152:168,1,59.9999981689454,2|8,0:0|0:0,0:0:0:0:
64,40,71061,5,0,0:0:0:0:
64,40,71177,1,0,0:0:0:0:
64,40,71293,1,2,0:0:0:0:
72,224,71526,1,0,0:0:0:0:
168,112,71758,1,8,0:0:0:0:
168,112,71875,1,0,0:0:0:0:
20,300,72107,2,0,P|92:312|140:284,1,119.999996337891,2|0,0:0|0:0,0:0:0:0:
160,252,72456,1,2,0:0:0:0:
268,360,72689,2,0,L|400:324,1,119.999996337891,8|0,0:0|0:0,0:0:0:0:
383,328,73037,1,0,0:0:0:0:
383,328,73154,5,2,0:0:0:0:
488,204,73386,1,0,0:0:0:0:
488,204,73502,1,0,0:0:0:0:
488,204,73619,1,10,0:0:0:0:
300,224,73851,1,0,0:0:0:0:
276,216,73968,2,0,L|256:132,1,59.9999981689454,2|0,0:0|0:0,0:0:0:0:
216,292,74200,6,0,P|288:304|340:280,1,119.999996337891,8|0,0:0|0:0,0:0:0:0:
400,208,74549,1,10,0:0:0:0:
400,160,74665,1,0,0:0:0:0:
372,120,74782,1,8,0:0:0:0:
324,108,74898,1,8,0:0:0:0:
276,120,75014,6,0,P|208:124|160:96,1,119.999996337891,4|0,0:1|0:0,0:0:0:0:
48,208,75479,2,0,L|20:264,2,59.9999981689454,8|0|0,0:0|0:0|0:0,0:0:0:0:
100,268,75828,2,0,P|168:280|220:260,1,119.999996337891,2|0,0:0|0:0,0:0:0:0:
244,224,76177,1,2,0:0:0:0:
296,340,76409,2,0,P|352:357|410:344,1,119.999996337891,8|0,0:0|0:0,0:0:0:0:
488,196,76875,6,0,P|424:224|396:272,1,119.999996337891,0|2,0:0|0:0,0:0:0:0:
212,308,77340,1,8,0:0:0:0:
212,308,77456,2,0,L|218:369,1,59.9999981689454
296,340,77689,1,2,0:0:0:0:
328,216,77921,2,0,L|344:88,1,119.999996337891,2|0,0:0|0:0,0:0:0:0:
324,64,78270,2,0,P|364:116|420:128,1,119.999996337891,8|0,0:0|0:0,0:0:0:0:
460,116,78619,1,0,0:0:0:0:
500,88,78735,5,2,0:0:0:0:
464,216,78968,1,0,0:0:0:0:
328,216,79200,2,0,P|264:200|208:212,1,119.999996337891,8|0,0:0|0:0,0:0:0:0:
172,236,79549,1,0,0:0:0:0:
144,276,79665,1,2,0:0:0:0:
308,352,79898,1,0,0:0:0:0:
400,264,80130,2,0,B|384:226|384:226|380:136,1,119.999996337891,10|0,0:0|0:0,0:0:0:0:
276,24,80595,5,2,0:0:0:0:
276,24,80712,1,0,0:0:0:0:
312,188,80944,1,0,0:0:0:0:
292,200,81061,1,10,0:0:0:0:
272,212,81177,1,0,0:0:0:0:
120,276,81409,1,8,0:0:0:0:
96,248,81526,2,0,L|96:160,1,59.9999981689454,2|0,0:0|0:0,0:0:0:0:
119,85,81758,6,0,L|104:28,1,59.9999981689454,10|0,0:0|0:0,0:0:0:0:
196,116,81990,1,8,0:0:0:0:
220,120,82106,1,0,0:0:0:0:
244,112,82223,1,8,0:3:0:0:
260,96,82339,1,8,0:3:0:0:
268,72,82456,5,4,0:1:0:0:
484,320,82921,1,8,0:0:0:0:
484,320,83037,2,0,L|348:296,1,119.999996337891,2|0,0:0|0:0,0:0:0:0:
340,260,83386,1,0,0:0:0:0:
224,376,83619,1,2,0:0:0:0:
232,212,83851,1,10,0:0:0:0:
260,172,83968,1,0,0:0:0:0:
304,148,84084,1,8,0:3:0:0:
352,144,84200,1,8,0:3:0:0:
396,164,84316,6,0,L|484:148,1,59.9999981689454,8|8,0:0|0:0,0:0:0:0:
252,308,84665,1,8,0:0:0:0:
452,248,84898,1,8,0:0:0:0:
160,276,85130,1,8,0:0:0:0:
160,276,85247,1,8,0:0:0:0:
76,128,85479,6,0,P|76:88|84:56,1,59.9999981689454,8|8,0:3|0:3,0:0:0:0:
184,16,85712,2,0,P|218:36|242:58,1,59.9999981689454,8|8,0:3|0:3,0:0:0:0:
228,164,85944,2,0,P|193:184|161:193,1,59.9999981689454,8|8,0:3|0:3,0:0:0:0:
233,49,86177,6,0,P|300:48|352:76,1,100,4|0,0:1|0:0,0:0:0:0:
356,92,86525,1,0,0:0:0:0:
360,132,86642,2,0,L|376:208,1,50,8|0,0:0|0:0,0:0:0:0:
480,352,86991,1,0,0:0:0:0:
480,352,87107,2,0,P|404:344|364:364,1,100,2|0,0:0|0:0,0:0:0:0:
348,372,87456,1,0,0:0:0:0:
308,368,87572,1,8,0:0:0:0:
180,320,87805,1,0,0:0:0:0:
304,204,88037,6,0,P|356:224|392:272,1,100,2|0,0:0|0:0,0:0:0:0:
200,228,88502,2,0,L|140:216,1,50,8|0,0:0|0:0,0:0:0:0:
72,140,88735,1,0,0:0:0:0:
72,140,88851,1,0,0:0:0:0:
72,140,88968,2,0,L|200:132,1,100,2|0,0:0|0:0,0:0:0:0:
344,84,89433,1,8,0:0:0:0:
304,256,89665,1,2,0:0:0:0:
171,133,89898,6,0,P|176:72|216:20,1,100,2|0,0:0|0:0,0:0:0:0:
377,47,90363,2,0,L|344:84,1,50,8|0,0:0|0:0,0:0:0:0:
272,144,90595,1,0,0:0:0:0:
272,144,90712,1,0,0:0:0:0:
272,144,90828,2,0,L|384:176,1,100,2|0,0:0|0:0,0:0:0:0:
429,238,91177,2,0,L|380:248,1,50,2|8,0:0|0:0,0:0:0:0:
256,344,91526,1,2,0:0:0:0:
132,248,91758,6,0,L|124:136,1,100,2|0,0:0|0:0,0:0:0:0:
176,28,92107,1,0,0:0:0:0:
204,20,92223,2,0,L|200:84,1,50,8|0,0:0|0:0,0:0:0:0:
244,248,92572,1,0,0:0:0:0:
244,248,92689,1,2,0:0:0:0:
320,48,92921,2,0,L|372:8,1,50
408,80,93154,2,0,L|473:75,1,50,8|0,0:0|0:0,0:0:0:0:
463,155,93386,2,0,L|519:188,1,50,2|8,0:0|0:0,0:0:0:0:
467,248,93619,6,0,P|464:312|436:352,1,100,4|8,0:1|0:0,0:0:0:0:
412,360,93968,1,0,0:0:0:0:
372,368,94084,1,8,0:0:0:0:
332,360,94200,1,0,0:0:0:0:
300,336,94316,1,8,0:3:0:0:
280,300,94433,1,8,0:3:0:0:
288,260,94549,6,0,L|308:212,1,50,0|8,0:0|0:0,0:0:0:0:
256,76,94782,2,0,L|260:144,1,50,8|8,0:0|0:0,0:0:0:0:
192,212,95014,1,8,0:0:0:0:
156,232,95130,1,8,0:0:0:0:
120,252,95247,1,8,0:3:0:0:
84,272,95363,1,8,0:3:0:0:
48,292,95479,5,8,0:0:0:0:
16,268,95595,1,8,0:0:0:0:
256,76,95828,1,8,0:0:0:0:
256,308,96061,1,8,0:0:0:0:
464,292,96293,1,8,0:0:0:0:
496,268,96409,2,0,B|496:235|472:220|472:220|500:180|500:180|444:124|484:48,1,239.999992675781,12|0,0:0|0:0,0:0:0:0:
