osu file format v14

[General]
AudioFilename: IA - Nihonbashi Koukashita R Keikaku.mp3
AudioLeadIn: 0
PreviewTime: 45258
Countdown: 0
SampleSet: Soft
StackLeniency: 0.7
Mode: 3
LetterboxInBreaks: 0
SpecialStyle: 0
WidescreenStoryboard: 1

[Editor]
DistanceSpacing: 1.4
BeatDivisor: 16
GridSize: 4
TimelineZoom: 3.099999

[Metadata]
Title:Nihonbashi Koukashita R Keikaku
TitleUnicode:日本橋高架下R計画
Artist:Jin ft. IA
ArtistUnicode:じん ft. IA
Creator:Adtw_
Version:NM
Source:
Tags:Vocaloid Nihonbashi Japan Bridge Overpass Under R Plan Female
BeatmapID:674451
BeatmapSetID:300716

[Difficulty]
HPDrainRate:7
CircleSize:4
OverallDifficulty:7
ApproachRate:5
SliderMultiplier:1.4
SliderTickRate:1

[Events]
//Background and Video events
0,0,"Background.jpg",0,0
//Break Periods
//Storyboard Layer 0 (Background)
//Storyboard Layer 1 (Fail)
//Storyboard Layer 2 (Pass)
//Storyboard Layer 3 (Foreground)
//Storyboard Sound Samples

[TimingPoints]
2078,461.538461538462,4,2,1,50,1,0
45489,-100,4,2,1,50,0,1
73198,-100,4,2,1,50,0,0

[HitObjects]
64,192,2078,5,0,0:0:0:0:
448,192,2539,1,0,0:0:0:0:
320,192,3029,1,0,0:0:0:0:
64,192,3491,1,0,0:0:0:0:
192,192,3722,1,0,0:0:0:0:
320,192,3953,1,0,0:0:0:0:
192,192,4183,1,0,0:0:0:0:
448,192,4183,1,0,0:0:0:0:
320,192,4414,1,0,0:0:0:0:
64,192,4645,1,0,0:0:0:0:
192,192,4876,1,0,0:0:0:0:
448,192,5222,128,0,5568:0:0:0:0:
64,192,5568,1,0,0:0:0:0:
320,192,5683,1,0,0:0:0:0:
192,192,5799,1,0,0:0:0:0:
64,192,5799,1,0,0:0:0:0:
320,192,6029,1,0,0:0:0:0:
192,192,6260,1,0,0:0:0:0:
64,192,6491,1,0,0:0:0:0:
192,192,6722,1,0,0:0:0:0:
320,192,6953,1,0,0:0:0:0:
448,192,7183,1,0,0:0:0:0:
192,192,7183,1,0,0:0:0:0:
320,192,7414,1,0,0:0:0:0:
192,192,7645,128,0,8164:0:0:0:0:
64,192,8568,1,0,0:0:0:0:
448,192,8799,1,0,0:0:0:0:
64,192,8914,1,0,0:0:0:0:
192,192,9029,1,0,0:0:0:0:
320,192,9260,1,0,0:0:0:0:
448,192,9491,1,0,0:0:0:0:
192,192,9491,1,0,0:0:0:0:
320,192,9953,1,0,0:0:0:0:
64,192,9953,1,0,0:0:0:0:
320,192,10414,1,0,0:0:0:0:
64,192,10645,1,0,0:0:0:0:
448,192,10876,128,0,11337:0:0:0:0:
64,192,11337,1,0,0:0:0:0:
320,192,11337,1,0,0:0:0:0:
192,192,11568,1,0,0:0:0:0:
448,192,11568,1,0,0:0:0:0:
320,192,12029,1,0,0:0:0:0:
192,192,12145,1,0,0:0:0:0:
64,192,12260,1,0,0:0:0:0:
320,192,12260,1,0,0:0:0:0:
448,192,12578,1,0,0:0:0:0:
192,192,12953,1,0,0:0:0:0:
448,192,13183,128,0,13529:0:0:0:0:
320,192,13645,1,0,0:0:0:0:
192,192,13876,1,0,0:0:0:0:
64,192,14106,1,0,0:0:0:0:
320,192,14106,1,0,0:0:0:0:
448,192,14337,1,0,0:0:0:0:
320,192,14568,1,0,0:0:0:0:
64,192,14770,128,0,15433:0:0:0:0:
192,192,15231,128,0,15433:0:0:0:0:
448,192,15606,1,0,0:0:0:0:
320,192,15837,1,0,0:0:0:0:
448,192,16126,1,0,0:0:0:0:
320,192,16183,1,0,0:0:0:0:
192,192,16241,1,0,0:0:0:0:
64,192,16299,1,0,0:0:0:0:
192,192,16414,1,0,0:0:0:0:
448,192,16414,1,0,0:0:0:0:
64,192,16847,1,0,0:0:0:0:
192,192,16847,1,0,0:0:0:0:
64,192,17308,1,0,0:0:0:0:
448,192,17539,1,0,0:0:0:0:
192,192,17539,1,0,0:0:0:0:
320,192,17770,1,0,0:0:0:0:
192,192,18001,128,0,18462:0:0:0:0:
64,192,18231,1,0,0:0:0:0:
320,192,18462,1,0,0:0:0:0:
320,192,18693,1,0,0:0:0:0:
192,192,18808,1,0,0:0:0:0:
64,192,18924,1,0,0:0:0:0:
320,192,18924,1,0,0:0:0:0:
192,192,19154,1,0,0:0:0:0:
320,192,19385,1,0,0:0:0:0:
192,192,19616,1,0,0:0:0:0:
448,192,19847,1,0,0:0:0:0:
64,192,20337,1,0,0:0:0:0:
192,192,20453,1,0,0:0:0:0:
320,192,20568,1,0,0:0:0:0:
448,192,20568,128,0,21029:0:0:0:0:
64,192,21260,1,0,0:0:0:0:
320,192,21260,1,0,0:0:0:0:
192,192,21491,1,0,0:0:0:0:
320,192,21722,128,0,22183:0:0:0:0:
64,192,21953,1,0,0:0:0:0:
192,192,22183,1,0,0:0:0:0:
448,192,22385,1,0,0:0:0:0:
320,192,22616,128,0,23337:0:0:0:0:
448,192,22991,1,0,0:0:0:0:
64,192,23106,1,0,0:0:0:0:
192,192,23222,1,0,0:0:0:0:
448,192,23337,1,0,0:0:0:0:
64,192,23568,1,0,0:0:0:0:
320,192,23568,1,0,0:0:0:0:
448,192,23799,128,0,24231:0:0:0:0:
64,192,24029,1,0,0:0:0:0:
320,192,24231,1,0,0:0:0:0:
192,192,24462,1,0,0:0:0:0:
320,192,24693,1,0,0:0:0:0:
448,192,24924,1,0,0:0:0:0:
192,192,24924,1,0,0:0:0:0:
320,192,25183,1,0,0:0:0:0:
192,192,25414,128,0,25876:0:0:0:0:
64,192,25645,1,0,0:0:0:0:
320,192,25876,1,0,0:0:0:0:
448,192,26106,1,0,0:0:0:0:
320,192,26337,1,0,0:0:0:0:
192,192,26568,1,0,0:0:0:0:
448,192,26770,1,0,0:0:0:0:
64,192,27231,128,0,27924:0:0:0:0:
192,192,27491,128,0,27924:0:0:0:0:
320,192,27693,128,0,27924:0:0:0:0:
448,192,27924,1,0,0:0:0:0:
192,192,28183,1,0,0:0:0:0:
448,192,28183,1,0,0:0:0:0:
64,192,28645,1,0,0:0:0:0:
320,192,28645,128,0,28876:0:0:0:0:
448,192,28876,128,0,29106:0:0:0:0:
192,192,29106,1,0,0:0:0:0:
320,192,29337,1,0,0:0:0:0:
64,192,29568,128,0,30376:0:0:0:0:
192,192,30029,128,0,30376:0:0:0:0:
64,192,30722,1,0,0:0:0:0:
448,192,30722,1,0,0:0:0:0:
320,192,31010,128,0,31645:0:0:0:0:
448,192,31645,1,0,0:0:0:0:
64,192,31991,1,0,0:0:0:0:
320,192,31991,1,0,0:0:0:0:
64,192,32337,1,0,0:0:0:0:
448,192,32568,1,0,0:0:0:0:
192,192,32568,1,0,0:0:0:0:
320,192,32914,1,0,0:0:0:0:
192,192,32914,1,0,0:0:0:0:
64,192,33260,1,0,0:0:0:0:
448,192,33260,1,0,0:0:0:0:
192,192,34645,1,0,0:0:0:0:
448,192,34760,1,0,0:0:0:0:
64,192,34876,128,0,35106:0:0:0:0:
320,192,35106,1,0,0:0:0:0:
320,192,35308,128,0,35654:0:0:0:0:
448,192,35654,1,0,0:0:0:0:
192,192,35654,128,0,36231:0:0:0:0:
320,192,36231,1,0,0:0:0:0:
64,192,36231,1,0,0:0:0:0:
320,192,36491,1,0,0:0:0:0:
448,192,36606,1,0,0:0:0:0:
192,192,36606,1,0,0:0:0:0:
192,192,36837,1,0,0:0:0:0:
64,192,36953,128,0,37529:0:0:0:0:
320,192,36953,1,0,0:0:0:0:
192,192,37183,128,0,37529:0:0:0:0:
320,192,37645,1,0,0:0:0:0:
64,192,38337,1,0,0:0:0:0:
448,192,38337,1,0,0:0:0:0:
192,192,38568,1,0,0:0:0:0:
320,192,38568,1,0,0:0:0:0:
192,192,38799,1,0,0:0:0:0:
320,192,38914,1,0,0:0:0:0:
192,192,39029,1,0,0:0:0:0:
448,192,39029,1,0,0:0:0:0:
320,192,39260,1,0,0:0:0:0:
192,192,39376,1,0,0:0:0:0:
320,192,39491,1,0,0:0:0:0:
64,192,39491,1,0,0:0:0:0:
192,192,39722,1,0,0:0:0:0:
320,192,39837,1,0,0:0:0:0:
192,192,39953,1,0,0:0:0:0:
448,192,39953,1,0,0:0:0:0:
320,192,40183,1,0,0:0:0:0:
192,192,40299,1,0,0:0:0:0:
320,192,40414,1,0,0:0:0:0:
64,192,40414,1,0,0:0:0:0:
192,192,40645,1,0,0:0:0:0:
320,192,40760,1,0,0:0:0:0:
192,192,40876,1,0,0:0:0:0:
448,192,40876,1,0,0:0:0:0:
192,192,41106,1,0,0:0:0:0:
448,192,41106,1,0,0:0:0:0:
320,192,41222,1,0,0:0:0:0:
192,192,41337,128,0,41568:0:0:0:0:
448,192,41683,1,0,0:0:0:0:
64,192,41799,1,0,0:0:0:0:
192,192,42260,1,0,0:0:0:0:
448,192,42606,128,0,42722:0:0:0:0:
320,192,42722,1,0,0:0:0:0:
192,192,42722,128,0,43414:0:0:0:0:
64,192,42895,1,0,0:0:0:0:
320,192,43068,1,0,0:0:0:0:
448,192,43241,1,0,0:0:0:0:
320,192,43414,1,0,0:0:0:0:
64,192,43414,128,0,44106:0:0:0:0:
192,192,43645,1,0,0:0:0:0:
320,192,43818,1,0,0:0:0:0:
448,192,43991,1,0,0:0:0:0:
192,192,44106,128,0,44799:0:0:0:0:
448,192,44222,1,0,0:0:0:0:
64,192,44453,1,0,0:0:0:0:
320,192,44626,1,0,0:0:0:0:
64,192,44799,1,0,0:0:0:0:
448,192,44799,1,0,0:0:0:0:
448,192,45260,1,0,0:0:0:0:
320,192,45491,1,0,0:0:0:0:
192,192,45491,1,0,0:0:0:0:
192,192,45722,1,0,0:0:0:0:
320,192,45837,1,0,0:0:0:0:
192,192,45953,1,0,0:0:0:0:
448,192,45953,1,0,0:0:0:0:
320,192,46183,1,0,0:0:0:0:
448,192,46299,1,0,0:0:0:0:
64,192,46299,1,0,0:0:0:0:
192,192,46414,1,0,0:0:0:0:
320,192,46645,1,0,0:0:0:0:
192,192,46760,1,0,0:0:0:0:
64,192,46876,1,0,0:0:0:0:
320,192,46876,1,0,0:0:0:0:
192,192,47106,1,0,0:0:0:0:
192,192,47568,1,0,0:0:0:0:
320,192,47683,1,0,0:0:0:0:
192,192,47799,1,0,0:0:0:0:
448,192,47799,1,0,0:0:0:0:
192,192,48029,1,0,0:0:0:0:
320,192,48145,1,0,0:0:0:0:
64,192,48145,1,0,0:0:0:0:
320,192,48491,1,0,0:0:0:0:
192,192,48606,1,0,0:0:0:0:
64,192,48722,1,0,0:0:0:0:
320,192,48722,1,0,0:0:0:0:
448,192,48953,1,0,0:0:0:0:
192,192,49183,1,0,0:0:0:0:
64,192,49183,1,0,0:0:0:0:
448,192,49414,1,0,0:0:0:0:
320,192,49529,1,0,0:0:0:0:
448,192,49645,1,0,0:0:0:0:
192,192,49645,1,0,0:0:0:0:
192,192,49876,1,0,0:0:0:0:
64,192,49991,1,0,0:0:0:0:
320,192,49991,1,0,0:0:0:0:
64,192,50222,1,0,0:0:0:0:
192,192,50337,1,0,0:0:0:0:
320,192,50453,1,0,0:0:0:0:
192,192,50568,1,0,0:0:0:0:
448,192,50568,1,0,0:0:0:0:
320,192,50799,1,0,0:0:0:0:
192,192,50799,1,0,0:0:0:0:
448,192,51029,1,0,0:0:0:0:
320,192,51260,1,0,0:0:0:0:
192,192,51376,1,0,0:0:0:0:
64,192,51491,1,0,0:0:0:0:
320,192,51491,1,0,0:0:0:0:
192,192,51722,1,0,0:0:0:0:
320,192,51837,1,0,0:0:0:0:
448,192,51953,1,0,0:0:0:0:
320,192,52068,1,0,0:0:0:0:
192,192,52183,1,0,0:0:0:0:
448,192,52183,1,0,0:0:0:0:
64,192,52414,1,0,0:0:0:0:
448,192,52414,1,0,0:0:0:0:
192,192,52645,1,0,0:0:0:0:
320,192,52645,1,0,0:0:0:0:
192,192,52876,1,0,0:0:0:0:
64,192,52991,1,0,0:0:0:0:
192,192,53106,1,0,0:0:0:0:
320,192,53222,1,0,0:0:0:0:
448,192,53337,1,0,0:0:0:0:
192,192,53337,1,0,0:0:0:0:
320,192,53568,1,0,0:0:0:0:
448,192,53799,1,0,0:0:0:0:
192,192,54029,1,0,0:0:0:0:
64,192,54260,1,0,0:0:0:0:
320,192,54260,1,0,0:0:0:0:
320,192,54491,1,0,0:0:0:0:
448,192,54722,1,0,0:0:0:0:
320,192,54953,1,0,0:0:0:0:
448,192,55183,1,0,0:0:0:0:
192,192,55183,1,0,0:0:0:0:
192,192,55414,1,0,0:0:0:0:
64,192,55529,1,0,0:0:0:0:
320,192,55529,1,0,0:0:0:0:
192,192,55876,1,0,0:0:0:0:
320,192,55991,1,0,0:0:0:0:
448,192,56106,1,0,0:0:0:0:
192,192,56106,1,0,0:0:0:0:
64,192,56337,1,0,0:0:0:0:
192,192,56453,1,0,0:0:0:0:
320,192,56568,128,0,56799:0:0:0:0:
448,192,56799,1,0,0:0:0:0:
64,192,57029,1,0,0:0:0:0:
320,192,57029,1,0,0:0:0:0:
192,192,57260,1,0,0:0:0:0:
320,192,57376,1,0,0:0:0:0:
64,192,57376,1,0,0:0:0:0:
192,192,57491,128,0,57722:0:0:0:0:
64,192,57722,1,0,0:0:0:0:
192,192,57953,1,0,0:0:0:0:
448,192,57953,1,0,0:0:0:0:
448,192,58183,1,0,0:0:0:0:
64,192,58299,1,0,0:0:0:0:
448,192,58414,1,0,0:0:0:0:
192,192,58645,1,0,0:0:0:0:
320,192,58760,1,0,0:0:0:0:
192,192,58876,1,0,0:0:0:0:
448,192,58876,1,0,0:0:0:0:
448,192,59222,1,0,0:0:0:0:
192,192,59222,1,0,0:0:0:0:
320,192,59337,1,0,0:0:0:0:
64,192,59568,1,0,0:0:0:0:
192,192,59683,1,0,0:0:0:0:
320,192,59799,1,0,0:0:0:0:
64,192,59799,1,0,0:0:0:0:
448,192,60029,1,0,0:0:0:0:
320,192,60260,1,0,0:0:0:0:
192,192,60260,1,0,0:0:0:0:
448,192,60491,1,0,0:0:0:0:
320,192,60606,1,0,0:0:0:0:
448,192,60722,1,0,0:0:0:0:
192,192,60722,1,0,0:0:0:0:
192,192,60953,1,0,0:0:0:0:
64,192,61068,1,0,0:0:0:0:
320,192,61068,1,0,0:0:0:0:
64,192,61414,1,0,0:0:0:0:
192,192,61645,1,0,0:0:0:0:
320,192,61876,1,0,0:0:0:0:
64,192,61876,1,0,0:0:0:0:
320,192,62337,1,0,0:0:0:0:
192,192,62453,1,0,0:0:0:0:
320,192,62568,1,0,0:0:0:0:
64,192,62568,1,0,0:0:0:0:
192,192,62799,1,0,0:0:0:0:
64,192,62914,1,0,0:0:0:0:
320,192,62914,1,0,0:0:0:0:
448,192,63260,1,0,0:0:0:0:
320,192,63376,1,0,0:0:0:0:
448,192,63491,1,0,0:0:0:0:
192,192,63491,1,0,0:0:0:0:
64,192,63722,1,0,0:0:0:0:
448,192,63953,1,0,0:0:0:0:
320,192,64183,1,0,0:0:0:0:
192,192,64299,1,0,0:0:0:0:
320,192,64414,1,0,0:0:0:0:
64,192,64414,1,0,0:0:0:0:
320,192,64645,1,0,0:0:0:0:
192,192,64760,1,0,0:0:0:0:
448,192,64760,1,0,0:0:0:0:
64,192,65106,1,0,0:0:0:0:
192,192,65222,1,0,0:0:0:0:
64,192,65337,1,0,0:0:0:0:
320,192,65337,1,0,0:0:0:0:
448,192,65568,1,0,0:0:0:0:
320,192,65568,128,0,66029:0:0:0:0:
192,192,66029,1,0,0:0:0:0:
320,192,66260,128,0,66953:0:0:0:0:
448,192,66491,128,0,66953:0:0:0:0:
64,192,66953,1,0,0:0:0:0:
192,192,67068,1,0,0:0:0:0:
64,192,67183,1,0,0:0:0:0:
320,192,67183,1,0,0:0:0:0:
448,192,67414,1,0,0:0:0:0:
192,192,67645,1,0,0:0:0:0:
320,192,67876,1,0,0:0:0:0:
448,192,68106,1,0,0:0:0:0:
192,192,68106,1,0,0:0:0:0:
320,192,68337,1,0,0:0:0:0:
64,192,68799,1,0,0:0:0:0:
192,192,68914,1,0,0:0:0:0:
320,192,69029,1,0,0:0:0:0:
64,192,69029,1,0,0:0:0:0:
192,192,69376,1,0,0:0:0:0:
448,192,69376,1,0,0:0:0:0:
320,192,69491,1,0,0:0:0:0:
64,192,69722,1,0,0:0:0:0:
192,192,69837,1,0,0:0:0:0:
64,192,69953,1,0,0:0:0:0:
320,192,69953,1,0,0:0:0:0:
192,192,70183,1,0,0:0:0:0:
448,192,70414,1,0,0:0:0:0:
320,192,70645,1,0,0:0:0:0:
192,192,70760,1,0,0:0:0:0:
64,192,70876,1,0,0:0:0:0:
320,192,70876,1,0,0:0:0:0:
448,192,71222,1,0,0:0:0:0:
320,192,71337,1,0,0:0:0:0:
192,192,71453,1,0,0:0:0:0:
320,192,71568,1,0,0:0:0:0:
192,192,71683,1,0,0:0:0:0:
64,192,71799,1,0,0:0:0:0:
320,192,72029,1,0,0:0:0:0:
192,192,72029,1,0,0:0:0:0:
448,192,72231,1,0,0:0:0:0:
320,192,72462,1,0,0:0:0:0:
64,192,72462,1,0,0:0:0:0:
448,192,73193,1,0,0:0:0:0:
64,192,73424,1,0,0:0:0:0:
64,192,73770,1,0,0:0:0:0:
448,192,73770,128,0,74462:0:0:0:0:
192,192,74116,1,0,0:0:0:0:
192,192,74462,1,0,0:0:0:0:
320,192,74808,1,0,0:0:0:0:
320,192,75154,1,0,0:0:0:0:
192,192,75270,1,0,0:0:0:0:
64,192,75385,1,0,0:0:0:0:
192,192,75501,1,0,0:0:0:0:
320,192,75731,1,0,0:0:0:0:
448,192,75962,1,0,0:0:0:0:
448,192,76424,1,0,0:0:0:0:
320,192,76539,1,0,0:0:0:0:
192,192,76654,1,0,0:0:0:0:
192,192,76885,1,0,0:0:0:0:
448,192,77231,1,0,0:0:0:0:
320,192,77231,128,0,78154:0:0:0:0:
64,192,77808,1,0,0:0:0:0:
448,192,78154,1,0,0:0:0:0:
64,192,78501,1,0,0:0:0:0:
192,192,78962,1,0,0:0:0:0:
320,192,79328,1,0,0:0:0:0:
448,192,79674,1,0,0:0:0:0:
192,192,80135,1,0,0:0:0:0:
64,192,80135,1,0,0:0:0:0:
