osu file format v14

[General]
AudioFilename: IA - Nihonbashi Koukashita R Keikaku.mp3
AudioLeadIn: 0
PreviewTime: 45258
Countdown: 0
SampleSet: Soft
StackLeniency: 0.7
Mode: 3
LetterboxInBreaks: 0
SpecialStyle: 0
WidescreenStoryboard: 1

[Editor]
DistanceSpacing: 1.4
BeatDivisor: 16
GridSize: 4
TimelineZoom: 2.799999

[Metadata]
Title:Nihonbashi Koukashita R Keikaku
TitleUnicode:日本橋高架下R計画
Artist:Jin ft. IA
ArtistUnicode:じん ft. IA
Creator:Adtw_
Version:HD
Source:
Tags:Vocaloid Nihonbashi Japan Bridge Overpass Under R Plan Female
BeatmapID:674449
BeatmapSetID:300716

[Difficulty]
HPDrainRate:7
CircleSize:4
OverallDifficulty:7
ApproachRate:5
SliderMultiplier:1.4
SliderTickRate:1

[Events]
//Background and Video events
0,0,"Background.jpg",0,0
//Break Periods
//Storyboard Layer 0 (Background)
//Storyboard Layer 1 (Fail)
//Storyboard Layer 2 (Pass)
//Storyboard Layer 3 (Foreground)
//Storyboard Sound Samples

[TimingPoints]
2078,461.538461538462,4,2,1,50,1,0
45489,-100,4,2,1,50,0,1
73198,-100,4,2,1,50,0,0

[HitObjects]
192,192,2078,128,0,2539:0:0:0:0:
64,192,2539,1,0,0:0:0:0:
320,192,2539,128,0,3001:0:0:0:0:
448,192,3001,1,0,0:0:0:0:
64,192,3462,128,0,3693:0:0:0:0:
448,192,3462,128,0,3693:0:0:0:0:
320,192,3693,1,0,0:0:0:0:
192,192,3693,128,0,3953:0:0:0:0:
64,192,3953,128,0,4183:0:0:0:0:
192,192,4183,1,0,0:0:0:0:
192,192,4414,128,0,4847:0:0:0:0:
320,192,4645,1,0,0:0:0:0:
320,192,4847,128,0,5222:0:0:0:0:
448,192,5222,128,0,5799:0:0:0:0:
64,192,5222,1,0,0:0:0:0:
192,192,5222,1,0,0:0:0:0:
64,192,5568,1,0,0:0:0:0:
320,192,5683,1,0,0:0:0:0:
64,192,5799,1,0,0:0:0:0:
192,192,5799,1,0,0:0:0:0:
448,192,6260,1,0,0:0:0:0:
320,192,6376,1,0,0:0:0:0:
192,192,6491,1,0,0:0:0:0:
448,192,6491,1,0,0:0:0:0:
64,192,6606,1,0,0:0:0:0:
192,192,6722,1,0,0:0:0:0:
320,192,6837,1,0,0:0:0:0:
448,192,6953,1,0,0:0:0:0:
192,192,6953,1,0,0:0:0:0:
320,192,7068,1,0,0:0:0:0:
448,192,7183,1,0,0:0:0:0:
64,192,7183,1,0,0:0:0:0:
192,192,7385,1,0,0:0:0:0:
320,192,7385,1,0,0:0:0:0:
192,192,7587,128,0,8106:0:0:0:0:
320,192,7587,128,0,8106:0:0:0:0:
64,192,7876,1,0,0:0:0:0:
448,192,7991,1,0,0:0:0:0:
64,192,8106,1,0,0:0:0:0:
64,192,8424,1,0,0:0:0:0:
448,192,8539,1,0,0:0:0:0:
64,192,8654,1,0,0:0:0:0:
448,192,8770,1,0,0:0:0:0:
192,192,8885,1,0,0:0:0:0:
320,192,9001,1,0,0:0:0:0:
448,192,9260,128,0,9491:0:0:0:0:
320,192,9491,128,0,9953:0:0:0:0:
192,192,9491,1,0,0:0:0:0:
448,192,9953,1,0,0:0:0:0:
320,192,10385,1,0,0:0:0:0:
192,192,10385,1,0,0:0:0:0:
64,192,10703,1,0,0:0:0:0:
192,192,10760,1,0,0:0:0:0:
320,192,10818,1,0,0:0:0:0:
448,192,10876,1,0,0:0:0:0:
192,192,10876,128,0,11106:0:0:0:0:
64,192,11106,128,0,11337:0:0:0:0:
192,192,11337,128,0,11683:0:0:0:0:
320,192,11568,128,0,11683:0:0:0:0:
448,192,12029,1,0,0:0:0:0:
64,192,12145,1,0,0:0:0:0:
448,192,12260,1,0,0:0:0:0:
320,192,12260,1,0,0:0:0:0:
64,192,12376,1,0,0:0:0:0:
448,192,12491,1,0,0:0:0:0:
192,192,12606,1,0,0:0:0:0:
64,192,12606,1,0,0:0:0:0:
320,192,12953,1,0,0:0:0:0:
192,192,13183,128,0,13414:0:0:0:0:
64,192,13183,1,0,0:0:0:0:
320,192,13414,128,0,13645:0:0:0:0:
448,192,13645,128,0,13876:0:0:0:0:
192,192,13876,1,0,0:0:0:0:
448,192,14106,1,0,0:0:0:0:
192,192,14106,1,0,0:0:0:0:
320,192,14337,1,0,0:0:0:0:
64,192,14337,1,0,0:0:0:0:
192,192,14568,1,0,0:0:0:0:
64,192,14770,128,0,15693:0:0:0:0:
192,192,15231,128,0,15693:0:0:0:0:
320,192,15578,128,0,15693:0:0:0:0:
448,192,15808,1,0,0:0:0:0:
192,192,16183,1,0,0:0:0:0:
64,192,16299,1,0,0:0:0:0:
320,192,16299,1,0,0:0:0:0:
192,192,16414,128,0,16847:0:0:0:0:
320,192,16529,128,0,16847:0:0:0:0:
64,192,16847,1,0,0:0:0:0:
448,192,16847,1,0,0:0:0:0:
64,192,17308,1,0,0:0:0:0:
448,192,17308,1,0,0:0:0:0:
192,192,17424,128,0,17770:0:0:0:0:
320,192,17424,128,0,17770:0:0:0:0:
64,192,17539,1,0,0:0:0:0:
448,192,17539,1,0,0:0:0:0:
448,192,18029,1,0,0:0:0:0:
192,192,18029,128,0,18462:0:0:0:0:
64,192,18145,1,0,0:0:0:0:
320,192,18462,1,0,0:0:0:0:
64,192,18606,1,0,0:0:0:0:
192,192,18664,1,0,0:0:0:0:
320,192,18722,1,0,0:0:0:0:
448,192,18779,1,0,0:0:0:0:
64,192,18924,1,0,0:0:0:0:
320,192,18924,1,0,0:0:0:0:
192,192,19154,1,0,0:0:0:0:
320,192,19385,1,0,0:0:0:0:
448,192,19616,1,0,0:0:0:0:
64,192,19847,128,0,20154:0:0:0:0:
64,192,20337,1,0,0:0:0:0:
192,192,20337,128,0,20568:0:0:0:0:
320,192,20568,1,0,0:0:0:0:
448,192,20568,128,0,21491:0:0:0:0:
320,192,21029,1,0,0:0:0:0:
64,192,21260,1,0,0:0:0:0:
192,192,21260,1,0,0:0:0:0:
320,192,21491,1,0,0:0:0:0:
192,192,21722,1,0,0:0:0:0:
320,192,21837,1,0,0:0:0:0:
64,192,21953,1,0,0:0:0:0:
192,192,22183,1,0,0:0:0:0:
320,192,22183,1,0,0:0:0:0:
192,192,22385,128,0,22731:0:0:0:0:
64,192,22385,1,0,0:0:0:0:
320,192,22616,128,0,22731:0:0:0:0:
448,192,22731,1,0,0:0:0:0:
192,192,22991,1,0,0:0:0:0:
320,192,23106,1,0,0:0:0:0:
448,192,23222,1,0,0:0:0:0:
64,192,23337,1,0,0:0:0:0:
320,192,23337,1,0,0:0:0:0:
192,192,23453,1,0,0:0:0:0:
320,192,23568,1,0,0:0:0:0:
448,192,23683,1,0,0:0:0:0:
320,192,23799,128,0,24001:0:0:0:0:
192,192,24001,128,0,24231:0:0:0:0:
64,192,24001,1,0,0:0:0:0:
320,192,24231,1,0,0:0:0:0:
448,192,24231,1,0,0:0:0:0:
64,192,24491,1,0,0:0:0:0:
448,192,24606,1,0,0:0:0:0:
192,192,24924,1,0,0:0:0:0:
320,192,24924,1,0,0:0:0:0:
448,192,25183,1,0,0:0:0:0:
192,192,25414,1,0,0:0:0:0:
320,192,25414,128,0,25645:0:0:0:0:
448,192,25645,128,0,25876:0:0:0:0:
320,192,25876,1,0,0:0:0:0:
320,192,26106,1,0,0:0:0:0:
448,192,26222,1,0,0:0:0:0:
64,192,26337,1,0,0:0:0:0:
192,192,26453,1,0,0:0:0:0:
448,192,26568,1,0,0:0:0:0:
320,192,26683,1,0,0:0:0:0:
64,192,26799,1,0,0:0:0:0:
192,192,26914,1,0,0:0:0:0:
448,192,26914,1,0,0:0:0:0:
320,192,27029,1,0,0:0:0:0:
192,192,27203,128,0,27491:0:0:0:0:
320,192,27491,128,0,27693:0:0:0:0:
448,192,27693,128,0,27924:0:0:0:0:
192,192,27924,1,0,0:0:0:0:
320,192,27924,128,0,28183:0:0:0:0:
448,192,28183,1,0,0:0:0:0:
64,192,28645,1,0,0:0:0:0:
320,192,28645,1,0,0:0:0:0:
192,192,28760,1,0,0:0:0:0:
320,192,28876,1,0,0:0:0:0:
448,192,28991,1,0,0:0:0:0:
320,192,29106,1,0,0:0:0:0:
192,192,29222,1,0,0:0:0:0:
448,192,29337,1,0,0:0:0:0:
320,192,29453,1,0,0:0:0:0:
64,192,29568,128,0,30376:0:0:0:0:
192,192,29568,1,0,0:0:0:0:
192,192,30029,128,0,30376:0:0:0:0:
320,192,30029,1,0,0:0:0:0:
448,192,30029,1,0,0:0:0:0:
448,192,30376,128,0,30722:0:0:0:0:
320,192,30376,1,0,0:0:0:0:
64,192,30722,1,0,0:0:0:0:
192,192,30722,1,0,0:0:0:0:
448,192,31616,1,0,0:0:0:0:
192,192,31616,1,0,0:0:0:0:
320,192,31731,1,0,0:0:0:0:
192,192,31847,1,0,0:0:0:0:
64,192,31962,1,0,0:0:0:0:
320,192,31962,1,0,0:0:0:0:
192,192,32078,1,0,0:0:0:0:
320,192,32193,1,0,0:0:0:0:
192,192,32337,128,0,32568:0:0:0:0:
448,192,32337,1,0,0:0:0:0:
64,192,32568,1,0,0:0:0:0:
320,192,32568,128,0,32914:0:0:0:0:
64,192,32914,1,0,0:0:0:0:
192,192,32914,1,0,0:0:0:0:
448,192,32914,128,0,33260:0:0:0:0:
64,192,33260,1,0,0:0:0:0:
192,192,33260,1,0,0:0:0:0:
320,192,33260,1,0,0:0:0:0:
64,192,34645,1,0,0:0:0:0:
320,192,34645,1,0,0:0:0:0:
448,192,34760,1,0,0:0:0:0:
192,192,34760,1,0,0:0:0:0:
64,192,34876,128,0,35106:0:0:0:0:
192,192,35106,1,0,0:0:0:0:
320,192,35308,128,0,35654:0:0:0:0:
192,192,35308,1,0,0:0:0:0:
448,192,35654,1,0,0:0:0:0:
192,192,35654,128,0,36231:0:0:0:0:
320,192,36001,128,0,36231:0:0:0:0:
448,192,36231,1,0,0:0:0:0:
320,192,36491,1,0,0:0:0:0:
192,192,36606,1,0,0:0:0:0:
448,192,36606,1,0,0:0:0:0:
320,192,36722,1,0,0:0:0:0:
192,192,36837,1,0,0:0:0:0:
64,192,36953,1,0,0:0:0:0:
320,192,36953,1,0,0:0:0:0:
192,192,37068,1,0,0:0:0:0:
320,192,37183,1,0,0:0:0:0:
448,192,37299,1,0,0:0:0:0:
64,192,37645,1,0,0:0:0:0:
64,192,38337,1,0,0:0:0:0:
448,192,38337,1,0,0:0:0:0:
192,192,38568,1,0,0:0:0:0:
320,192,38568,1,0,0:0:0:0:
320,192,38799,128,0,39029:0:0:0:0:
192,192,38799,128,0,39029:0:0:0:0:
448,192,39029,1,0,0:0:0:0:
64,192,39029,1,0,0:0:0:0:
320,192,39260,1,0,0:0:0:0:
192,192,39376,1,0,0:0:0:0:
64,192,39491,1,0,0:0:0:0:
320,192,39491,1,0,0:0:0:0:
192,192,39722,1,0,0:0:0:0:
320,192,39837,1,0,0:0:0:0:
192,192,39953,1,0,0:0:0:0:
448,192,39953,1,0,0:0:0:0:
320,192,40183,1,0,0:0:0:0:
192,192,40299,128,0,40414:0:0:0:0:
320,192,40414,1,0,0:0:0:0:
64,192,40414,1,0,0:0:0:0:
448,192,40645,1,0,0:0:0:0:
320,192,40645,128,0,40876:0:0:0:0:
192,192,40876,1,0,0:0:0:0:
64,192,40876,1,0,0:0:0:0:
448,192,41106,1,0,0:0:0:0:
320,192,41106,1,0,0:0:0:0:
64,192,41337,1,0,0:0:0:0:
192,192,41366,1,0,0:0:0:0:
320,192,41395,1,0,0:0:0:0:
448,192,41424,1,0,0:0:0:0:
192,192,41481,1,0,0:0:0:0:
320,192,41568,1,0,0:0:0:0:
64,192,41799,1,0,0:0:0:0:
448,192,41799,1,0,0:0:0:0:
320,192,42606,1,0,0:0:0:0:
448,192,42722,1,0,0:0:0:0:
192,192,42722,1,0,0:0:0:0:
320,192,42837,1,0,0:0:0:0:
192,192,42953,1,0,0:0:0:0:
64,192,43068,1,0,0:0:0:0:
320,192,43068,1,0,0:0:0:0:
192,192,43183,1,0,0:0:0:0:
448,192,43183,1,0,0:0:0:0:
320,192,43299,1,0,0:0:0:0:
448,192,43414,1,0,0:0:0:0:
192,192,43414,1,0,0:0:0:0:
320,192,43529,1,0,0:0:0:0:
192,192,43645,1,0,0:0:0:0:
64,192,43760,1,0,0:0:0:0:
320,192,43760,1,0,0:0:0:0:
192,192,43876,1,0,0:0:0:0:
448,192,43876,1,0,0:0:0:0:
320,192,43991,1,0,0:0:0:0:
448,192,44106,1,0,0:0:0:0:
192,192,44106,1,0,0:0:0:0:
320,192,44222,1,0,0:0:0:0:
192,192,44337,1,0,0:0:0:0:
64,192,44453,1,0,0:0:0:0:
192,192,44568,1,0,0:0:0:0:
448,192,44799,1,0,0:0:0:0:
64,192,44799,1,0,0:0:0:0:
192,192,44799,128,0,45260:0:0:0:0:
320,192,44799,128,0,45260:0:0:0:0:
320,192,45491,1,0,0:0:0:0:
192,192,45491,1,0,0:0:0:0:
448,192,45491,1,0,0:0:0:0:
64,192,45491,1,0,0:0:0:0:
192,192,45722,1,0,0:0:0:0:
320,192,45837,1,0,0:0:0:0:
192,192,45953,1,0,0:0:0:0:
448,192,45953,1,0,0:0:0:0:
320,192,46183,1,0,0:0:0:0:
448,192,46299,1,0,0:0:0:0:
64,192,46299,1,0,0:0:0:0:
320,192,46414,1,0,0:0:0:0:
192,192,46529,1,0,0:0:0:0:
320,192,46645,1,0,0:0:0:0:
64,192,46760,1,0,0:0:0:0:
192,192,46876,1,0,0:0:0:0:
448,192,46876,1,0,0:0:0:0:
320,192,46991,1,0,0:0:0:0:
192,192,47106,128,0,47337:0:0:0:0:
320,192,47337,128,0,47799:0:0:0:0:
448,192,47337,1,0,0:0:0:0:
64,192,47568,1,0,0:0:0:0:
448,192,47799,1,0,0:0:0:0:
192,192,47799,1,0,0:0:0:0:
320,192,48029,1,0,0:0:0:0:
192,192,48145,1,0,0:0:0:0:
448,192,48145,1,0,0:0:0:0:
320,192,48260,1,0,0:0:0:0:
192,192,48376,1,0,0:0:0:0:
64,192,48491,1,0,0:0:0:0:
192,192,48606,1,0,0:0:0:0:
320,192,48722,1,0,0:0:0:0:
64,192,48722,1,0,0:0:0:0:
192,192,48953,1,0,0:0:0:0:
64,192,49183,1,0,0:0:0:0:
320,192,49183,1,0,0:0:0:0:
192,192,49299,1,0,0:0:0:0:
320,192,49414,1,0,0:0:0:0:
64,192,49414,1,0,0:0:0:0:
192,192,49529,1,0,0:0:0:0:
448,192,49645,1,0,0:0:0:0:
64,192,49645,1,0,0:0:0:0:
192,192,49876,1,0,0:0:0:0:
64,192,49991,1,0,0:0:0:0:
320,192,49991,1,0,0:0:0:0:
320,192,50222,1,0,0:0:0:0:
448,192,50337,1,0,0:0:0:0:
192,192,50337,1,0,0:0:0:0:
64,192,50568,1,0,0:0:0:0:
448,192,50568,1,0,0:0:0:0:
320,192,50799,1,0,0:0:0:0:
192,192,50799,1,0,0:0:0:0:
448,192,51029,1,0,0:0:0:0:
320,192,51145,1,0,0:0:0:0:
192,192,51260,1,0,0:0:0:0:
448,192,51260,1,0,0:0:0:0:
320,192,51376,1,0,0:0:0:0:
64,192,51491,1,0,0:0:0:0:
448,192,51491,1,0,0:0:0:0:
320,192,51722,1,0,0:0:0:0:
448,192,51837,1,0,0:0:0:0:
192,192,51837,1,0,0:0:0:0:
320,192,51953,1,0,0:0:0:0:
192,192,52068,1,0,0:0:0:0:
448,192,52183,1,0,0:0:0:0:
64,192,52183,1,0,0:0:0:0:
320,192,52299,1,0,0:0:0:0:
448,192,52414,1,0,0:0:0:0:
192,192,52414,1,0,0:0:0:0:
320,192,52529,1,0,0:0:0:0:
192,192,52645,1,0,0:0:0:0:
320,192,52760,1,0,0:0:0:0:
64,192,52760,1,0,0:0:0:0:
192,192,52876,1,0,0:0:0:0:
448,192,52876,1,0,0:0:0:0:
192,192,53106,1,0,0:0:0:0:
448,192,53106,1,0,0:0:0:0:
320,192,53222,1,0,0:0:0:0:
448,192,53337,1,0,0:0:0:0:
64,192,53337,1,0,0:0:0:0:
192,192,53568,1,0,0:0:0:0:
320,192,53568,128,0,53683:0:0:0:0:
448,192,53683,128,0,54260:0:0:0:0:
192,192,54029,1,0,0:0:0:0:
320,192,54029,1,0,0:0:0:0:
192,192,54260,1,0,0:0:0:0:
320,192,54260,1,0,0:0:0:0:
64,192,54260,1,0,0:0:0:0:
320,192,54491,1,0,0:0:0:0:
448,192,54491,1,0,0:0:0:0:
192,192,54722,1,0,0:0:0:0:
320,192,54953,1,0,0:0:0:0:
64,192,54953,1,0,0:0:0:0:
448,192,55183,1,0,0:0:0:0:
192,192,55183,1,0,0:0:0:0:
192,192,55414,1,0,0:0:0:0:
64,192,55529,1,0,0:0:0:0:
320,192,55529,1,0,0:0:0:0:
192,192,55645,1,0,0:0:0:0:
320,192,55760,1,0,0:0:0:0:
448,192,55876,1,0,0:0:0:0:
192,192,55876,1,0,0:0:0:0:
320,192,55991,1,0,0:0:0:0:
192,192,56106,1,0,0:0:0:0:
320,192,56222,1,0,0:0:0:0:
192,192,56337,1,0,0:0:0:0:
448,192,56337,1,0,0:0:0:0:
320,192,56453,1,0,0:0:0:0:
192,192,56568,1,0,0:0:0:0:
448,192,56568,1,0,0:0:0:0:
64,192,56683,1,0,0:0:0:0:
320,192,56799,1,0,0:0:0:0:
448,192,56799,1,0,0:0:0:0:
192,192,56914,1,0,0:0:0:0:
64,192,57029,1,0,0:0:0:0:
448,192,57029,1,0,0:0:0:0:
320,192,57260,1,0,0:0:0:0:
192,192,57376,1,0,0:0:0:0:
448,192,57376,1,0,0:0:0:0:
320,192,57491,1,0,0:0:0:0:
192,192,57606,1,0,0:0:0:0:
64,192,57722,1,0,0:0:0:0:
320,192,57722,1,0,0:0:0:0:
192,192,57837,1,0,0:0:0:0:
448,192,57953,1,0,0:0:0:0:
64,192,57953,1,0,0:0:0:0:
320,192,58068,1,0,0:0:0:0:
448,192,58183,1,0,0:0:0:0:
192,192,58183,1,0,0:0:0:0:
64,192,58299,128,0,58876:0:0:0:0:
192,192,58414,1,0,0:0:0:0:
320,192,58529,1,0,0:0:0:0:
448,192,58645,1,0,0:0:0:0:
320,192,58760,1,0,0:0:0:0:
192,192,58876,1,0,0:0:0:0:
448,192,58876,1,0,0:0:0:0:
320,192,59106,1,0,0:0:0:0:
192,192,59222,1,0,0:0:0:0:
320,192,59337,1,0,0:0:0:0:
64,192,59337,1,0,0:0:0:0:
192,192,59453,1,0,0:0:0:0:
320,192,59568,1,0,0:0:0:0:
448,192,59683,1,0,0:0:0:0:
320,192,59799,1,0,0:0:0:0:
64,192,59799,1,0,0:0:0:0:
320,192,60029,1,0,0:0:0:0:
192,192,60145,1,0,0:0:0:0:
64,192,60260,1,0,0:0:0:0:
320,192,60260,1,0,0:0:0:0:
192,192,60376,1,0,0:0:0:0:
320,192,60491,1,0,0:0:0:0:
192,192,60606,1,0,0:0:0:0:
448,192,60722,1,0,0:0:0:0:
64,192,60722,1,0,0:0:0:0:
320,192,60837,1,0,0:0:0:0:
192,192,60953,1,0,0:0:0:0:
64,192,61068,1,0,0:0:0:0:
320,192,61068,1,0,0:0:0:0:
448,192,61183,1,0,0:0:0:0:
448,192,61414,1,0,0:0:0:0:
192,192,61414,1,0,0:0:0:0:
320,192,61645,1,0,0:0:0:0:
64,192,61645,1,0,0:0:0:0:
192,192,61876,1,0,0:0:0:0:
320,192,61876,1,0,0:0:0:0:
448,192,62106,1,0,0:0:0:0:
192,192,62337,1,0,0:0:0:0:
320,192,62337,1,0,0:0:0:0:
448,192,62568,1,0,0:0:0:0:
64,192,62568,1,0,0:0:0:0:
320,192,62799,1,0,0:0:0:0:
448,192,62914,1,0,0:0:0:0:
192,192,62914,1,0,0:0:0:0:
320,192,63029,1,0,0:0:0:0:
192,192,63145,1,0,0:0:0:0:
448,192,63260,1,0,0:0:0:0:
320,192,63260,1,0,0:0:0:0:
448,192,63491,1,0,0:0:0:0:
64,192,63491,1,0,0:0:0:0:
192,192,63722,1,0,0:0:0:0:
64,192,63722,1,0,0:0:0:0:
192,192,63953,1,0,0:0:0:0:
448,192,63953,1,0,0:0:0:0:
320,192,64068,1,0,0:0:0:0:
448,192,64183,1,0,0:0:0:0:
192,192,64183,1,0,0:0:0:0:
320,192,64299,1,0,0:0:0:0:
64,192,64414,1,0,0:0:0:0:
448,192,64414,1,0,0:0:0:0:
192,192,64645,1,0,0:0:0:0:
448,192,64760,1,0,0:0:0:0:
64,192,64760,1,0,0:0:0:0:
192,192,64876,1,0,0:0:0:0:
320,192,64991,1,0,0:0:0:0:
64,192,65106,1,0,0:0:0:0:
192,192,65106,1,0,0:0:0:0:
320,192,65222,1,0,0:0:0:0:
448,192,65337,1,0,0:0:0:0:
320,192,65453,1,0,0:0:0:0:
64,192,65568,1,0,0:0:0:0:
192,192,65568,1,0,0:0:0:0:
320,192,65683,1,0,0:0:0:0:
448,192,65799,1,0,0:0:0:0:
192,192,65914,1,0,0:0:0:0:
448,192,66029,1,0,0:0:0:0:
320,192,66029,1,0,0:0:0:0:
192,192,66145,1,0,0:0:0:0:
64,192,66260,1,0,0:0:0:0:
320,192,66260,1,0,0:0:0:0:
192,192,66491,1,0,0:0:0:0:
448,192,66491,1,0,0:0:0:0:
192,192,66722,1,0,0:0:0:0:
64,192,66953,1,0,0:0:0:0:
320,192,66953,1,0,0:0:0:0:
192,192,67068,1,0,0:0:0:0:
320,192,67183,1,0,0:0:0:0:
448,192,67299,1,0,0:0:0:0:
320,192,67414,1,0,0:0:0:0:
192,192,67529,1,0,0:0:0:0:
320,192,67645,1,0,0:0:0:0:
64,192,67645,1,0,0:0:0:0:
448,192,67760,1,0,0:0:0:0:
320,192,67876,1,0,0:0:0:0:
192,192,67991,1,0,0:0:0:0:
320,192,68106,1,0,0:0:0:0:
64,192,68106,1,0,0:0:0:0:
192,192,68222,1,0,0:0:0:0:
64,192,68337,1,0,0:0:0:0:
320,192,68337,1,0,0:0:0:0:
192,192,68453,1,0,0:0:0:0:
320,192,68568,1,0,0:0:0:0:
448,192,68799,1,0,0:0:0:0:
320,192,68914,1,0,0:0:0:0:
192,192,69029,1,0,0:0:0:0:
448,192,69029,1,0,0:0:0:0:
64,192,69145,1,0,0:0:0:0:
64,192,69376,1,0,0:0:0:0:
320,192,69376,1,0,0:0:0:0:
192,192,69491,1,0,0:0:0:0:
320,192,69606,1,0,0:0:0:0:
448,192,69722,1,0,0:0:0:0:
192,192,69722,1,0,0:0:0:0:
320,192,69837,1,0,0:0:0:0:
448,192,69953,1,0,0:0:0:0:
64,192,69953,1,0,0:0:0:0:
320,192,70068,1,0,0:0:0:0:
192,192,70183,1,0,0:0:0:0:
448,192,70183,1,0,0:0:0:0:
64,192,70299,1,0,0:0:0:0:
448,192,70414,1,0,0:0:0:0:
320,192,70529,1,0,0:0:0:0:
192,192,70645,1,0,0:0:0:0:
448,192,70645,1,0,0:0:0:0:
320,192,70760,1,0,0:0:0:0:
448,192,70876,1,0,0:0:0:0:
64,192,70876,1,0,0:0:0:0:
320,192,71106,1,0,0:0:0:0:
448,192,71222,1,0,0:0:0:0:
320,192,71337,1,0,0:0:0:0:
192,192,71453,1,0,0:0:0:0:
64,192,71568,1,0,0:0:0:0:
320,192,71568,1,0,0:0:0:0:
192,192,71683,1,0,0:0:0:0:
320,192,71799,1,0,0:0:0:0:
448,192,71914,1,0,0:0:0:0:
320,192,72029,1,0,0:0:0:0:
64,192,72029,1,0,0:0:0:0:
192,192,72145,1,0,0:0:0:0:
64,192,72260,1,0,0:0:0:0:
192,192,72376,1,0,0:0:0:0:
320,192,72491,1,0,0:0:0:0:
64,192,72491,1,0,0:0:0:0:
448,192,72606,1,0,0:0:0:0:
64,192,72722,1,0,0:0:0:0:
320,192,72722,1,0,0:0:0:0:
192,192,72837,1,0,0:0:0:0:
448,192,73183,1,0,0:0:0:0:
320,192,73183,128,0,73414:0:0:0:0:
64,192,73414,1,0,0:0:0:0:
192,192,73414,1,0,0:0:0:0:
448,192,73876,128,0,74453:0:0:0:0:
64,192,73876,1,0,0:0:0:0:
192,192,73991,1,0,0:0:0:0:
320,192,74106,1,0,0:0:0:0:
192,192,74453,1,0,0:0:0:0:
320,192,74453,1,0,0:0:0:0:
448,192,74799,1,0,0:0:0:0:
64,192,74799,1,0,0:0:0:0:
192,192,74799,128,0,75029:0:0:0:0:
320,192,74799,128,0,75029:0:0:0:0:
448,192,75145,1,0,0:0:0:0:
320,192,75260,1,0,0:0:0:0:
192,192,75376,1,0,0:0:0:0:
64,192,75491,1,0,0:0:0:0:
192,192,75722,1,0,0:0:0:0:
448,192,75953,1,0,0:0:0:0:
320,192,75953,1,0,0:0:0:0:
448,192,76414,1,0,0:0:0:0:
192,192,76414,1,0,0:0:0:0:
320,192,76529,1,0,0:0:0:0:
192,192,76645,1,0,0:0:0:0:
192,192,76876,1,0,0:0:0:0:
320,192,76876,1,0,0:0:0:0:
192,192,77106,1,0,0:0:0:0:
448,192,77222,1,0,0:0:0:0:
320,192,77222,128,0,78145:0:0:0:0:
192,192,77539,1,0,0:0:0:0:
64,192,77799,1,0,0:0:0:0:
192,192,77799,1,0,0:0:0:0:
192,192,78145,1,0,0:0:0:0:
448,192,78145,1,0,0:0:0:0:
64,192,78491,128,0,78953:0:0:0:0:
192,192,78953,1,0,0:0:0:0:
448,192,79299,1,0,0:0:0:0:
320,192,79414,1,0,0:0:0:0:
64,192,79529,1,0,0:0:0:0:
448,192,79674,1,0,0:0:0:0:
192,192,79674,1,0,0:0:0:0:
192,192,80106,1,0,0:0:0:0:
320,192,80106,1,0,0:0:0:0:
