osu file format v14

[General]
AudioFilename: IA - Nihonbashi Koukashita R Keikaku.mp3
AudioLeadIn: 0
PreviewTime: 45258
Countdown: 0
SampleSet: Soft
StackLeniency: 0.7
Mode: 3
LetterboxInBreaks: 0
SpecialStyle: 0
WidescreenStoryboard: 1

[Editor]
DistanceSpacing: 1.4
BeatDivisor: 16
GridSize: 4
TimelineZoom: 3.099999

[Metadata]
Title:Nihonbashi Koukashita R Keikaku
TitleUnicode:日本橋高架下R計画
Artist:Jin ft. IA
ArtistUnicode:じん ft. IA
Creator:Adtw_
Version:EZ
Source:
Tags:Vocaloid Nihonbashi Japan Bridge Overpass Under R Plan Female
BeatmapID:674448
BeatmapSetID:300716

[Difficulty]
HPDrainRate:7
CircleSize:4
OverallDifficulty:7
ApproachRate:5
SliderMultiplier:1.4
SliderTickRate:1

[Events]
//Background and Video events
0,0,"Background.jpg",0,0
Video,100,"IA - Nihonbashi Koukashita R Keikaku.avi"
//Break Periods
//Storyboard Layer 0 (Background)
//Storyboard Layer 1 (Fail)
//Storyboard Layer 2 (Pass)
//Storyboard Layer 3 (Foreground)
//Storyboard Sound Samples

[TimingPoints]
2078,461.538461538462,4,2,1,100,1,0
45489,-100,4,2,1,0,0,1
73198,-100,4,2,1,0,0,0

[HitObjects]
64,192,2078,5,0,0:0:0:0:
192,192,2078,1,0,0:0:0:0:
448,192,2539,1,0,0:0:0:0:
320,192,3001,1,0,0:0:0:0:
64,192,3462,1,0,0:0:0:0:
192,192,3693,1,0,0:0:0:0:
320,192,3924,1,0,0:0:0:0:
192,192,4154,1,0,0:0:0:0:
64,192,4154,1,0,0:0:0:0:
448,192,4385,1,0,0:0:0:0:
320,192,4616,1,0,0:0:0:0:
192,192,4847,1,0,0:0:0:0:
320,192,5078,1,0,0:0:0:0:
64,192,5770,1,0,0:0:0:0:
192,192,5770,1,0,0:0:0:0:
192,192,6231,1,0,0:0:0:0:
64,192,6462,1,0,0:0:0:0:
192,192,6693,1,0,0:0:0:0:
320,192,6924,1,0,0:0:0:0:
448,192,7154,1,0,0:0:0:0:
320,192,7385,1,0,0:0:0:0:
192,192,7616,128,0,8193:0:0:0:0:
320,192,8539,128,0,8885:0:0:0:0:
448,192,8539,1,0,0:0:0:0:
192,192,8885,1,0,0:0:0:0:
192,192,9231,1,0,0:0:0:0:
448,192,9462,1,0,0:0:0:0:
448,192,9924,1,0,0:0:0:0:
192,192,9924,1,0,0:0:0:0:
320,192,10385,1,0,0:0:0:0:
192,192,10616,1,0,0:0:0:0:
320,192,10847,1,0,0:0:0:0:
192,192,11078,1,0,0:0:0:0:
64,192,11308,1,0,0:0:0:0:
448,192,11308,1,0,0:0:0:0:
192,192,11539,1,0,0:0:0:0:
320,192,11539,1,0,0:0:0:0:
64,192,12231,1,0,0:0:0:0:
192,192,12231,1,0,0:0:0:0:
448,192,12578,1,0,0:0:0:0:
192,192,12924,1,0,0:0:0:0:
448,192,13154,128,0,13616:0:0:0:0:
320,192,13154,1,0,0:0:0:0:
64,192,13616,1,0,0:0:0:0:
192,192,13847,1,0,0:0:0:0:
448,192,14078,1,0,0:0:0:0:
320,192,14308,1,0,0:0:0:0:
192,192,14539,1,0,0:0:0:0:
64,192,14770,128,0,15404:0:0:0:0:
192,192,15231,128,0,15404:0:0:0:0:
448,192,15578,1,0,0:0:0:0:
320,192,15808,1,0,0:0:0:0:
192,192,16385,128,0,16501:0:0:0:0:
64,192,16847,1,0,0:0:0:0:
320,192,16847,1,0,0:0:0:0:
320,192,17308,1,0,0:0:0:0:
448,192,17510,1,0,0:0:0:0:
64,192,17510,1,0,0:0:0:0:
192,192,17770,1,0,0:0:0:0:
320,192,18001,128,0,18462:0:0:0:0:
192,192,18462,1,0,0:0:0:0:
64,192,18693,1,0,0:0:0:0:
192,192,18924,1,0,0:0:0:0:
320,192,18924,1,0,0:0:0:0:
448,192,19154,1,0,0:0:0:0:
192,192,19385,1,0,0:0:0:0:
320,192,19616,1,0,0:0:0:0:
448,192,19847,128,0,20154:0:0:0:0:
192,192,20308,128,0,20539:0:0:0:0:
64,192,20539,1,0,0:0:0:0:
320,192,20539,1,0,0:0:0:0:
448,192,21001,1,0,0:0:0:0:
64,192,21231,1,0,0:0:0:0:
192,192,21231,1,0,0:0:0:0:
448,192,21462,1,0,0:0:0:0:
192,192,21693,128,0,22154:0:0:0:0:
64,192,21924,1,0,0:0:0:0:
320,192,22154,1,0,0:0:0:0:
448,192,22385,1,0,0:0:0:0:
320,192,22616,128,0,22885:0:0:0:0:
192,192,23078,128,0,23308:0:0:0:0:
64,192,23308,1,0,0:0:0:0:
320,192,23539,1,0,0:0:0:0:
64,192,23770,1,0,0:0:0:0:
192,192,24001,1,0,0:0:0:0:
320,192,24231,1,0,0:0:0:0:
448,192,24231,1,0,0:0:0:0:
192,192,24462,1,0,0:0:0:0:
320,192,24693,1,0,0:0:0:0:
448,192,24924,1,0,0:0:0:0:
192,192,24924,1,0,0:0:0:0:
320,192,25183,1,0,0:0:0:0:
192,192,25414,128,0,25876:0:0:0:0:
64,192,25645,1,0,0:0:0:0:
320,192,25876,1,0,0:0:0:0:
448,192,26106,1,0,0:0:0:0:
320,192,26337,1,0,0:0:0:0:
192,192,26568,1,0,0:0:0:0:
448,192,26799,1,0,0:0:0:0:
320,192,27029,128,0,27722:0:0:0:0:
64,192,27376,128,0,27722:0:0:0:0:
192,192,27722,1,0,0:0:0:0:
320,192,27953,1,0,0:0:0:0:
448,192,27953,1,0,0:0:0:0:
192,192,28183,1,0,0:0:0:0:
64,192,28645,1,0,0:0:0:0:
320,192,28645,1,0,0:0:0:0:
192,192,28876,1,0,0:0:0:0:
64,192,29106,128,0,29337:0:0:0:0:
192,192,29337,128,0,29568:0:0:0:0:
320,192,29568,128,0,30029:0:0:0:0:
448,192,29568,1,0,0:0:0:0:
192,192,30029,1,0,0:0:0:0:
320,192,30376,128,0,30606:0:0:0:0:
64,192,30722,1,0,0:0:0:0:
448,192,30722,1,0,0:0:0:0:
448,192,31645,1,0,0:0:0:0:
64,192,31991,1,0,0:0:0:0:
320,192,31991,1,0,0:0:0:0:
320,192,32337,1,0,0:0:0:0:
448,192,32568,1,0,0:0:0:0:
192,192,32568,1,0,0:0:0:0:
320,192,32914,1,0,0:0:0:0:
64,192,32914,1,0,0:0:0:0:
192,192,33260,1,0,0:0:0:0:
320,192,33260,1,0,0:0:0:0:
320,192,34645,1,0,0:0:0:0:
192,192,34760,1,0,0:0:0:0:
64,192,34876,128,0,35337:0:0:0:0:
192,192,35337,128,0,35683:0:0:0:0:
448,192,35337,1,0,0:0:0:0:
320,192,35683,128,0,36260:0:0:0:0:
192,192,36260,1,0,0:0:0:0:
320,192,36606,1,0,0:0:0:0:
192,192,36606,1,0,0:0:0:0:
320,192,36953,128,0,37183:0:0:0:0:
448,192,36953,1,0,0:0:0:0:
192,192,37183,128,0,37645:0:0:0:0:
64,192,37645,1,0,0:0:0:0:
320,192,38337,1,0,0:0:0:0:
192,192,38568,1,0,0:0:0:0:
448,192,38568,1,0,0:0:0:0:
64,192,38799,1,0,0:0:0:0:
192,192,39029,1,0,0:0:0:0:
320,192,39029,1,0,0:0:0:0:
448,192,39260,1,0,0:0:0:0:
320,192,39491,1,0,0:0:0:0:
192,192,39722,1,0,0:0:0:0:
64,192,39953,1,0,0:0:0:0:
320,192,40183,1,0,0:0:0:0:
448,192,40414,1,0,0:0:0:0:
192,192,40645,1,0,0:0:0:0:
64,192,40876,1,0,0:0:0:0:
448,192,41106,1,0,0:0:0:0:
192,192,41106,1,0,0:0:0:0:
320,192,41337,1,0,0:0:0:0:
64,192,41568,1,0,0:0:0:0:
192,192,41799,1,0,0:0:0:0:
320,192,42260,1,0,0:0:0:0:
192,192,42722,128,0,44799:0:0:0:0:
64,192,42722,1,0,0:0:0:0:
320,192,43414,1,0,0:0:0:0:
64,192,44106,1,0,0:0:0:0:
320,192,44799,1,0,0:0:0:0:
448,192,45260,1,0,0:0:0:0:
192,192,45491,1,0,0:0:0:0:
320,192,45491,1,0,0:0:0:0:
64,192,45953,1,0,0:0:0:0:
320,192,45953,1,0,0:0:0:0:
192,192,46299,1,0,0:0:0:0:
448,192,46299,1,0,0:0:0:0:
320,192,46645,1,0,0:0:0:0:
192,192,46876,1,0,0:0:0:0:
448,192,46876,1,0,0:0:0:0:
320,192,47106,1,0,0:0:0:0:
192,192,47568,1,0,0:0:0:0:
64,192,47799,1,0,0:0:0:0:
320,192,47799,1,0,0:0:0:0:
192,192,48145,1,0,0:0:0:0:
448,192,48145,1,0,0:0:0:0:
320,192,48491,1,0,0:0:0:0:
192,192,48722,1,0,0:0:0:0:
448,192,48722,1,0,0:0:0:0:
320,192,48953,1,0,0:0:0:0:
192,192,49183,1,0,0:0:0:0:
320,192,49414,1,0,0:0:0:0:
448,192,49645,1,0,0:0:0:0:
192,192,49645,1,0,0:0:0:0:
64,192,49991,1,0,0:0:0:0:
320,192,49991,1,0,0:0:0:0:
192,192,50337,1,0,0:0:0:0:
320,192,50568,1,0,0:0:0:0:
64,192,50568,1,0,0:0:0:0:
192,192,50799,1,0,0:0:0:0:
64,192,51260,1,0,0:0:0:0:
448,192,51491,128,0,52183:0:0:0:0:
192,192,51491,1,0,0:0:0:0:
320,192,51837,1,0,0:0:0:0:
192,192,52183,1,0,0:0:0:0:
320,192,52414,1,0,0:0:0:0:
64,192,52414,1,0,0:0:0:0:
192,192,52645,1,0,0:0:0:0:
320,192,52876,1,0,0:0:0:0:
192,192,53106,1,0,0:0:0:0:
64,192,53337,1,0,0:0:0:0:
320,192,53337,1,0,0:0:0:0:
192,192,53568,1,0,0:0:0:0:
320,192,54029,1,0,0:0:0:0:
192,192,54260,1,0,0:0:0:0:
448,192,54260,1,0,0:0:0:0:
320,192,54491,1,0,0:0:0:0:
192,192,54953,1,0,0:0:0:0:
320,192,55183,1,0,0:0:0:0:
64,192,55183,1,0,0:0:0:0:
192,192,55529,1,0,0:0:0:0:
448,192,55529,1,0,0:0:0:0:
320,192,55876,1,0,0:0:0:0:
448,192,56106,1,0,0:0:0:0:
192,192,56106,1,0,0:0:0:0:
64,192,56337,128,0,56568:0:0:0:0:
192,192,56568,1,0,0:0:0:0:
448,192,56808,128,0,57039:0:0:0:0:
320,192,57039,1,0,0:0:0:0:
320,192,57385,1,0,0:0:0:0:
64,192,57385,1,0,0:0:0:0:
192,192,57731,1,0,0:0:0:0:
64,192,57962,1,0,0:0:0:0:
320,192,57962,1,0,0:0:0:0:
192,192,58193,1,0,0:0:0:0:
320,192,58654,1,0,0:0:0:0:
192,192,58885,1,0,0:0:0:0:
448,192,58885,1,0,0:0:0:0:
192,192,59231,128,0,60039:0:0:0:0:
64,192,59231,1,0,0:0:0:0:
320,192,59231,1,0,0:0:0:0:
320,192,60039,1,0,0:0:0:0:
448,192,60270,1,0,0:0:0:0:
192,192,60501,1,0,0:0:0:0:
64,192,60731,1,0,0:0:0:0:
320,192,60731,1,0,0:0:0:0:
192,192,61078,1,0,0:0:0:0:
448,192,61078,1,0,0:0:0:0:
320,192,61424,1,0,0:0:0:0:
192,192,61654,1,0,0:0:0:0:
448,192,61654,1,0,0:0:0:0:
320,192,61885,1,0,0:0:0:0:
192,192,62347,1,0,0:0:0:0:
320,192,62578,1,0,0:0:0:0:
64,192,62578,1,0,0:0:0:0:
192,192,62924,1,0,0:0:0:0:
448,192,62924,1,0,0:0:0:0:
320,192,63270,1,0,0:0:0:0:
192,192,63501,1,0,0:0:0:0:
448,192,63501,1,0,0:0:0:0:
320,192,63731,1,0,0:0:0:0:
64,192,63962,1,0,0:0:0:0:
192,192,64193,1,0,0:0:0:0:
64,192,64424,1,0,0:0:0:0:
320,192,64424,1,0,0:0:0:0:
192,192,64770,1,0,0:0:0:0:
448,192,64770,1,0,0:0:0:0:
320,192,65116,1,0,0:0:0:0:
192,192,65347,1,0,0:0:0:0:
448,192,65347,1,0,0:0:0:0:
320,192,65578,1,0,0:0:0:0:
192,192,66039,1,0,0:0:0:0:
64,192,66270,1,0,0:0:0:0:
320,192,66270,1,0,0:0:0:0:
192,192,66616,1,0,0:0:0:0:
448,192,66616,1,0,0:0:0:0:
320,192,66962,1,0,0:0:0:0:
192,192,67193,1,0,0:0:0:0:
448,192,67193,1,0,0:0:0:0:
320,192,67424,1,0,0:0:0:0:
192,192,67654,1,0,0:0:0:0:
64,192,68116,1,0,0:0:0:0:
320,192,68116,1,0,0:0:0:0:
192,192,68347,1,0,0:0:0:0:
320,192,68808,1,0,0:0:0:0:
192,192,69039,1,0,0:0:0:0:
448,192,69039,1,0,0:0:0:0:
448,192,69385,1,0,0:0:0:0:
192,192,69501,1,0,0:0:0:0:
320,192,69731,1,0,0:0:0:0:
448,192,69962,1,0,0:0:0:0:
192,192,69962,1,0,0:0:0:0:
320,192,70193,128,0,70654:0:0:0:0:
192,192,70654,1,0,0:0:0:0:
64,192,70885,1,0,0:0:0:0:
320,192,70885,1,0,0:0:0:0:
192,192,71116,128,0,71347:0:0:0:0:
320,192,71347,128,0,72039:0:0:0:0:
192,192,72039,1,0,0:0:0:0:
448,192,72501,1,0,0:0:0:0:
192,192,72501,1,0,0:0:0:0:
448,192,73193,1,0,0:0:0:0:
320,192,73424,1,0,0:0:0:0:
192,192,73770,128,0,74116:0:0:0:0:
64,192,74116,1,0,0:0:0:0:
192,192,74462,1,0,0:0:0:0:
448,192,74808,1,0,0:0:0:0:
320,192,75270,1,0,0:0:0:0:
192,192,75501,1,0,0:0:0:0:
320,192,75731,1,0,0:0:0:0:
192,192,75962,128,0,76078:0:0:0:0:
448,192,76424,1,0,0:0:0:0:
320,192,76654,1,0,0:0:0:0:
192,192,76885,1,0,0:0:0:0:
448,192,76885,1,0,0:0:0:0:
320,192,77231,1,0,0:0:0:0:
192,192,77539,1,0,0:0:0:0:
64,192,77808,1,0,0:0:0:0:
320,192,77808,1,0,0:0:0:0:
448,192,78154,1,0,0:0:0:0:
320,192,78501,128,0,78962:0:0:0:0:
192,192,78962,1,0,0:0:0:0:
448,192,79328,1,0,0:0:0:0:
320,192,79674,1,0,0:0:0:0:
192,192,80135,1,0,0:0:0:0:
64,192,80135,1,0,0:0:0:0:
