osu file format v13

[General]
AudioFilename: daze 2.mp3
AudioLeadIn: 1500
PreviewTime: 54755
Countdown: 0
SampleSet: Normal
StackLeniency: 0.7
Mode: 0
LetterboxInBreaks: 0
WidescreenStoryboard: 1

[Editor]
DistanceSpacing: 1
BeatDivisor: 4
GridSize: 4
TimelineZoom: 1.3

[Metadata]
Title:daze (short ver.)
TitleUnicode:daze (short ver.)
Artist:Jin feat. MARiA from GARNiDELiA
ArtistUnicode:じん ft. メイリア from GARNiDELiA
Creator:luxoDeh
Version:Insane
Source:Mekakucity Actors
Tags:メカクシティアクターズ Shidu Jin 自然の敵P Shizen no Teki-P Kagerou Project opening TV size madabau Betsuto Yuutosan CLSW
BeatmapID:403006
BeatmapSetID:165391

[Difficulty]
HPDrainRate:7
CircleSize:4
OverallDifficulty:7
ApproachRate:9
SliderMultiplier:1.6
SliderTickRate:1

[Events]
//Background and Video events
Video,-800,"PV_2.avi"
0,0,"bg_1024.jpg",0,0
//Break Periods
//Storyboard Layer 0 (Background)
//Storyboard Layer 1 (Fail)
//Storyboard Layer 2 (Pass)
//Storyboard Layer 3 (Foreground)
//Storyboard Sound Samples
//Background Colour Transformations
3,100,163,162,255

[TimingPoints]
740,303.030303030303,4,2,1,70,1,0
1497,-100,4,1,1,70,0,0
14830,-100,4,3,1,70,0,0
15209,-100,4,1,1,70,0,0
15512,-100,4,2,1,70,0,0
15588,-133.333333333333,4,1,1,70,0,0
16194,-100,4,1,1,70,0,0
16800,-100,4,2,1,70,0,0
53997,-100,4,3,1,70,0,0
54300,-100,4,2,1,70,0,0
54527,-100,4,1,1,70,0,0
54982,-100,4,2,1,70,0,0
55285,-100,4,1,1,70,0,1
81042,-133.333333333333,4,1,1,70,0,1
81648,-100,4,1,1,70,0,1
81800,-100,4,1,1,70,0,0
87860,-133.333333333333,4,1,1,70,0,0
88466,-100,4,2,1,30,0,0

[Colours]
Combo1 : 0,128,255
Combo2 : 255,0,0
Combo3 : 255,128,0
Combo4 : 255,255,0

[HitObjects]
256,320,740,5,2,0:0:0:0:
256,192,1043,1,2,0:0:0:0:
256,64,1346,1,2,0:0:0:0:
308,124,1497,2,0,P|336:80|328:32,1,80,0|8,0:0|0:0,0:0:0:0:
256,192,1800,6,0,P|304:204|396:144,1,160,4|0,0:0|0:0,0:0:0:0:
436,80,2255,1,8,0:0:0:0:
472,260,2406,1,0,0:0:0:0:
394,150,2558,1,0,0:0:0:0:
412,320,2709,1,0,0:0:0:0:
376,336,2785,1,0,0:0:0:0:
336,336,2861,1,8,0:0:0:0:
296,320,2937,1,0,0:0:0:0:
272,288,3012,6,0,P|244:240|124:260,1,160,4|0,0:0|0:0,0:0:0:0:
192,304,3467,1,8,0:0:0:0:
200,120,3618,1,0,0:0:0:0:
147,236,3770,1,0,0:0:0:0:
272,84,3921,1,0,0:0:0:0:
244,52,3997,1,0,0:0:0:0:
208,40,4073,1,8,0:0:0:0:
168,48,4149,1,0,0:0:0:0:
136,72,4224,6,0,B|108:112|128:156|128:156|88:144|48:168,1,160,4|0,0:0|0:0,0:0:0:0:
0,216,4679,1,8,0:0:0:0:
108,320,4830,1,0,0:0:0:0:
248,216,4982,1,0,0:0:0:0:
360,320,5133,1,0,0:0:0:0:
400,312,5209,1,0,0:0:0:0:
432,288,5285,1,8,0:0:0:0:
452,252,5361,1,0,0:0:0:0:
456,212,5437,6,0,P|448:160|372:116,1,120,4|0,0:0|0:0,0:0:0:0:
356,120,5740,1,0,0:0:0:0:
316,128,5815,1,0,0:0:0:0:
276,124,5891,1,8,0:0:0:0:
240,104,5967,1,0,0:0:0:0:
220,68,6043,1,0,0:0:0:0:
132,156,6194,2,0,B|120:184|120:184|88:196|88:196|80:220,1,80
200,332,6497,1,8,0:0:0:0:
132,156,6649,6,0,P|136:200|256:232,1,160,4|0,0:0|0:0,0:0:0:0:
212,168,7103,1,8,0:0:0:0:
84,84,7255,1,0,0:0:0:0:
292,152,7406,2,0,P|268:104|216:92,1,80
8,96,7709,2,0,P|32:144|84:156,1,80,8|0,0:0|0:0,0:0:0:0:
176,28,8012,5,0,0:0:0:0:
336,56,8164,1,0,0:0:0:0:
212,168,8315,1,8,0:0:0:0:
380,308,8467,2,0,P|360:256|432:176,1,160
440,256,8921,1,8,0:0:0:0:
288,316,9073,6,0,B|248:324|248:324|212:348|172:324|172:324|120:320,1,160,4|0,0:0|0:0,0:0:0:0:
56,312,9527,1,8,0:0:0:0:
56,312,9679,1,0,0:0:0:0:
104,248,9830,2,0,P|60:232|16:244,1,80
164,188,10133,2,0,P|208:204|252:192,1,80,8|0,0:0|0:0,0:0:0:0:
212,124,10436,5,0,0:0:0:0:
104,32,10588,1,0,0:0:0:0:
88,172,10740,1,8,0:0:0:0:
264,284,10891,2,0,P|272:228|372:180,1,160
396,180,11270,1,0,0:0:0:0:
436,168,11346,1,8,0:0:0:0:
464,140,11421,1,0,0:0:0:0:
476,100,11497,1,4,0:0:0:0:
256,32,11800,5,0,0:0:0:0:
256,32,11952,2,0,P|244:80|208:104,1,80,8|0,0:0|0:0,0:0:0:0:
72,160,12255,2,0,P|84:112|120:88,1,80
152,160,12558,1,8,0:0:0:0:
152,160,12709,1,0,0:0:0:0:
132,304,12861,6,0,P|108:344|64:356,2,80,0|0|8,0:0|0:0|0:0,0:0:0:0:
184,244,13315,2,0,P|236:212|324:248,1,160
372,308,13770,1,8,0:0:0:0:
396,156,13921,6,0,P|404:216|516:240,1,160,4|0,0:0|0:0,0:0:0:0:
476,172,14376,2,0,L|488:84,1,80,8|0,0:0|0:0,0:0:0:0:
492,52,14603,1,0,0:0:0:0:
496,12,14679,1,0,0:0:0:0:
392,24,14830,1,8,0:0:0:0:
256,104,14982,2,0,L|334:91,1,80,8|0,0:0|0:0,0:0:0:0:
256,188,15285,6,0,L|136:208,1,120
108,216,15588,2,0,P|124:152|28:88,1,180.000006866455,8|0,0:0|0:0,0:0:0:0:
44,168,16194,1,8,0:0:0:0:
136,296,16346,6,0,B|180:272|180:272|220:296|220:296|248:268|300:280,1,160,4|0,0:0|0:0,0:0:0:0:
352,308,16800,2,0,P|356:256|328:212,1,80,8|0,0:0|0:0,0:0:0:0:
264,96,17103,2,0,P|260:148|288:192,2,80,0|0|8,0:0|0:0|0:0,0:0:0:0:
468,92,17558,6,0,B|440:128|440:128|400:108|400:108|368:136|332:128,1,160,0|2,0:0|0:0,0:0:0:0:
264,96,18012,1,8,0:0:0:0:
264,96,18315,1,0,0:0:0:0:
136,64,18467,1,0,0:0:0:0:
96,184,18618,1,8,0:0:0:0:
221,222,18770,6,0,B|187:186|187:186|147:217|147:217|113:182|68:177,1,160
76,260,19224,1,8,0:0:0:0:
221,222,19376,2,0,B|214:173|214:173|260:156|260:156|248:116|277:74,1,160
336,132,19830,1,8,0:0:0:0:
500,136,19982,6,0,P|516:208|440:272,1,160
420,112,20437,2,0,P|448:68|488:56,1,80,8|0,0:0|0:0,0:0:0:0:
500,136,20740,1,0,0:0:0:0:
440,188,20891,1,0,0:0:0:0:
360,172,21043,1,8,0:0:0:0:
208,136,21194,6,0,B|152:136|128:172|128:172|140:216|116:252,1,160,4|2,0:0|0:0,0:0:0:0:
52,204,21649,1,8,0:0:0:0:
123,239,21952,2,0,P|131:187|40:124,1,160,0|8,0:0|0:0,0:0:0:0:
52,204,22406,1,0,0:0:0:0:
196,280,22558,6,0,P|232:268|284:288,1,80
236,348,22861,1,8,0:0:0:0:
236,348,23164,1,0,0:0:0:0:
372,344,23315,1,0,0:0:0:0:
352,208,23467,1,8,0:0:0:0:
431,102,23618,6,0,P|361:132|352:208,1,160
428,184,24073,1,8,0:0:0:0:
318,81,24224,2,0,P|298:154|352:208,1,160
428,184,24679,1,8,0:0:0:0:
212,112,24830,2,0,B|192:156|192:156|140:148|140:148|128:184|80:192,1,160
68,112,25285,2,0,P|24:148|20:192,1,80,8|0,0:0|0:0,0:0:0:0:
20,208,25512,1,0,0:0:0:0:
40,244,25588,1,0,0:0:0:0:
136,356,25740,2,0,B|136:328|136:328|148:308|148:308|144:264,1,80,0|8,0:0|0:0,0:0:0:0:
124,200,26043,6,0,B|188:184|224:248|224:248|268:232,1,160,4|0,0:0|0:0,0:0:0:0:
268,156,26497,2,0,P|312:168|352:144,1,80,8|0,0:0|0:0,0:0:0:0:
472,72,26800,2,0,P|428:60|388:84,2,80,2|0|8,0:0|0:0|0:0,0:0:0:0:
440,144,27255,1,0,0:0:0:0:
392,264,27406,6,0,L|356:356,2,80,0|0|8,0:0|0:0|0:0,0:0:0:0:
464,228,27861,2,0,P|432:192|324:216,1,160,2|2,0:0|0:0,0:0:0:0:
256,232,28315,1,8,0:0:0:0:
48,228,28467,6,0,P|80:192|188:216,1,160
122,261,28921,1,8,0:0:0:0:
180,112,29073,2,0,L|209:37,1,80,2|0,0:0|0:0,0:0:0:0:
182,208,29376,2,0,L|146:300,1,80,2|8,0:0|0:0,0:0:0:0:
92,332,29679,6,0,P|136:360|224:308,1,160
256,240,30133,1,8,0:0:0:0:
408,148,30285,1,2,0:0:0:0:
408,148,30361,1,0,0:0:0:0:
408,148,30437,1,0,0:0:0:0:
448,328,30588,2,0,P|472:280|508:268,1,80,2|8,0:0|0:0,0:0:0:0:
316,172,30891,6,0,B|352:204|344:252|344:252|376:272|376:272|356:324,1,160,4|0,0:0|0:0,0:0:0:0:
284,320,31346,2,0,P|232:324|188:292,1,80,8|0,0:0|0:0,0:0:0:0:
88,176,31649,2,0,P|140:172|184:204,2,80,0|2|8,0:0|0:0|0:0,0:0:0:0:
116,252,32103,1,0,0:0:0:0:
256,104,32255,6,0,P|316:80|400:132,1,160,0|8,0:0|0:0,0:0:0:0:
440,188,32709,1,2,0:0:0:0:
320,164,32861,1,0,0:0:0:0:
460,264,33012,1,0,0:0:0:0:
395,123,33164,1,8,0:0:0:0:
364,240,33315,6,0,P|308:252|232:176,1,160,4|0,0:0|0:0,0:0:0:0:
204,44,33770,1,8,0:0:0:0:
235,191,33921,2,0,L|271:351,1,160
344,376,34376,1,8,0:0:0:0:
220,288,34527,6,0,B|176:320|176:320|132:296|132:296|96:312|60:296,1,160,4|0,0:0|0:0,0:0:0:0:
88,224,34982,1,8,0:0:0:0:
112,52,35133,1,0,0:0:0:0:
88,224,35285,1,0,0:0:0:0:
28,96,35436,1,0,0:0:0:0:
28,96,35512,1,0,0:0:0:0:
28,96,35588,1,8,0:0:0:0:
204,60,35740,1,0,0:0:0:0:
324,280,35891,6,0,L|380:352,1,80,8|0,0:0|0:0,0:0:0:0:
336,148,36194,2,0,L|392:220,1,80,8|0,0:0|0:0,0:0:0:0:
372,32,36497,2,0,L|428:104,2,80,8|0|0,0:0|0:0|0:0,0:0:0:0:
256,192,36952,6,0,B|240:228|240:228|192:208|192:208|168:240|116:240,1,160,8|8,0:0|0:0,0:0:0:0:
128,160,37406,1,8,0:0:0:0:
256,308,37558,1,0,0:0:0:0:
133,239,37709,1,8,0:0:0:0:
68,104,37861,1,0,0:0:0:0:
80,80,37936,1,0,0:0:0:0:
96,48,38012,1,8,0:0:0:0:
133,239,38164,1,0,0:0:0:0:
228,116,38315,6,0,P|284:112|340:200,1,160,4|8,0:0|0:0,0:0:0:0:
368,264,38770,2,0,L|396:176,1,80,2|0,0:0|0:0,0:0:0:0:
504,108,39073,2,0,L|479:184,1,80,0|8,0:0|0:0,0:0:0:0:
408,332,39376,6,0,P|352:344|288:268,1,160,4|0,0:0|0:0,0:0:0:0:
256,200,39830,2,0,B|216:220|208:264|208:264|168:256|168:256|136:288,1,160,8|0,0:0|0:0,0:0:0:0:
192,344,40285,1,0,0:0:0:0:
164,176,40436,1,8,0:0:0:0:
288,276,40588,1,0,0:0:0:0:
288,276,40664,1,0,0:0:0:0:
288,276,40740,6,0,P|256:228|328:136,1,160,4|8,0:0|0:0,0:0:0:0:
376,128,41194,2,0,P|356:88|312:64,1,80,2|0,0:0|0:0,0:0:0:0:
168,48,41497,2,0,P|188:88|232:112,1,80,0|8,0:0|0:0,0:0:0:0:
168,48,41800,6,0,L|184:224,1,160,4|0,0:0|0:0,0:0:0:0:
208,284,42255,1,8,0:0:0:0:
52,180,42406,2,0,L|136:324,1,160,2|2,0:0|0:0,0:0:0:0:
208,284,42861,1,8,0:0:0:0:
368,152,43012,6,0,B|344:192|368:240|368:240|344:264|344:264|368:304,1,160,6|0,0:0|0:0,0:0:0:0:
424,340,43467,2,0,P|380:372|336:368,1,80,8|0,0:0|0:0,0:0:0:0:
368,152,43770,2,0,P|412:120|456:124,2,80,2|0|8,0:0|0:0|0:0,0:0:0:0:
432,196,44224,6,0,P|488:180|496:72,1,160,4|2,0:0|0:0,0:0:0:0:
444,40,44679,1,8,0:0:0:0:
360,232,44830,1,0,0:0:0:0:
324,220,44906,1,0,0:0:0:0:
296,188,44982,1,0,0:0:0:0:
288,148,45058,1,0,0:0:0:0:
300,108,45133,1,0,0:0:0:0:
328,80,45209,1,0,0:0:0:0:
368,68,45285,1,8,0:0:0:0:
128,280,45588,6,0,L|72:352,1,80,8|0,0:0|0:0,0:0:0:0:
116,148,45891,2,0,L|60:220,1,80,8|0,0:0|0:0,0:0:0:0:
80,32,46194,2,0,L|24:104,2,80,8|0|0,0:0|0:0|0:0,0:0:0:0:
196,192,46649,6,8,B|212:228|212:228|260:208|260:208|284:240|336:240,1,160
324,160,47103,1,8,0:0:0:0:
196,308,47255,1,0,0:0:0:0:
320,239,47406,1,8,0:0:0:0:
404,104,47558,1,0,0:0:0:0:
392,76,47633,1,0,0:0:0:0:
380,44,47709,1,8,0:0:0:0:
296,60,47861,1,0,0:0:0:0:
225,116,48012,6,0,P|169:112|113:200,1,160,4|8,0:0|0:0,0:0:0:0:
128,336,48467,2,0,P|172:332|204:288,1,80,2|0,0:0|0:0,0:0:0:0:
113,190,48770,2,0,P|69:194|37:238,1,80,2|8,0:0|0:0,0:0:0:0:
192,192,49073,6,0,B|188:132|136:116|136:116|140:80|140:80|96:64,1,160,4|0,0:0|0:0,0:0:0:0:
64,16,49527,2,0,P|40:56|44:96,1,80,8|0,0:0|0:0,0:0:0:0:
120,72,49830,1,8,0:0:0:0:
232,24,50058,1,8,0:0:0:0:
340,72,50285,1,8,0:0:0:0:
348,256,50436,6,0,P|352:196|452:160,1,160,4|8,0:0|0:0,0:0:0:0:
384,328,50891,2,0,P|336:336|292:316,1,80
434,154,51194,2,0,P|482:146|526:166,1,80,0|8,0:0|0:0,0:0:0:0:
473,226,51497,6,0,L|384:62,2,160,2|2|2,0:0|0:0|0:0,0:0:0:0:
392,240,52255,1,0,0:0:0:0:
280,328,52406,1,0,0:0:0:0:
352,164,52558,1,8,0:0:0:0:
360,316,52709,1,0,0:0:0:0:
120,320,52861,5,8,0:0:0:0:
132,284,52936,1,0,0:0:0:0:
160,252,53012,1,0,0:0:0:0:
200,240,53088,1,0,0:0:0:0:
240,240,53164,1,0,0:0:0:0:
76,80,53315,5,8,0:0:0:0:
112,100,53391,1,0,0:0:0:0:
152,104,53467,1,0,0:0:0:0:
192,92,53543,1,0,0:0:0:0:
220,64,53618,1,0,0:0:0:0:
346,125,53770,2,0,P|304:116|268:128,1,80,8|0,0:0|0:0,0:0:0:0:
311,195,54073,5,8,0:0:0:0:
456,300,54224,1,8,0:0:0:0:
328,324,54376,1,8,0:0:0:0:
512,224,54527,2,0,P|432:208|372:276,1,160,4|0,0:0|0:0,0:0:0:0:
188,328,54982,6,0,P|240:320|260:272,1,80,4|0,0:0|0:0,0:0:0:0:
168,120,55285,2,0,P|143:192|192:252,1,160,4|8,0:0|0:0,0:0:0:0:
276,204,55740,1,0,0:0:0:0:
228,56,55891,2,0,P|184:32|128:40,1,80
222,178,56194,2,0,P|262:202|322:194,1,80,8|0,0:0|0:0,0:0:0:0:
440,88,56497,6,0,B|452:68|452:68|480:56|480:56|496:32,2,80,0|0|8,0:0|0:0|0:0,0:0:0:0:
456,168,56952,2,0,P|396:160|360:72,1,160
222,178,57406,2,0,B|214:198|214:198|182:210|182:210|162:254,1,80,8|0,0:0|0:0,0:0:0:0:
156,128,57709,6,0,P|216:96|298:154,1,160,4|8,0:0|0:0,0:0:0:0:
332,204,58164,1,0,0:0:0:0:
440,340,58315,2,0,P|452:296|496:268,1,80
368,139,58618,2,0,P|356:183|312:211,1,80,8|0,0:0|0:0,0:0:0:0:
291,137,58921,5,0,0:0:0:0:
388,252,59073,1,0,0:0:0:0:
260,332,59224,1,8,0:0:0:0:
192,288,59376,2,0,P|256:252|332:300,1,160
184,368,59830,2,0,P|132:352|112:308,1,80,8|0,0:0|0:0,0:0:0:0:
64,108,60133,6,0,B|68:152|68:152|112:156|112:156|116:204|164:216,1,160,4|8,0:0|0:0,0:0:0:0:
120,48,60588,2,0,P|80:28|32:36,1,80
112,156,60891,2,0,P|152:176|200:168,1,80,0|8,0:0|0:0,0:0:0:0:
256,132,61194,1,0,0:0:0:0:
208,264,61346,5,0,0:0:0:0:
344,316,61497,1,0,0:0:0:0:
392,184,61649,1,8,0:0:0:0:
300,224,61800,2,0,B|276:264|276:264|280:308|280:308|252:344|208:344,1,160
256,132,62255,2,0,B|272:112|272:112|308:96|308:96|320:72,1,80,8|0,0:0|0:0,0:0:0:0:
176,160,62558,6,0,P|216:208|312:196,1,160,0|8,0:0|0:0,0:0:0:0:
392,184,63012,2,0,P|368:140|320:120,1,80
376,276,63315,2,0,P|400:320|448:340,1,80,0|8,0:0|0:0,0:0:0:0:
392,184,63618,1,0,0:0:0:0:
256,52,63770,5,0,0:0:0:0:
84,88,63921,1,0,0:0:0:0:
92,120,63997,1,0,0:0:0:0:
100,152,64073,1,8,0:0:0:0:
204,236,64224,5,0,0:0:0:0:
196,204,64300,1,0,0:0:0:0:
188,172,64376,1,8,0:0:0:0:
136,288,64527,5,0,0:0:0:0:
144,320,64603,1,0,0:0:0:0:
152,352,64679,1,8,0:0:0:0:
292,316,64830,5,0,0:0:0:0:
296,276,64906,1,0,0:0:0:0:
300,236,64982,2,0,B|308:192|308:192|336:164|336:164|324:120|352:88,1,160,4|8,0:0|0:0,0:0:0:0:
412,140,65436,1,0,0:0:0:0:
296,36,65588,2,0,P|344:16|380:24,1,80
256,112,65891,2,0,P|208:132|172:124,1,80,8|0,0:0|0:0,0:0:0:0:
204,52,66194,5,0,0:0:0:0:
300,180,66346,1,0,0:0:0:0:
176,264,66497,1,8,0:0:0:0:
300,180,66649,2,0,P|352:160|432:228,1,160
352,240,67103,2,0,P|312:260|256:244,1,80,8|0,0:0|0:0,0:0:0:0:
343,57,67406,6,0,B|364:78|361:122|361:122|327:133|327:133|299:181,1,160,4|8,0:0|0:0,0:0:0:0:
220,188,67861,1,0,0:0:0:0:
144,164,68012,2,0,P|168:124|212:112,1,80
72,104,68315,2,0,P|48:144|4:156,1,80,8|0,0:0|0:0,0:0:0:0:
0,80,68618,5,0,0:0:0:0:
96,208,68770,1,0,0:0:0:0:
0,296,68921,1,8,0:0:0:0:
96,208,69073,2,0,P|132:168|244:188,1,160
308,188,69527,2,0,P|288:232|252:248,1,80,8|0,0:0|0:0,0:0:0:0:
316,108,69830,6,0,P|316:64|428:16,1,160,4|8,0:0|0:0,0:0:0:0:
376,232,70285,2,0,B|404:196|384:152|384:152|404:116|404:116|384:64,1,160
464,236,70740,2,0,P|440:284|412:304,1,80,8|0,0:0|0:0,0:0:0:0:
234,291,71043,6,0,B|266:255|314:259|314:259|338:227|394:231,1,160,4|8,0:0|0:0,0:0:0:0:
300,340,71497,2,0,P|252:372|156:324,1,160
180,220,71952,2,0,P|156:256|108:272,1,80,8|0,0:0|0:0,0:0:0:0:
104,192,72255,6,0,P|96:148|112:100,1,80,4|2,0:0|0:0,0:0:0:0:
136,40,72558,1,8,0:0:0:0:
344,56,72709,2,0,P|352:100|336:148,1,80,2|2,0:0|0:0,0:0:0:0:
312,208,73012,1,0,0:0:0:0:
268,92,73164,1,8,0:0:0:0:
440,148,73315,6,0,B|460:160|460:160|492:160|492:160|520:176,1,80,0|12,0:0|0:0,0:0:0:0:
388,260,73618,2,0,B|399:280|399:280|427:295|427:295|444:323,1,80,0|12,0:0|0:0,0:0:0:0:
256,304,73921,2,0,B|262:326|262:326|285:348|285:348|294:379,1,80,0|12,0:0|0:0,0:0:0:0:
176,276,74224,5,0,0:0:0:0:
196,244,74300,1,0,0:0:0:0:
232,224,74376,1,8,0:0:0:0:
272,224,74452,1,0,0:0:0:0:
308,240,74527,1,0,0:0:0:0:
196,352,74679,6,0,P|144:352|100:248,1,160,4|8,0:0|0:0,0:0:0:0:
80,68,75133,1,0,0:0:0:0:
88,108,75209,1,0,0:0:0:0:
88,148,75285,2,0,P|72:188|24:212,2,80,0|0|8,0:0|0:0|0:0,0:0:0:0:
192,72,75740,1,0,0:0:0:0:
288,44,75891,6,0,P|336:52|364:80,1,80
296,124,76194,2,0,L|248:200,1,80,8|0,0:0|0:0,0:0:0:0:
324,228,76497,2,0,L|308:312,1,80
388,308,76800,1,8,0:0:0:0:
253,191,76952,1,0,0:0:0:0:
213,195,77027,1,0,0:0:0:0:
177,215,77103,6,0,P|145:251|185:351,1,160,4|8,0:0|0:0,0:0:0:0:
220,280,77558,1,0,0:0:0:0:
136,144,77709,2,0,L|88:68,2,80,2|0|8,0:0|0:0|0:0,0:0:0:0:
220,280,78164,1,0,0:0:0:0:
280,116,78315,5,2,0:0:0:0:
456,88,78467,2,0,P|496:92|532:136,1,80,0|8,0:0|0:0,0:0:0:0:
388,236,78770,2,0,P|348:232|312:188,2,80,0|0|2,0:0|0:0|0:0,0:0:0:0:
384,156,79224,1,8,0:0:0:0:
400,316,79376,6,0,P|328:312|248:240,1,160,4|0,0:0|0:0,0:0:0:0:
136,164,79830,2,0,P|80:180|60:212,1,80,8|0,0:0|0:0,0:0:0:0:
192,292,80133,2,0,P|248:276|268:244,1,80
196,212,80436,1,8,0:0:0:0:
196,212,80588,1,0,0:0:0:0:
328,332,80740,6,0,P|340:272|400:244,1,120,4|0,0:0|0:0,0:0:0:0:
416,240,81043,6,0,B|444:208|440:156|440:156|404:140|404:140|408:72,1,180.000006866455,8|0,0:0|0:0,0:0:0:0:
456,24,81649,1,8,0:0:0:0:
328,112,81800,6,0,P|256:140|180:112,1,160,4|0,0:0|0:0,0:0:0:0:
108,80,82255,2,0,P|136:44|188:36,2,80,8|0|0,0:0|0:0|0:0,0:0:0:0:
256,216,82709,2,0,B|268:236|268:236|308:240|308:240|328:256,1,80,0|8,0:0|0:0,0:0:0:0:
224,304,83012,6,0,P|152:276|76:304,1,160,4|0,0:0|0:0,0:0:0:0:
4,336,83467,2,0,P|32:372|84:380,2,80,8|0|0,0:0|0:0|0:0,0:0:0:0:
152,200,83921,2,0,B|164:180|164:180|204:176|204:176|224:160,1,80,0|8,0:0|0:0,0:0:0:0:
348,56,84224,6,0,B|344:100|364:132|364:132|420:144|420:144|432:188,1,160,4|0,0:0|0:0,0:0:0:0:
404,296,84679,2,0,P|440:268|488:272,2,80,8|0|0,0:0|0:0|0:0,0:0:0:0:
332,332,85133,1,0,0:0:0:0:
292,340,85209,1,0,0:0:0:0:
252,340,85285,1,8,0:0:0:0:
212,332,85361,1,0,0:0:0:0:
180,312,85436,6,0,B|160:296|160:296|128:296|128:296|100:272,1,80,4|0,0:0|0:0,0:0:0:0:
312,236,85740,2,0,B|332:220|332:220|364:220|364:220|392:196,1,80,0|8,0:0|0:0,0:0:0:0:
200,152,86043,2,0,B|180:136|180:136|148:136|148:136|120:112,1,80
312,80,86346,2,0,B|332:64|332:64|364:64|364:64|392:40,1,80,0|8,0:0|0:0,0:0:0:0:
172,52,86649,5,4,0:0:0:0:
172,52,86800,1,0,0:0:0:0:
344,144,86952,1,0,0:0:0:0:
344,144,87103,1,0,0:0:0:0:
172,224,87255,5,0,0:0:0:0:
172,224,87406,1,0,0:0:0:0:
344,312,87558,1,8,0:0:0:0:
344,312,87709,1,0,0:0:0:0:
256,192,87861,5,4,0:0:0:0:
256,192,87936,12,0,88618,0:0:0:0:
