osu file format v13

[General]
AudioFilename: daze 2.mp3
AudioLeadIn: 1500
PreviewTime: 54755
Countdown: 0
SampleSet: Normal
StackLeniency: 0.7
Mode: 0
LetterboxInBreaks: 0
WidescreenStoryboard: 1

[Editor]
DistanceSpacing: 1.1
BeatDivisor: 4
GridSize: 4
TimelineZoom: 1

[Metadata]
Title:daze (short ver.)
TitleUnicode:daze (short ver.)
Artist:Jin feat. MARiA from GARNiDELiA
ArtistUnicode:じん ft. メイリア from GARNiDELiA
Creator:luxoDeh
Version:Easy
Source:Mekakucity Actors
Tags:メカクシティアクターズ Shidu Jin 自然の敵P Shizen no Teki-P Kagerou Project opening TV size madabau Betsuto Yuutosan CLSW
BeatmapID:403915
BeatmapSetID:165391

[Difficulty]
HPDrainRate:2
CircleSize:3
OverallDifficulty:2
ApproachRate:3
SliderMultiplier:0.8
SliderTickRate:1

[Events]
//Background and Video events
Video,-800,"PV_2.avi"
0,0,"bg_1024.jpg",0,0
//Break Periods
//Storyboard Layer 0 (Background)
//Storyboard Layer 1 (Fail)
//Storyboard Layer 2 (Pass)
//Storyboard Layer 3 (Foreground)
//Storyboard Sound Samples
//Background Colour Transformations
3,100,163,162,255

[TimingPoints]
740,303.030303030303,4,2,1,70,1,0
1497,-100,4,1,1,70,0,0
16194,-100,4,1,1,70,0,0
16800,-100,4,2,1,70,0,0
54527,-100,4,1,1,70,0,0
55285,-100,4,1,1,70,0,1
81648,-100,4,1,1,70,0,0
81800,-100,4,1,1,70,0,0
88466,-100,4,2,1,30,0,0

[Colours]
Combo1 : 0,128,255
Combo2 : 255,0,0
Combo3 : 255,128,0
Combo4 : 255,255,0

[HitObjects]
168,112,740,6,2,P|184:72|216:48,2,80
176,244,1800,6,0,P|212:308|340:308,1,200,4|0,0:0|0:0,0:0:0:0:
432,232,3012,2,0,P|404:176|276:168,1,200,4|0,0:0|0:0,0:0:0:0:
188,264,4224,6,0,B|148:304|148:304|100:304|100:304|76:352|20:348,1,200,4|0,0:0|0:0,0:0:0:0:
16,216,5436,2,0,P|8:116|24:16,1,200,4|0,0:0|0:0,0:0:0:0:
148,64,6649,6,0,B|204:40|256:88|256:88|228:192|324:220,1,280,4|8,0:0|0:0,0:0:0:0:
336,132,8012,2,0,P|400:192|364:292,1,200
332,368,9073,6,0,B|288:352|280:308|280:308|224:332|168:304,1,200,4|0,0:0|0:0,0:0:0:0:
36,184,10436,2,0,P|112:232|204:172,1,200
117,147,11497,6,0,B|137:75|217:75|217:75|217:3,1,200,4|0,0:0|0:0,0:0:0:0:
304,12,12558,2,8,B|304:76|304:76|328:104|328:104|316:140|332:168,2,160
392,28,14073,6,0,P|432:8|480:12,2,80,0|8|0,0:0|0:0|0:0,0:0:0:0:
420,200,15285,1,0,0:0:0:0:
500,240,15588,2,0,B|464:296|396:288|396:288|352:304|344:348,1,200,8|4,0:0|0:0,0:0:0:0:
220,304,16800,6,0,B|196:252|220:208|220:208|112:196,1,200,8|0,0:0|0:0,0:0:0:0:
8,124,18012,2,0,P|28:84|172:72,1,200,8|4,0:0|0:0,0:0:0:0:
300,84,19224,6,0,B|352:52|412:76|412:76|492:48,1,200,8|0,0:0|0:0,0:0:0:0:
492,180,20437,2,0,P|432:200|396:328,1,200,8|4,0:0|0:0,0:0:0:0:
264,284,21649,2,0,P|240:352|156:380,1,160,8|8,0:0|0:0,0:0:0:0:
172,292,22558,2,0,B|140:248|140:248|136:200|136:200|100:200|84:164,1,160
20,120,23467,6,0,P|72:84|160:116,2,160,8|8|8,0:0|0:0|0:0,0:0:0:0:
28,296,25285,2,0,P|56:336|132:348,1,120,8|2,0:0|0:0,0:0:0:0:
112,262,26043,5,4,0:0:0:0:
244,260,26497,2,0,P|284:276|386:221,1,160,8|8,0:0|0:0,0:0:0:0:
302,190,27406,2,0,B|335:140|390:142|390:142|382:86,1,160,2|0,0:0|0:0,0:0:0:0:
308,44,28315,6,0,P|256:64|112:48,1,200,8|2,0:0|0:0,0:0:0:0:
36,92,29376,1,0,0:0:0:0:
76,172,29679,2,0,P|116:216|120:288,1,120,2|8,0:0|0:0,0:0:0:0:
80,352,30437,2,0,P|40:308|40:240,1,120,0|4,0:0|0:0,0:0:0:0:
80,124,31346,6,0,P|128:80|224:92,1,160,8|8,0:0|0:0,0:0:0:0:
268,160,32255,2,0,P|304:184|392:164,2,120,0|2|8,0:0|0:0|0:0,0:0:0:0:
333,101,33467,6,0,P|433:109|406:262,1,280,0|4,0:0|0:0,0:0:0:0:
316,336,34982,2,0,P|304:295|264:264,2,80,8|0|8,0:0|0:0|0:0,0:0:0:0:
228,344,35891,6,0,P|192:356|144:352,1,80,8|8,0:0|0:0,0:0:0:0:
76,304,36497,2,0,P|44:260|60:188,1,120,8|8,0:0|0:0,0:0:0:0:
12,120,37255,2,0,P|104:120|140:216,1,200,8|8,0:0|0:0,0:0:0:0:
229,209,38315,6,0,P|252:134|322:101,1,160,4|0,0:0|0:0,0:0:0:0:
453,99,39376,2,0,B|481:147|481:147|453:195|453:195|473:239|457:291,1,200,4|0,0:0|0:0,0:0:0:0:
293,339,40740,6,0,B|256:307|259:255|259:255|224:264|184:254,2,160,4|2|2,0:0|0:0|0:0,0:0:0:0:
351,273,42255,2,0,P|315:180|223:169,1,200,8|4,0:0|0:0,0:0:0:0:
92,172,43467,6,0,P|64:128|108:28,2,160,8|8|8,0:0|0:0|0:0,0:0:0:0:
224,56,45285,1,8,0:0:0:0:
284,120,45588,6,0,L|284:216,2,80,8|8|8,0:0|0:0|0:0,0:0:0:0:
392,40,46649,2,0,B|388:85|388:85|425:147|425:147|409:232,1,200,8|8,0:0|0:0,0:0:0:0:
360,300,47709,1,8,0:0:0:0:
276,280,48012,6,0,B|216:260|168:276|168:276|100:196|100:196,1,200,4|8,0:0|0:0,0:0:0:0:
24,180,49073,2,0,L|40:304,1,120,4|0,0:0|0:0,0:0:0:0:
120,336,49830,2,0,P|128:276|228:240,1,160,8|4,0:0|0:0,0:0:0:0:
248,156,50739,6,0,P|320:188|391:154,2,160,8|8|8,0:0|0:0|0:0,0:0:0:0:
320,104,52255,2,0,P|348:76|400:72,1,80,0|8,0:0|0:0,0:0:0:0:
256,192,52861,12,4,54527,0:0:0:0:
256,44,55285,6,0,B|236:108|236:108|260:160|232:208,1,160,4|0,0:0|0:0,0:0:0:0:
160,156,56194,1,8,0:0:0:0:
152,68,56497,2,0,P|92:100|72:160,2,120,0|0|8,0:0|0:0|0:0,0:0:0:0:
160,156,57709,6,0,B|136:236|136:236|152:280|152:280|136:320,1,160,4|0,0:0|0:0,0:0:0:0:
64,352,58618,1,8,0:0:0:0:
141,307,58921,2,0,P|200:322|264:306,2,120,0|0|8,0:0|0:0|0:0,0:0:0:0:
64,260,60133,6,0,P|100:156|228:132,1,240,4|8,0:0|0:0,0:0:0:0:
300,160,61346,2,0,P|348:164|404:108,2,120,0|0|8,0:0|0:0|0:0,0:0:0:0:
324,76,62558,6,0,P|408:32|484:144,1,240,0|8,0:0|0:0,0:0:0:0:
464,216,63770,2,0,L|436:308,1,80,0|8,0:0|0:0,0:0:0:0:
356,272,64376,2,0,L|300:336,1,80,8|8,0:0|0:0,0:0:0:0:
236,276,64982,6,0,P|168:304|84:272,1,160,4|0,0:0|0:0,0:0:0:0:
28,212,65891,1,8,0:0:0:0:
92,152,66194,2,0,P|165:124|238:153,1,160
304,212,67103,1,8,0:0:0:0:
356,284,67406,6,0,B|400:252|392:196|392:196|432:188|448:152,1,160,4|0,0:0|0:0,0:0:0:0:
376,104,68315,1,8,0:0:0:0:
300,60,68618,2,0,B|272:88|272:88|228:88|228:88|204:120,2,120,0|0|8,0:0|0:0|0:0,0:0:0:0:
376,104,69830,6,0,P|396:180|476:208,1,160,4|0,0:0|0:0,0:0:0:0:
332,324,71043,2,0,P|260:348|176:320,1,160,4|0,0:0|0:0,0:0:0:0:
124,256,71952,1,8,0:0:0:0:
40,228,72255,6,0,P|74:182|144:169,2,120,4|10|8,0:0|0:0|0:0,0:0:0:0:
124,256,73467,2,0,P|216:192|96:84,1,320,0|4,0:0|0:0,0:0:0:0:
256,192,74830,12,4,77103,0:0:0:0:
384,268,78618,6,0,B|432:244|432:180|432:180|408:152|412:120,1,160,8|8,0:0|0:0,0:0:0:0:
336,84,79527,6,0,P|288:100|168:80,2,160,4|0|0,0:0|0:0|0:0,0:0:0:0:
368,168,81043,2,0,B|324:204|324:204|308:296|308:296|268:324,1,200,4|4,0:0|0:0,0:0:0:0:
148,268,82255,6,0,P|144:216|12:184,1,200,8|4,0:0|0:0,0:0:0:0:
68,300,83467,2,0,P|144:352|232:284,1,200,8|4,0:0|0:0,0:0:0:0:
224,168,84679,2,0,P|220:116|344:56,1,200,8|4,0:0|0:0,0:0:0:0:
408,104,85740,6,0,L|464:172,2,80,0|8|0,0:0|0:0|0:0,0:0:0:0:
368,184,86649,2,0,L|384:268,2,80,8|0|8,0:0|0:0|0:0,0:0:0:0:
292,232,87558,1,0,0:0:0:0:
224,284,87861,6,0,P|160:320|52:248,1,200,4|0,0:0|0:0,0:0:0:0:
