osu file format v14

[General]
AudioFilename: Lost Time Memory.mp3
AudioLeadIn: 2000
PreviewTime: 94079
Countdown: 0
SampleSet: Soft
StackLeniency: 0.7
Mode: 1
LetterboxInBreaks: 0
WidescreenStoryboard: 1

[Editor]
Bookmarks: 185507,194365,208365,217222
DistanceSpacing: 0.5
BeatDivisor: 2
GridSize: 4
TimelineZoom: 1

[Metadata]
Title:Lost Time Memory
TitleUnicode:ロ ス タ イ ム メ モ リ ー
Artist:Jin feat. Kouta Matsuyama
ArtistUnicode:じん ft. 松山晃太
Creator:-FireThunder-
Version:Muzukashii
Source:Mekakucity Actors
Tags:Shizen no Teki-P BYEE the ROUND Kagerou Project Mekakushi Dan
BeatmapID:699611
BeatmapSetID:309299

[Difficulty]
HPDrainRate:4
CircleSize:3
OverallDifficulty:5
ApproachRate:4
SliderMultiplier:1.2
SliderTickRate:1

[Events]
//Background and Video events
0,0,"LostTimeMemory.jpg",0,0
//Break Periods
2,287676,291205
//Storyboard Layer 0 (Background)
//Storyboard Layer 1 (Fail)
//Storyboard Layer 2 (Pass)
//Storyboard Layer 3 (Foreground)
//Storyboard Sound Samples

[TimingPoints]
1043,300,4,2,0,60,1,8
1043,-133.333333333333,4,2,0,60,0,8
41844,297.029702970297,4,1,0,60,1,8
41844,-100,4,1,0,60,0,8
42130,297.029702970297,4,1,0,85,1,0
42130,-100,4,1,0,85,0,0
43021,297.029702970297,4,1,0,85,1,0
43021,-100,4,1,0,85,0,0
98862,-100,4,1,0,80,0,1
117872,-100,4,1,0,70,0,0
156189,-100,4,1,0,80,0,1
174605,-100,4,1,0,80,0,0
193856,-133.333333333333,4,2,0,65,0,0
217570,-100,4,2,0,70,0,0
226882,-100,4,1,0,70,0,0
237872,-100,4,1,0,80,0,1
271139,-100,4,1,0,80,0,0

[Colours]
Combo1 : 0,0,255
Combo2 : 255,0,0

[HitObjects]
260,192,1043,5,0,0:0:0:0:
266,190,1343,1,0,0:0:0:0:
266,190,1643,1,8,0:0:0:0:
260,192,1943,1,0,0:0:0:0:
260,192,2093,1,0,0:0:0:0:
260,192,2243,1,8,0:0:0:0:
260,192,2543,1,0,0:0:0:0:
266,190,2843,1,8,0:0:0:0:
256,192,2993,1,0,0:0:0:0:
256,192,3443,1,8,0:0:0:0:
266,190,3743,1,0,0:0:0:0:
266,190,4043,1,8,0:0:0:0:
260,192,4343,1,0,0:0:0:0:
256,192,4493,1,0,0:0:0:0:
266,190,4643,1,8,0:0:0:0:
256,192,4793,1,8,0:0:0:0:
256,192,5093,1,0,0:0:0:0:
256,192,5243,1,8,0:0:0:0:
256,192,5393,1,0,0:0:0:0:
266,190,5693,1,0,0:0:0:0:
256,192,5843,1,8,0:0:0:0:
259,189,6143,1,0,0:0:0:0:
254,188,6443,1,8,0:0:0:0:
256,192,6743,1,0,0:0:0:0:
256,192,6893,1,0,0:0:0:0:
256,192,7043,1,8,0:0:0:0:
256,192,7343,1,0,0:0:0:0:
256,192,7493,1,8,0:0:0:0:
259,189,7793,1,8,0:0:0:0:
259,189,7943,1,0,0:0:0:0:
254,188,8093,1,8,0:0:0:0:
256,192,8243,1,0,0:0:0:0:
256,192,8843,1,8,0:0:0:0:
256,192,9143,1,0,0:0:0:0:
256,192,9293,1,8,0:0:0:0:
256,192,9443,1,0,0:0:0:0:
259,189,9743,1,0,0:0:0:0:
254,188,9893,1,0,0:0:0:0:
256,192,10043,1,8,0:0:0:0:
248,188,10343,1,8,0:0:0:0:
256,192,10643,1,0,0:0:0:0:
256,192,10943,1,0,0:0:0:0:
256,192,11243,1,8,0:0:0:0:
248,188,11543,1,0,0:0:0:0:
254,188,11693,1,0,0:0:0:0:
256,192,11843,1,8,0:0:0:0:
248,188,12143,1,0,0:0:0:0:
256,192,12443,1,8,0:0:0:0:
248,188,12893,1,0,0:0:0:0:
260,192,13043,1,8,0:0:0:0:
248,188,13193,1,0,0:0:0:0:
256,192,13343,1,8,0:0:0:0:
256,192,13643,1,0,0:0:0:0:
248,192,13943,1,0,0:0:0:0:
248,192,14093,1,0,0:0:0:0:
256,192,14243,1,8,0:0:0:0:
248,188,14543,1,8,0:0:0:0:
260,192,14843,1,8,0:0:0:0:
248,188,14993,1,0,0:0:0:0:
248,192,15143,1,8,0:0:0:0:
256,192,15443,1,0,0:0:0:0:
256,192,15743,1,0,0:0:0:0:
248,192,15893,1,0,0:0:0:0:
256,192,16043,1,8,0:0:0:0:
248,188,16343,1,0,0:0:0:0:
252,192,16643,1,8,0:0:0:0:
248,188,16793,1,0,0:0:0:0:
248,184,17093,1,0,0:0:0:0:
256,192,17243,1,8,0:0:0:0:
248,184,17543,1,0,0:0:0:0:
256,192,17843,1,8,0:0:0:0:
256,192,18443,1,0,0:0:0:0:
248,192,18593,1,0,0:0:0:0:
252,192,18893,1,0,0:0:0:0:
256,192,19043,1,8,0:0:0:0:
252,192,19343,1,0,0:0:0:0:
256,192,19643,1,8,0:0:0:0:
256,192,19793,1,0,0:0:0:0:
256,192,20243,1,0,0:0:0:0:
256,192,20543,1,0,0:0:0:0:
252,192,20693,1,8,0:0:0:0:
256,192,20843,1,8,0:0:0:0:
252,192,21143,1,0,0:0:0:0:
256,192,21443,1,8,0:0:0:0:
248,196,21743,1,0,0:0:0:0:
256,192,22043,1,0,0:0:0:0:
248,196,22193,1,8,0:0:0:0:
276,196,22643,1,0,0:0:0:0:
256,192,22943,1,0,0:0:0:0:
248,196,23093,1,0,0:0:0:0:
256,192,23243,1,8,0:0:0:0:
248,196,23543,1,0,0:0:0:0:
271,195,23843,1,0,0:0:0:0:
248,196,23993,1,0,0:0:0:0:
244,196,24293,1,0,0:0:0:0:
276,196,24443,1,8,0:0:0:0:
244,196,24743,1,0,0:0:0:0:
248,196,24893,1,0,0:0:0:0:
248,196,25043,1,0,0:0:0:0:
247,187,25343,1,0,0:0:0:0:
247,187,25643,1,8,0:0:0:0:
244,196,25943,1,0,0:0:0:0:
251,191,26243,1,0,0:0:0:0:
244,196,26393,1,0,0:0:0:0:
248,196,26693,1,0,0:0:0:0:
251,192,26843,1,8,0:0:0:0:
244,192,26993,1,0,0:0:0:0:
276,196,27443,1,0,0:0:0:0:
257,190,27743,1,0,0:0:0:0:
244,192,27893,1,0,0:0:0:0:
256,195,28043,1,8,0:0:0:0:
248,196,28343,1,0,0:0:0:0:
251,192,28643,1,8,0:0:0:0:
240,192,28943,1,0,0:0:0:0:
240,192,29093,1,0,0:0:0:0:
251,191,29243,1,8,0:0:0:0:
240,192,29543,1,0,0:0:0:0:
244,192,29693,1,0,0:0:0:0:
276,196,29843,1,8,0:0:0:0:
240,192,30143,1,0,0:0:0:0:
240,192,30293,1,8,0:0:0:0:
251,192,30443,1,8,0:0:0:0:
240,192,30743,1,0,0:0:0:0:
251,191,31043,1,8,0:0:0:0:
240,192,31343,1,0,0:0:0:0:
244,192,31493,1,0,0:0:0:0:
256,188,31643,1,0,0:0:0:0:
240,192,31793,1,8,0:0:0:0:
244,188,32093,1,0,0:0:0:0:
280,192,32243,1,0,0:0:0:0:
246,185,32543,1,0,0:0:0:0:
251,191,32843,1,8,0:0:0:0:
240,184,33143,1,0,0:0:0:0:
252,180,33443,1,0,0:0:0:0:
252,181,33593,1,8,0:0:0:0:
236,184,33893,1,0,0:0:0:0:
252,181,34043,1,0,0:0:0:0:
246,185,34343,1,0,0:0:0:0:
251,191,34493,1,0,0:0:0:0:
251,191,34643,1,0,0:0:0:0:
248,188,34943,1,0,0:0:0:0:
232,184,35093,1,0,0:0:0:0:
252,181,35243,1,8,0:0:0:0:
228,180,35543,1,0,0:0:0:0:
252,181,35843,1,8,0:0:0:0:
220,176,35993,1,0,0:0:0:0:
224,180,36293,1,0,0:0:0:0:
250,182,36443,1,8,0:0:0:0:
220,176,36743,1,8,0:0:0:0:
280,192,37043,1,0,0:0:0:0:
252,188,37643,1,8,0:0:0:0:
280,192,37943,1,0,0:0:0:0:
280,192,38243,1,0,0:0:0:0:
280,192,38393,1,0,0:0:0:0:
280,192,38543,1,0,0:0:0:0:
259,193,38843,1,8,0:0:0:0:
280,192,39143,1,0,0:0:0:0:
259,193,39443,1,8,0:0:0:0:
280,192,40043,1,0,0:0:0:0:
280,192,40343,1,8,0:0:0:0:
280,196,40643,1,0,0:0:0:0:
280,192,40793,1,0,0:0:0:0:
260,192,40943,1,8,0:0:0:0:
251,196,41243,1,8,0:0:0:0:
280,192,41543,1,12,0:0:0:0:
280,192,41844,1,0,0:0:0:0:
260,192,42130,1,0,0:0:0:0:
260,192,42427,1,8,0:0:0:0:
260,192,42724,1,8,0:0:0:0:
260,192,42872,1,0,0:0:0:0:
280,192,43021,1,0,0:0:0:0:
256,185,43318,1,8,0:0:0:0:
256,183,43615,1,0,0:0:0:0:
256,185,43912,1,0,0:0:0:0:
260,192,44209,1,8,0:0:0:0:
260,192,44506,1,0,0:0:0:0:
260,192,44654,1,0,0:0:0:0:
256,185,44803,1,8,0:0:0:0:
260,192,45100,1,8,0:0:0:0:
260,192,45248,1,0,0:0:0:0:
260,192,45397,1,0,0:0:0:0:
256,185,45694,1,0,0:0:0:0:
256,188,45842,1,8,0:0:0:0:
256,188,45991,1,8,0:0:0:0:
256,185,46288,1,8,0:0:0:0:
256,185,46585,1,0,0:0:0:0:
256,188,46882,1,0,0:0:0:0:
260,192,47030,1,0,0:0:0:0:
248,188,47179,1,0,0:0:0:0:
256,185,47476,1,0,0:0:0:0:
280,192,47773,1,0,0:0:0:0:
256,185,47921,1,0,0:0:0:0:
261,184,48070,1,8,0:0:0:0:
261,184,48367,1,8,0:0:0:0:
261,184,48664,1,0,0:0:0:0:
261,184,48961,1,0,0:0:0:0:
256,185,49110,1,8,0:0:0:0:
260,188,49407,1,8,0:0:0:0:
261,184,49555,1,0,0:0:0:0:
264,188,49852,1,0,0:0:0:0:
264,192,50001,1,8,0:0:0:0:
256,185,50149,1,8,0:0:0:0:
258,190,50446,1,0,0:0:0:0:
260,184,50743,1,8,0:0:0:0:
261,184,51040,1,8,0:0:0:0:
261,184,51337,1,0,0:0:0:0:
260,200,51634,1,0,0:0:0:0:
260,200,51783,1,0,0:0:0:0:
260,196,51931,1,8,0:0:0:0:
258,190,52228,1,0,0:0:0:0:
268,196,52377,1,0,0:0:0:0:
280,192,52525,1,8,0:0:0:0:
261,184,52822,1,8,0:0:0:0:
280,192,53120,1,0,0:0:0:0:
262,188,53417,1,0,0:0:0:0:
256,200,53714,1,8,0:0:0:0:
262,188,54308,1,0,0:0:0:0:
256,192,54605,1,0,0:0:0:0:
256,192,54753,1,0,0:0:0:0:
280,200,54902,1,8,0:0:0:0:
252,192,55050,1,0,0:0:0:0:
262,188,55347,1,0,0:0:0:0:
280,200,55496,1,8,0:0:0:0:
264,204,55793,1,8,0:0:0:0:
280,200,55941,1,0,0:0:0:0:
252,192,56090,1,0,0:0:0:0:
256,192,56387,1,0,0:0:0:0:
280,200,56684,1,8,0:0:0:0:
252,192,56981,1,0,0:0:0:0:
248,192,57129,1,8,0:0:0:0:
280,200,57278,1,0,0:0:0:0:
270,199,57575,1,8,0:0:0:0:
280,200,57872,1,0,0:0:0:0:
270,198,58169,1,0,0:0:0:0:
252,192,58318,1,8,0:0:0:0:
280,200,58466,1,8,0:0:0:0:
256,192,58912,1,0,0:0:0:0:
280,200,59060,1,0,0:0:0:0:
252,188,59357,1,0,0:0:0:0:
256,192,59506,1,0,0:0:0:0:
280,200,59654,1,8,0:0:0:0:
252,188,59803,1,0,0:0:0:0:
256,192,60100,1,0,0:0:0:0:
280,200,60248,1,8,0:0:0:0:
256,192,60545,1,8,0:0:0:0:
280,200,60842,1,0,0:0:0:0:
271,203,61139,1,0,0:0:0:0:
280,200,61436,1,8,0:0:0:0:
256,192,61733,1,0,0:0:0:0:
256,192,61882,1,0,0:0:0:0:
280,200,62030,1,8,0:0:0:0:
275,203,62327,1,0,0:0:0:0:
272,207,62624,1,8,0:0:0:0:
256,188,62773,1,0,0:0:0:0:
256,188,62921,1,0,0:0:0:0:
280,200,63219,1,0,0:0:0:0:
272,207,63516,1,8,0:0:0:0:
272,207,63813,1,8,0:0:0:0:
264,192,64110,1,0,0:0:0:0:
264,192,64258,1,0,0:0:0:0:
280,200,64407,1,0,0:0:0:0:
264,192,64555,1,8,0:0:0:0:
256,196,64852,1,0,0:0:0:0:
261,187,65001,1,0,0:0:0:0:
253,191,65298,1,8,0:0:0:0:
280,200,65595,1,0,0:0:0:0:
256,196,65743,1,8,0:0:0:0:
248,192,65892,1,0,0:0:0:0:
257,194,66189,1,8,0:0:0:0:
256,196,66486,1,0,0:0:0:0:
256,196,66634,1,0,0:0:0:0:
280,200,66783,1,8,0:0:0:0:
253,191,67080,1,0,0:0:0:0:
257,191,67377,1,8,0:0:0:0:
256,196,67525,1,0,0:0:0:0:
256,192,67674,1,0,0:0:0:0:
280,200,67971,1,0,0:0:0:0:
257,191,68268,1,0,0:0:0:0:
257,191,68565,1,8,0:0:0:0:
253,191,68862,1,0,0:0:0:0:
257,191,69011,1,0,0:0:0:0:
276,192,69159,1,8,0:0:0:0:
257,191,69456,1,8,0:0:0:0:
264,192,69753,1,0,0:0:0:0:
257,191,69902,1,8,0:0:0:0:
257,191,70050,1,0,0:0:0:0:
256,188,70347,1,0,0:0:0:0:
257,192,70644,1,0,0:0:0:0:
257,192,70941,1,8,0:0:0:0:
248,188,71238,1,0,0:0:0:0:
248,192,71387,1,0,0:0:0:0:
256,188,71535,1,8,0:0:0:0:
256,188,71832,1,0,0:0:0:0:
256,188,72129,1,0,0:0:0:0:
257,192,72278,1,0,0:0:0:0:
257,192,72426,1,8,0:0:0:0:
256,188,72723,1,0,0:0:0:0:
256,188,73021,1,0,0:0:0:0:
256,188,73318,1,8,0:0:0:0:
256,188,73466,1,0,0:0:0:0:
256,188,73615,1,0,0:0:0:0:
256,188,73912,1,8,0:0:0:0:
256,188,74209,1,0,0:0:0:0:
256,188,74357,1,0,0:0:0:0:
256,188,74506,1,8,0:0:0:0:
256,188,74803,1,8,0:0:0:0:
256,188,75100,1,0,0:0:0:0:
256,188,75397,1,0,0:0:0:0:
256,188,75545,1,0,0:0:0:0:
256,188,75694,1,8,0:0:0:0:
256,188,75991,1,0,0:0:0:0:
256,188,76288,1,0,0:0:0:0:
256,188,76585,1,0,0:0:0:0:
256,188,76733,1,0,0:0:0:0:
256,188,76882,1,8,0:0:0:0:
256,188,77179,1,0,0:0:0:0:
256,188,77327,1,0,0:0:0:0:
256,188,77476,1,8,0:0:0:0:
256,188,78070,1,0,0:0:0:0:
256,188,78367,1,8,0:0:0:0:
256,188,78664,1,0,0:0:0:0:
256,188,79258,1,12,0:0:0:0:
256,188,79704,1,0,0:0:0:0:
256,188,79852,1,0,0:0:0:0:
256,188,80001,1,8,0:0:0:0:
256,188,80149,1,0,0:0:0:0:
256,188,80298,1,8,0:0:0:0:
256,188,80892,1,4,0:0:0:0:
256,188,81189,1,0,0:0:0:0:
256,188,81337,1,0,0:0:0:0:
256,188,81486,1,8,0:0:0:0:
256,188,81634,1,0,0:0:0:0:
256,188,81783,1,8,0:0:0:0:
256,188,82080,1,0,0:0:0:0:
256,188,82377,1,0,0:0:0:0:
256,188,82525,1,8,0:0:0:0:
256,188,82674,1,8,0:0:0:0:
256,188,82822,1,0,0:0:0:0:
256,188,83120,1,0,0:0:0:0:
256,188,83268,1,0,0:0:0:0:
256,188,83565,1,8,0:0:0:0:
256,188,84011,1,0,0:0:0:0:
256,188,84308,1,0,0:0:0:0:
256,188,84456,1,0,0:0:0:0:
256,188,84605,1,8,0:0:0:0:
256,188,84902,1,0,0:0:0:0:
256,188,85050,1,0,0:0:0:0:
256,188,85347,1,0,0:0:0:0:
256,188,85495,1,8,0:0:0:0:
256,188,85644,1,8,0:0:0:0:
256,188,85941,1,4,0:0:0:0:
256,188,86238,1,12,0:0:0:0:
256,188,86535,1,12,0:0:0:0:
256,188,86832,1,0,0:0:0:0:
256,188,87129,1,0,0:0:0:0:
256,188,87278,1,8,0:0:0:0:
256,188,87426,1,0,0:0:0:0:
256,188,87575,1,8,0:0:0:0:
256,188,87872,1,0,0:0:0:0:
256,188,88169,1,8,0:0:0:0:
256,188,88318,1,0,0:0:0:0:
256,188,88466,1,0,0:0:0:0:
256,188,88763,1,8,0:0:0:0:
256,188,89060,1,8,0:0:0:0:
256,188,89209,1,0,0:0:0:0:
256,188,89357,1,8,0:0:0:0:
256,188,89654,1,0,0:0:0:0:
252,192,89803,1,0,0:0:0:0:
256,188,90100,1,0,0:0:0:0:
256,188,90248,1,0,0:0:0:0:
256,188,90397,1,8,0:0:0:0:
256,188,90694,1,0,0:0:0:0:
256,188,90842,1,0,0:0:0:0:
256,188,90991,1,8,0:0:0:0:
256,188,91139,1,8,0:0:0:0:
256,188,91288,1,0,0:0:0:0:
252,192,91585,1,0,0:0:0:0:
256,188,91733,1,8,0:0:0:0:
256,188,92030,1,0,0:0:0:0:
256,188,92327,1,8,0:0:0:0:
256,188,92476,1,0,0:0:0:0:
256,188,92773,1,0,0:0:0:0:
256,188,92921,1,0,0:0:0:0:
256,188,93219,1,8,0:0:0:0:
256,188,93515,1,0,0:0:0:0:
256,188,93664,1,0,0:0:0:0:
256,188,93812,1,8,0:0:0:0:
256,188,93961,1,0,0:0:0:0:
256,188,94258,1,0,0:0:0:0:
256,188,94407,1,0,0:0:0:0:
256,188,94555,1,8,0:0:0:0:
256,188,94704,1,0,0:0:0:0:
256,188,94852,1,0,0:0:0:0:
256,188,95001,1,8,0:0:0:0:
256,188,95149,1,0,0:0:0:0:
256,188,95446,1,0,0:0:0:0:
256,188,95595,1,8,0:0:0:0:
256,188,95892,1,0,0:0:0:0:
248,192,96189,1,8,0:0:0:0:
256,188,96337,1,8,0:0:0:0:
256,188,96634,1,0,0:0:0:0:
256,188,96783,1,8,0:0:0:0:
256,188,96931,1,8,0:0:0:0:
256,188,97080,1,0,0:0:0:0:
256,188,97377,1,0,0:0:0:0:
256,188,97674,1,12,0:0:0:0:
256,188,98268,1,0,0:0:0:0:
256,188,98565,1,8,0:0:0:0:
250,191,98862,1,0,0:0:0:0:
250,191,99159,1,0,0:0:0:0:
256,188,99308,1,0,0:0:0:0:
256,188,99456,1,8,0:0:0:0:
256,188,99753,1,0,0:0:0:0:
249,191,99902,1,8,0:0:0:0:
256,188,100199,1,8,0:0:0:0:
256,188,100496,1,0,0:0:0:0:
256,188,100644,1,8,0:0:0:0:
256,184,100941,1,0,0:0:0:0:
249,191,101238,1,8,0:0:0:0:
256,188,101387,1,0,0:0:0:0:
241,191,101535,1,0,0:0:0:0:
256,188,101832,1,8,0:0:0:0:
256,188,101981,1,0,0:0:0:0:
249,191,102278,1,4,0:0:0:0:
241,191,102872,1,12,0:0:0:0:
241,191,103466,1,0,0:0:0:0:
248,192,103615,1,0,0:0:0:0:
248,192,103763,1,8,0:0:0:0:
260,192,103912,1,0,0:0:0:0:
260,192,104209,1,0,0:0:0:0:
252,188,104506,1,0,0:0:0:0:
252,188,104654,1,8,0:0:0:0:
241,191,104803,1,0,0:0:0:0:
264,196,105100,1,0,0:0:0:0:
260,192,105248,1,8,0:0:0:0:
256,192,105545,1,0,0:0:0:0:
260,192,105694,1,8,0:0:0:0:
260,192,105842,1,8,0:0:0:0:
260,192,105991,1,0,0:0:0:0:
241,191,106288,1,0,0:0:0:0:
260,192,106436,1,8,0:0:0:0:
256,192,106733,1,0,0:0:0:0:
260,192,107030,1,8,0:0:0:0:
260,192,107179,1,0,0:0:0:0:
241,191,107476,1,0,0:0:0:0:
260,192,107773,1,0,0:0:0:0:
260,188,107921,1,8,0:0:0:0:
260,188,108070,1,8,0:0:0:0:
264,184,108367,1,0,0:0:0:0:
260,192,108664,1,0,0:0:0:0:
260,192,108813,1,0,0:0:0:0:
240,190,108961,1,8,0:0:0:0:
252,192,109258,1,0,0:0:0:0:
252,192,109407,1,0,0:0:0:0:
260,192,109555,1,8,0:0:0:0:
236,190,109852,1,8,0:0:0:0:
240,190,110149,1,0,0:0:0:0:
260,192,110446,1,0,0:0:0:0:
260,192,110595,1,0,0:0:0:0:
252,192,110744,1,8,0:0:0:0:
240,190,111040,1,8,0:0:0:0:
260,192,111337,1,8,0:0:0:0:
256,188,111486,1,0,0:0:0:0:
256,188,111634,1,8,0:0:0:0:
256,196,111931,1,8,0:0:0:0:
252,196,112080,1,0,0:0:0:0:
236,190,112228,1,0,0:0:0:0:
236,190,112525,1,8,0:0:0:0:
260,184,112674,1,0,0:0:0:0:
260,192,112971,1,0,0:0:0:0:
256,196,113120,1,8,0:0:0:0:
236,190,113417,1,0,0:0:0:0:
256,196,113714,1,8,0:0:0:0:
256,192,114011,1,0,0:0:0:0:
256,192,114159,1,8,0:0:0:0:
260,192,114308,1,0,0:0:0:0:
236,190,114456,1,0,0:0:0:0:
260,200,114605,1,8,0:0:0:0:
236,190,114902,1,8,0:0:0:0:
256,192,115199,1,0,0:0:0:0:
256,196,115347,1,0,0:0:0:0:
260,192,115496,1,8,0:0:0:0:
256,192,115793,1,0,0:0:0:0:
236,190,115941,1,8,0:0:0:0:
256,196,116238,1,0,0:0:0:0:
260,200,116387,1,0,0:0:0:0:
260,192,116535,1,8,0:0:0:0:
256,200,116832,1,0,0:0:0:0:
236,190,116981,1,8,0:0:0:0:
236,190,117278,1,0,0:0:0:0:
248,196,117575,1,0,0:0:0:0:
248,196,117723,1,8,0:0:0:0:
280,200,117872,1,0,0:0:0:0:
271,203,118169,1,0,0:0:0:0:
280,200,118466,1,8,0:0:0:0:
256,192,118763,1,0,0:0:0:0:
256,192,118912,1,0,0:0:0:0:
280,200,119060,1,8,0:0:0:0:
275,203,119357,1,0,0:0:0:0:
272,207,119654,1,8,0:0:0:0:
256,188,119803,1,0,0:0:0:0:
256,188,119951,1,0,0:0:0:0:
280,200,120249,1,0,0:0:0:0:
272,207,120546,1,8,0:0:0:0:
272,207,120843,1,8,0:0:0:0:
264,192,121140,1,0,0:0:0:0:
264,192,121288,1,0,0:0:0:0:
280,200,121437,1,0,0:0:0:0:
264,192,121585,1,8,0:0:0:0:
256,196,121882,1,0,0:0:0:0:
261,187,122031,1,0,0:0:0:0:
253,191,122328,1,8,0:0:0:0:
280,200,122625,1,0,0:0:0:0:
256,196,122773,1,8,0:0:0:0:
248,192,122922,1,0,0:0:0:0:
257,194,123219,1,8,0:0:0:0:
256,196,123516,1,0,0:0:0:0:
256,196,123664,1,0,0:0:0:0:
280,200,123813,1,8,0:0:0:0:
253,191,124110,1,0,0:0:0:0:
257,191,124407,1,8,0:0:0:0:
256,196,124555,1,8,0:0:0:0:
256,192,124704,1,0,0:0:0:0:
280,200,125001,1,0,0:0:0:0:
257,191,125298,1,0,0:0:0:0:
257,191,125595,1,8,0:0:0:0:
253,191,125892,1,0,0:0:0:0:
257,191,126041,1,0,0:0:0:0:
276,192,126189,1,8,0:0:0:0:
257,191,126486,1,8,0:0:0:0:
264,192,126783,1,0,0:0:0:0:
257,191,126932,1,8,0:0:0:0:
257,191,127080,1,0,0:0:0:0:
256,188,127377,1,0,0:0:0:0:
257,192,127674,1,0,0:0:0:0:
257,192,127971,1,8,0:0:0:0:
248,188,128268,1,0,0:0:0:0:
248,192,128417,1,0,0:0:0:0:
256,188,128565,1,8,0:0:0:0:
256,188,128862,1,0,0:0:0:0:
256,188,129159,1,0,0:0:0:0:
257,192,129308,1,0,0:0:0:0:
257,192,129456,1,8,0:0:0:0:
256,188,129753,1,0,0:0:0:0:
256,188,130051,1,0,0:0:0:0:
256,188,130348,1,8,0:0:0:0:
256,188,130496,1,0,0:0:0:0:
256,188,130645,1,0,0:0:0:0:
256,188,130942,1,8,0:0:0:0:
256,188,131239,1,0,0:0:0:0:
256,188,131387,1,0,0:0:0:0:
256,188,131536,1,8,0:0:0:0:
256,188,131833,1,8,0:0:0:0:
256,188,132130,1,0,0:0:0:0:
256,188,132427,1,0,0:0:0:0:
256,188,132575,1,0,0:0:0:0:
256,188,132724,1,8,0:0:0:0:
256,188,133021,1,0,0:0:0:0:
256,188,133318,1,0,0:0:0:0:
256,188,133615,1,0,0:0:0:0:
256,188,133763,1,0,0:0:0:0:
256,188,133912,1,8,0:0:0:0:
256,188,134209,1,0,0:0:0:0:
256,188,134357,1,0,0:0:0:0:
256,188,134506,1,8,0:0:0:0:
256,188,135100,1,0,0:0:0:0:
256,188,135397,1,8,0:0:0:0:
256,188,135694,1,0,0:0:0:0:
256,188,136288,1,12,0:0:0:0:
256,188,136734,1,0,0:0:0:0:
256,188,136882,1,0,0:0:0:0:
256,188,137031,1,8,0:0:0:0:
256,188,137179,1,0,0:0:0:0:
256,188,137328,1,8,0:0:0:0:
256,188,137922,1,4,0:0:0:0:
256,188,138219,1,0,0:0:0:0:
256,188,138367,1,0,0:0:0:0:
256,188,138516,1,8,0:0:0:0:
256,188,138664,1,0,0:0:0:0:
256,188,138813,1,8,0:0:0:0:
256,188,139110,1,0,0:0:0:0:
256,188,139407,1,0,0:0:0:0:
256,188,139555,1,8,0:0:0:0:
256,188,139704,1,8,0:0:0:0:
256,188,139852,1,0,0:0:0:0:
256,188,140150,1,0,0:0:0:0:
256,188,140298,1,0,0:0:0:0:
256,188,140595,1,8,0:0:0:0:
256,188,141041,1,0,0:0:0:0:
256,188,141338,1,0,0:0:0:0:
256,188,141486,1,0,0:0:0:0:
256,188,141635,1,8,0:0:0:0:
256,188,141932,1,0,0:0:0:0:
256,188,142080,1,0,0:0:0:0:
256,188,142377,1,0,0:0:0:0:
256,188,142525,1,8,0:0:0:0:
256,188,142674,1,8,0:0:0:0:
256,188,142971,1,4,0:0:0:0:
256,188,143268,1,12,0:0:0:0:
256,188,143565,1,12,0:0:0:0:
256,188,143862,1,0,0:0:0:0:
256,188,144159,1,0,0:0:0:0:
256,188,144308,1,8,0:0:0:0:
256,188,144456,1,0,0:0:0:0:
256,188,144605,1,8,0:0:0:0:
256,188,144902,1,0,0:0:0:0:
256,188,145199,1,8,0:0:0:0:
256,188,145348,1,0,0:0:0:0:
256,188,145496,1,0,0:0:0:0:
256,188,145793,1,8,0:0:0:0:
256,188,146090,1,8,0:0:0:0:
256,188,146239,1,0,0:0:0:0:
256,188,146387,1,8,0:0:0:0:
256,188,146684,1,0,0:0:0:0:
252,192,146833,1,0,0:0:0:0:
256,188,147130,1,0,0:0:0:0:
256,188,147278,1,0,0:0:0:0:
256,188,147427,1,8,0:0:0:0:
256,188,147724,1,0,0:0:0:0:
256,188,147872,1,0,0:0:0:0:
256,188,148021,1,8,0:0:0:0:
256,188,148169,1,8,0:0:0:0:
256,188,148318,1,0,0:0:0:0:
252,192,148615,1,0,0:0:0:0:
256,188,148763,1,8,0:0:0:0:
256,188,149060,1,0,0:0:0:0:
256,188,149357,1,8,0:0:0:0:
256,188,149506,1,0,0:0:0:0:
256,188,149803,1,0,0:0:0:0:
256,188,149951,1,0,0:0:0:0:
256,188,150249,1,8,0:0:0:0:
256,188,150545,1,0,0:0:0:0:
256,188,150694,1,0,0:0:0:0:
256,188,150842,1,8,0:0:0:0:
256,188,150991,1,0,0:0:0:0:
256,188,151288,1,0,0:0:0:0:
256,188,151437,1,0,0:0:0:0:
256,188,151585,1,8,0:0:0:0:
256,188,151734,1,0,0:0:0:0:
256,188,151882,1,0,0:0:0:0:
256,188,152031,1,8,0:0:0:0:
256,188,152179,1,0,0:0:0:0:
256,188,152476,1,0,0:0:0:0:
256,188,152625,1,8,0:0:0:0:
256,188,152922,1,0,0:0:0:0:
248,192,153219,1,8,0:0:0:0:
256,188,153367,1,8,0:0:0:0:
256,188,153664,1,0,0:0:0:0:
256,188,153813,1,8,0:0:0:0:
256,188,153961,1,8,0:0:0:0:
256,188,154110,1,0,0:0:0:0:
256,188,154407,1,0,0:0:0:0:
256,188,154704,1,12,0:0:0:0:
256,188,155298,1,0,0:0:0:0:
256,188,155595,1,8,0:0:0:0:
250,191,155892,1,0,0:0:0:0:
250,191,156189,1,0,0:0:0:0:
256,188,156338,1,0,0:0:0:0:
256,188,156486,1,8,0:0:0:0:
256,188,156783,1,0,0:0:0:0:
249,191,156932,1,8,0:0:0:0:
256,188,157229,1,8,0:0:0:0:
256,188,157526,1,0,0:0:0:0:
256,188,157674,1,8,0:0:0:0:
256,184,157971,1,0,0:0:0:0:
249,191,158268,1,8,0:0:0:0:
256,188,158417,1,0,0:0:0:0:
241,191,158565,1,0,0:0:0:0:
256,188,158862,1,8,0:0:0:0:
256,188,159011,1,0,0:0:0:0:
249,191,159308,1,4,0:0:0:0:
241,191,159902,1,12,0:0:0:0:
241,191,160496,1,0,0:0:0:0:
248,192,160645,1,0,0:0:0:0:
248,192,160793,1,8,0:0:0:0:
260,192,160942,1,0,0:0:0:0:
260,192,161239,1,0,0:0:0:0:
252,188,161536,1,0,0:0:0:0:
252,188,161684,1,8,0:0:0:0:
241,191,161833,1,0,0:0:0:0:
264,196,162130,1,0,0:0:0:0:
260,192,162278,1,8,0:0:0:0:
256,192,162575,1,0,0:0:0:0:
260,192,162724,1,8,0:0:0:0:
260,192,162872,1,8,0:0:0:0:
260,192,163021,1,0,0:0:0:0:
241,191,163318,1,0,0:0:0:0:
260,192,163466,1,8,0:0:0:0:
256,192,163763,1,0,0:0:0:0:
260,192,164060,1,8,0:0:0:0:
260,192,164209,1,0,0:0:0:0:
241,191,164506,1,0,0:0:0:0:
260,192,164803,1,0,0:0:0:0:
260,188,164951,1,8,0:0:0:0:
260,188,165100,1,8,0:0:0:0:
264,184,165397,1,0,0:0:0:0:
260,192,165694,1,0,0:0:0:0:
260,192,165843,1,0,0:0:0:0:
240,190,165991,1,8,0:0:0:0:
252,192,166288,1,0,0:0:0:0:
252,192,166437,1,0,0:0:0:0:
260,192,166585,1,8,0:0:0:0:
236,190,166882,1,8,0:0:0:0:
240,190,167179,1,0,0:0:0:0:
260,192,167476,1,0,0:0:0:0:
260,192,167625,1,0,0:0:0:0:
252,192,167774,1,8,0:0:0:0:
240,190,168070,1,8,0:0:0:0:
260,192,168367,1,8,0:0:0:0:
256,188,168516,1,0,0:0:0:0:
256,188,168664,1,8,0:0:0:0:
256,196,168961,1,8,0:0:0:0:
252,196,169110,1,0,0:0:0:0:
236,190,169258,1,0,0:0:0:0:
236,190,169555,1,8,0:0:0:0:
260,184,169704,1,0,0:0:0:0:
260,192,170001,1,0,0:0:0:0:
256,196,170150,1,8,0:0:0:0:
236,190,170447,1,0,0:0:0:0:
256,196,170744,1,8,0:0:0:0:
256,192,171041,1,0,0:0:0:0:
256,192,171189,1,8,0:0:0:0:
260,192,171338,1,0,0:0:0:0:
236,190,171486,1,0,0:0:0:0:
260,200,171635,1,8,0:0:0:0:
236,190,171932,1,8,0:0:0:0:
256,192,172229,1,0,0:0:0:0:
256,196,172377,1,0,0:0:0:0:
260,192,172526,1,8,0:0:0:0:
256,192,172823,1,0,0:0:0:0:
236,190,172971,1,8,0:0:0:0:
256,196,173268,1,0,0:0:0:0:
260,200,173417,1,0,0:0:0:0:
260,192,173565,1,8,0:0:0:0:
256,200,173862,5,0,0:0:0:0:
236,190,174011,1,8,0:0:0:0:
236,190,174308,1,0,0:0:0:0:
248,196,174605,1,0,0:0:0:0:
248,196,174753,1,8,0:0:0:0:
256,192,174902,5,8,0:0:0:0:
256,192,175496,1,0,0:0:0:0:
256,192,176090,1,8,0:0:0:0:
256,192,176684,1,0,0:0:0:0:
256,192,177278,1,8,0:0:0:0:
256,192,177872,1,0,0:0:0:0:
256,192,178466,1,8,0:0:0:0:
256,192,178763,1,8,0:0:0:0:
256,192,179060,1,0,0:0:0:0:
256,192,179654,1,8,0:0:0:0:
256,192,180248,1,0,0:0:0:0:
256,192,180842,1,8,0:0:0:0:
256,192,181436,1,0,0:0:0:0:
256,192,182030,1,8,0:0:0:0:
256,192,182624,1,0,0:0:0:0:
256,192,183219,1,0,0:0:0:0:
256,192,183516,1,0,0:0:0:0:
256,192,183813,1,8,0:0:0:0:
256,192,184407,1,8,0:0:0:0:
256,192,185001,1,0,0:0:0:0:
256,192,185595,1,8,0:0:0:0:
256,192,186189,1,0,0:0:0:0:
256,192,186783,1,8,0:0:0:0:
256,192,187377,1,0,0:0:0:0:
256,192,187971,1,8,0:0:0:0:
256,192,188515,1,8,0:0:0:0:
256,192,189159,12,0,193912,0:0:0:0:
256,192,194506,5,0,0:0:0:0:
256,192,195100,1,8,0:0:0:0:
264,200,195694,1,0,0:0:0:0:
256,192,196288,1,0,0:0:0:0:
256,204,196585,1,0,0:0:0:0:
264,200,196882,1,0,0:0:0:0:
256,192,197476,1,8,0:0:0:0:
264,200,198070,1,0,0:0:0:0:
256,192,198664,1,0,0:0:0:0:
264,200,199258,1,0,0:0:0:0:
256,192,199852,1,8,0:0:0:0:
264,200,200446,1,0,0:0:0:0:
256,192,201040,1,0,0:0:0:0:
256,204,201337,1,0,0:0:0:0:
260,200,201634,1,0,0:0:0:0:
256,192,202228,1,8,0:0:0:0:
256,192,202822,1,0,0:0:0:0:
256,192,203417,1,0,0:0:0:0:
256,192,204011,1,0,0:0:0:0:
256,192,204605,1,8,0:0:0:0:
256,192,205199,1,0,0:0:0:0:
256,192,205793,1,0,0:0:0:0:
256,204,206090,1,0,0:0:0:0:
256,192,206387,1,0,0:0:0:0:
256,192,206981,1,8,0:0:0:0:
256,192,207575,1,0,0:0:0:0:
256,192,208169,1,0,0:0:0:0:
256,192,208763,1,0,0:0:0:0:
256,192,209357,1,8,0:0:0:0:
256,192,209951,1,0,0:0:0:0:
256,192,210545,1,0,0:0:0:0:
256,204,210842,1,0,0:0:0:0:
256,192,211139,1,0,0:0:0:0:
256,192,211733,1,8,0:0:0:0:
256,192,212327,1,8,0:0:0:0:
256,192,212921,1,0,0:0:0:0:
256,192,213516,1,0,0:0:0:0:
256,192,214110,1,8,0:0:0:0:
256,204,214407,1,0,0:0:0:0:
256,192,214704,1,0,0:0:0:0:
256,192,215298,1,0,0:0:0:0:
256,192,215892,1,0,0:0:0:0:
256,192,216486,1,8,0:0:0:0:
256,192,217080,1,0,0:0:0:0:
256,192,217674,1,0,0:0:0:0:
256,192,218268,1,0,0:0:0:0:
256,192,218862,1,0,0:0:0:0:
256,204,219159,1,0,0:0:0:0:
256,192,219456,1,8,0:0:0:0:
256,192,220050,1,8,0:0:0:0:
256,192,220644,1,8,0:0:0:0:
256,192,221238,1,8,0:0:0:0:
256,204,221535,1,0,0:0:0:0:
256,192,221832,1,0,0:0:0:0:
256,192,222426,1,0,0:0:0:0:
256,192,223021,1,8,0:0:0:0:
256,192,223615,1,0,0:0:0:0:
256,204,223912,1,0,0:0:0:0:
256,192,224209,1,8,0:0:0:0:
256,192,224803,1,0,0:0:0:0:
256,192,225397,1,8,0:0:0:0:
264,196,225991,1,8,0:0:0:0:
256,204,226288,1,0,0:0:0:0:
256,192,226585,1,0,0:0:0:0:
252,188,227179,1,4,0:0:0:0:
256,188,227476,1,0,0:0:0:0:
256,188,227773,1,0,0:0:0:0:
264,196,228367,1,8,0:0:0:0:
252,188,228664,1,0,0:0:0:0:
252,188,228961,1,0,0:0:0:0:
256,192,229555,1,0,0:0:0:0:
252,188,229852,1,0,0:0:0:0:
252,188,230149,1,0,0:0:0:0:
256,192,230743,1,8,0:0:0:0:
256,192,231040,1,0,0:0:0:0:
248,188,231337,1,0,0:0:0:0:
256,192,231931,1,0,0:0:0:0:
248,188,232228,1,0,0:0:0:0:
248,188,232525,1,0,0:0:0:0:
256,192,233120,1,8,0:0:0:0:
248,188,233417,1,0,0:0:0:0:
248,188,233714,1,0,0:0:0:0:
256,192,234308,1,0,0:0:0:0:
256,192,234902,1,0,0:0:0:0:
256,192,235496,1,8,0:0:0:0:
256,192,236090,1,0,0:0:0:0:
256,192,236387,1,0,0:0:0:0:
256,192,236684,1,8,0:0:0:0:
280,200,237872,1,0,0:0:0:0:
271,203,238169,1,0,0:0:0:0:
280,200,238466,1,8,0:0:0:0:
256,192,238763,1,0,0:0:0:0:
256,192,238912,1,0,0:0:0:0:
280,200,239060,1,8,0:0:0:0:
275,203,239357,1,0,0:0:0:0:
272,207,239654,1,8,0:0:0:0:
256,188,239803,1,0,0:0:0:0:
256,188,239951,1,0,0:0:0:0:
280,200,240249,1,0,0:0:0:0:
272,207,240546,1,8,0:0:0:0:
272,207,240843,1,8,0:0:0:0:
264,192,241140,1,0,0:0:0:0:
264,192,241288,1,8,0:0:0:0:
280,200,241437,1,8,0:0:0:0:
264,192,241585,1,8,0:0:0:0:
256,196,241882,1,8,0:0:0:0:
261,187,242031,1,0,0:0:0:0:
253,191,242328,1,8,0:0:0:0:
280,200,242625,1,0,0:0:0:0:
256,196,242773,1,8,0:0:0:0:
248,192,242922,1,0,0:0:0:0:
257,194,243219,1,8,0:0:0:0:
256,196,243516,1,0,0:0:0:0:
256,196,243664,1,0,0:0:0:0:
280,200,243813,1,8,0:0:0:0:
253,191,244110,1,0,0:0:0:0:
257,191,244407,1,8,0:0:0:0:
256,196,244555,1,0,0:0:0:0:
256,192,244704,1,0,0:0:0:0:
280,200,245001,1,0,0:0:0:0:
257,191,245298,1,0,0:0:0:0:
257,191,245595,1,8,0:0:0:0:
253,191,245892,1,0,0:0:0:0:
257,191,246041,1,0,0:0:0:0:
276,192,246189,1,8,0:0:0:0:
257,191,246486,1,8,0:0:0:0:
264,192,246783,1,0,0:0:0:0:
257,191,246932,1,8,0:0:0:0:
257,191,247080,1,0,0:0:0:0:
256,188,247377,1,0,0:0:0:0:
257,192,247674,1,0,0:0:0:0:
257,192,247971,1,8,0:0:0:0:
248,188,248268,1,0,0:0:0:0:
248,192,248417,1,8,0:0:0:0:
256,188,248565,1,8,0:0:0:0:
256,188,248862,1,0,0:0:0:0:
256,188,249159,1,0,0:0:0:0:
257,192,249308,1,8,0:0:0:0:
257,192,249456,1,8,0:0:0:0:
256,188,249753,1,0,0:0:0:0:
256,188,250051,1,0,0:0:0:0:
256,188,250348,1,8,0:0:0:0:
256,188,250496,1,0,0:0:0:0:
256,188,250645,1,0,0:0:0:0:
256,188,250942,1,8,0:0:0:0:
256,188,251239,1,0,0:0:0:0:
256,188,251387,1,0,0:0:0:0:
256,188,251536,1,8,0:0:0:0:
256,188,251833,1,8,0:0:0:0:
256,188,252130,1,0,0:0:0:0:
256,188,252427,1,0,0:0:0:0:
256,188,252575,1,0,0:0:0:0:
256,188,252724,1,8,0:0:0:0:
256,188,253021,1,0,0:0:0:0:
256,188,253318,1,0,0:0:0:0:
256,188,253615,1,0,0:0:0:0:
256,188,253763,1,0,0:0:0:0:
256,188,253912,1,8,0:0:0:0:
256,188,254209,1,0,0:0:0:0:
256,188,254357,1,0,0:0:0:0:
256,188,254506,1,8,0:0:0:0:
256,188,255100,1,0,0:0:0:0:
256,188,255397,1,8,0:0:0:0:
256,188,255694,1,0,0:0:0:0:
256,192,255991,1,0,0:0:0:0:
256,192,256288,1,8,0:0:0:0:
256,188,256734,1,0,0:0:0:0:
256,188,256882,1,0,0:0:0:0:
256,188,257031,1,8,0:0:0:0:
256,188,257179,1,0,0:0:0:0:
256,188,257328,1,8,0:0:0:0:
256,192,257624,1,0,0:0:0:0:
256,188,257773,1,0,0:0:0:0:
256,192,258070,1,8,0:0:0:0:
256,188,258219,1,0,0:0:0:0:
256,188,258367,1,0,0:0:0:0:
256,188,258516,1,8,0:0:0:0:
256,188,258813,1,8,0:0:0:0:
256,188,258961,1,8,0:0:0:0:
256,188,259110,1,0,0:0:0:0:
260,200,259258,1,8,0:0:0:0:
256,188,259407,1,8,0:0:0:0:
256,188,259555,1,0,0:0:0:0:
256,188,259704,1,0,0:0:0:0:
256,188,259852,1,8,0:0:0:0:
256,188,260150,1,0,0:0:0:0:
256,188,260298,1,0,0:0:0:0:
260,188,260446,1,0,0:0:0:0:
256,188,260595,1,8,0:0:0:0:
252,192,260743,1,0,0:0:0:0:
252,192,261040,1,8,0:0:0:0:
256,188,261041,1,0,0:0:0:0:
256,188,261338,1,0,0:0:0:0:
256,188,261486,1,0,0:0:0:0:
256,188,261635,1,8,0:0:0:0:
256,188,261932,1,0,0:0:0:0:
256,188,262080,1,0,0:0:0:0:
252,192,262228,1,0,0:0:0:0:
256,188,262377,1,8,0:0:0:0:
256,188,262525,1,8,0:0:0:0:
260,188,262822,1,0,0:0:0:0:
252,192,263120,1,0,0:0:0:0:
256,188,263268,1,8,0:0:0:0:
252,192,263417,1,0,0:0:0:0:
256,188,263565,1,8,0:0:0:0:
256,188,263862,1,0,0:0:0:0:
260,188,264011,1,0,0:0:0:0:
256,188,264159,1,0,0:0:0:0:
256,188,264308,1,8,0:0:0:0:
256,188,264456,1,0,0:0:0:0:
252,192,264605,1,0,0:0:0:0:
256,188,264902,1,0,0:0:0:0:
260,188,265199,1,8,0:0:0:0:
256,188,265348,1,0,0:0:0:0:
252,192,265496,1,0,0:0:0:0:
256,188,265793,1,8,0:0:0:0:
256,188,266090,1,8,0:0:0:0:
256,188,266239,1,0,0:0:0:0:
260,188,266387,1,8,0:0:0:0:
256,188,266684,1,0,0:0:0:0:
252,192,266833,1,0,0:0:0:0:
252,192,266981,1,8,0:0:0:0:
256,188,267278,1,0,0:0:0:0:
256,188,267427,1,8,0:0:0:0:
256,188,267724,1,0,0:0:0:0:
256,188,267872,1,0,0:0:0:0:
256,188,268021,1,8,0:0:0:0:
256,188,268169,1,8,0:0:0:0:
256,188,268318,1,0,0:0:0:0:
252,192,268615,1,0,0:0:0:0:
260,188,268763,1,0,0:0:0:0:
256,188,269060,1,0,0:0:0:0:
256,188,269209,1,8,0:0:0:0:
256,188,269506,1,0,0:0:0:0:
256,188,269654,1,0,0:0:0:0:
256,188,269951,1,0,0:0:0:0:
256,188,270249,1,8,0:0:0:0:
256,188,270545,1,0,0:0:0:0:
256,188,270694,1,0,0:0:0:0:
252,192,270842,1,0,0:0:0:0:
256,188,270991,1,0,0:0:0:0:
256,188,271288,1,0,0:0:0:0:
260,188,271436,1,4,0:0:0:0:
256,188,271437,1,0,0:0:0:0:
256,188,271585,1,8,0:0:0:0:
256,188,271734,1,0,0:0:0:0:
256,188,271882,1,0,0:0:0:0:
256,188,272031,1,8,0:0:0:0:
256,188,272179,1,0,0:0:0:0:
260,188,272327,1,0,0:0:0:0:
256,188,272476,1,0,0:0:0:0:
256,188,272625,1,8,0:0:0:0:
260,188,272921,1,8,0:0:0:0:
256,188,272922,1,0,0:0:0:0:
248,192,273219,1,8,0:0:0:0:
256,188,273367,1,8,0:0:0:0:
260,188,273516,1,0,0:0:0:0:
256,188,273664,1,0,0:0:0:0:
256,188,273813,1,8,0:0:0:0:
256,188,273961,1,8,0:0:0:0:
260,188,274110,1,0,0:0:0:0:
256,188,274407,1,0,0:0:0:0:
260,188,274704,1,8,0:0:0:0:
260,188,275298,1,0,0:0:0:0:
256,188,275595,1,8,0:0:0:0:
260,188,275892,1,0,0:0:0:0:
260,188,276189,1,0,0:0:0:0:
256,188,276338,1,0,0:0:0:0:
256,188,276486,1,8,0:0:0:0:
256,188,276783,1,0,0:0:0:0:
249,191,276932,1,8,0:0:0:0:
260,188,277080,1,0,0:0:0:0:
256,188,277229,1,8,0:0:0:0:
260,188,277377,1,8,0:0:0:0:
256,188,277526,1,0,0:0:0:0:
256,188,277674,1,8,0:0:0:0:
256,184,277971,1,0,0:0:0:0:
260,188,278268,1,0,0:0:0:0:
256,188,278417,1,0,0:0:0:0:
241,191,278565,1,0,0:0:0:0:
256,188,278862,1,8,0:0:0:0:
256,188,279011,1,0,0:0:0:0:
249,191,279308,1,4,0:0:0:0:
260,188,279456,1,12,0:0:0:0:
241,191,279902,1,12,0:0:0:0:
260,192,284803,1,0,0:0:0:0:
264,184,285397,1,0,0:0:0:0:
240,190,285991,1,8,0:0:0:0:
260,192,286585,1,0,0:0:0:0:
252,192,287476,1,8,0:0:0:0:
256,188,292525,5,12,0:0:0:0:
260,192,292526,1,8,0:0:0:0:
