osu file format v14

[General]
AudioFilename: Lost Time Memory.mp3
AudioLeadIn: 2000
PreviewTime: 94079
Countdown: 0
SampleSet: Soft
StackLeniency: 0.7
Mode: 1
LetterboxInBreaks: 0
WidescreenStoryboard: 1

[Editor]
Bookmarks: 185507,194365,208365,217222
DistanceSpacing: 0.5
BeatDivisor: 1
GridSize: 4
TimelineZoom: 1

[Metadata]
Title:Lost Time Memory
TitleUnicode:ロ ス タ イ ム メ モ リ ー
Artist:Jin feat. Kouta Matsuyama
ArtistUnicode:じん ft. 松山晃太
Creator:-FireThunder-
Version:Futsuu
Source:Mekakucity Actors
Tags:Shizen no Teki-P BYEE the ROUND Kagerou Project Mekakushi Dan
BeatmapID:699610
BeatmapSetID:309299

[Difficulty]
HPDrainRate:3
CircleSize:3
OverallDifficulty:4
ApproachRate:4
SliderMultiplier:1.2
SliderTickRate:1

[Events]
//Background and Video events
0,0,"LostTimeMemory.jpg",0,0
//Break Periods
2,287676,291205
//Storyboard Layer 0 (Background)
//Storyboard Layer 1 (Fail)
//Storyboard Layer 2 (Pass)
//Storyboard Layer 3 (Foreground)
//Storyboard Sound Samples

[TimingPoints]
1043,300,4,2,0,60,1,8
1043,-200,4,2,0,60,0,8
41844,297.029702970297,4,1,0,60,1,8
41844,-133.333333333333,4,1,0,60,0,8
42130,297.029702970297,4,1,0,85,1,0
42130,-133.333333333333,4,1,0,85,0,0
43021,297.029702970297,4,1,0,85,1,0
43021,-133.333333333333,4,1,0,85,0,0
98862,-133.333333333333,4,1,0,80,0,1
117872,-133.333333333333,4,1,0,70,0,0
156189,-133.333333333333,4,1,0,80,0,1
174605,-133.333333333333,4,1,0,80,0,0
193856,-200,4,2,0,65,0,0
217570,-133.333333333333,4,2,0,70,0,0
226882,-133.333333333333,4,1,0,70,0,0
237872,-133.333333333333,4,1,0,80,0,1
271139,-133.333333333333,4,1,0,80,0,0

[Colours]
Combo1 : 0,0,255
Combo2 : 255,0,0

[HitObjects]
260,192,1043,5,0,0:0:0:0:
266,190,1343,1,0,0:0:0:0:
266,190,1643,1,8,0:0:0:0:
266,190,2243,1,0,0:0:0:0:
266,190,2843,1,8,0:0:0:0:
256,192,3443,1,8,0:0:0:0:
266,190,3743,1,0,0:0:0:0:
266,190,4043,1,8,0:0:0:0:
266,190,4643,1,0,0:0:0:0:
256,192,5243,1,8,0:0:0:0:
256,192,5843,1,0,0:0:0:0:
259,189,6143,1,0,0:0:0:0:
254,188,6443,1,8,0:0:0:0:
256,192,7043,1,0,0:0:0:0:
256,192,7643,1,8,0:0:0:0:
256,192,8243,1,0,0:0:0:0:
256,192,8843,1,8,0:0:0:0:
256,192,9443,1,0,0:0:0:0:
256,192,10043,1,8,0:0:0:0:
256,192,10643,1,0,0:0:0:0:
256,192,10943,1,0,0:0:0:0:
256,192,11243,1,8,0:0:0:0:
256,192,11843,1,0,0:0:0:0:
256,192,12443,1,8,0:0:0:0:
260,192,13043,1,8,0:0:0:0:
256,192,13343,1,8,0:0:0:0:
256,192,13643,1,0,0:0:0:0:
256,192,14243,1,0,0:0:0:0:
260,192,14843,1,8,0:0:0:0:
256,192,15443,1,0,0:0:0:0:
256,192,15743,1,0,0:0:0:0:
256,192,16043,1,8,0:0:0:0:
252,192,16643,1,8,0:0:0:0:
256,192,17243,1,0,0:0:0:0:
256,192,17843,1,0,0:0:0:0:
256,192,18443,1,0,0:0:0:0:
256,192,19043,1,8,0:0:0:0:
256,192,19643,1,8,0:0:0:0:
256,192,20243,1,0,0:0:0:0:
256,192,20543,1,0,0:0:0:0:
256,192,20843,1,0,0:0:0:0:
256,192,21443,1,8,0:0:0:0:
256,192,22043,1,0,0:0:0:0:
276,196,22643,1,0,0:0:0:0:
256,192,22943,1,0,0:0:0:0:
256,192,23243,1,8,0:0:0:0:
271,195,23843,1,0,0:0:0:0:
276,196,24443,1,8,0:0:0:0:
276,196,25043,1,0,0:0:0:0:
247,187,25343,1,0,0:0:0:0:
247,187,25643,1,8,0:0:0:0:
251,191,26243,1,0,0:0:0:0:
251,192,26843,1,8,0:0:0:0:
276,196,27443,1,0,0:0:0:0:
257,190,27743,1,0,0:0:0:0:
256,195,28043,1,8,0:0:0:0:
251,192,28643,1,0,0:0:0:0:
251,191,29243,1,8,0:0:0:0:
276,196,29843,1,8,0:0:0:0:
251,192,30143,1,8,0:0:0:0:
251,192,30443,1,0,0:0:0:0:
251,191,31043,1,8,0:0:0:0:
256,188,31643,1,0,0:0:0:0:
280,192,32243,1,0,0:0:0:0:
246,185,32543,1,0,0:0:0:0:
251,191,32843,1,8,0:0:0:0:
252,181,33443,1,8,0:0:0:0:
252,181,34043,1,0,0:0:0:0:
280,192,34643,1,0,0:0:0:0:
252,181,35243,1,8,0:0:0:0:
252,181,35843,1,8,0:0:0:0:
250,182,36443,1,0,0:0:0:0:
280,192,37043,1,0,0:0:0:0:
280,192,37643,1,8,0:0:0:0:
280,192,38243,1,0,0:0:0:0:
259,193,38843,1,0,0:0:0:0:
280,192,39443,1,0,0:0:0:0:
280,192,40043,1,8,0:0:0:0:
254,192,40943,1,0,0:0:0:0:
251,196,41243,1,8,0:0:0:0:
280,192,41543,1,8,0:0:0:0:
280,192,41844,1,0,0:0:0:0:
280,192,42427,1,0,0:0:0:0:
280,192,43021,1,0,0:0:0:0:
256,185,43318,1,8,0:0:0:0:
256,183,43615,1,8,0:0:0:0:
256,185,43912,1,0,0:0:0:0:
280,192,44209,1,0,0:0:0:0:
256,185,44803,1,0,0:0:0:0:
280,192,45397,1,0,0:0:0:0:
256,185,45694,1,0,0:0:0:0:
256,188,45991,1,8,0:0:0:0:
256,185,46288,1,8,0:0:0:0:
280,192,46585,1,0,0:0:0:0:
280,192,47179,1,0,0:0:0:0:
280,192,47773,1,0,0:0:0:0:
261,184,48070,1,8,0:0:0:0:
261,184,48367,1,8,0:0:0:0:
261,184,48664,1,0,0:0:0:0:
280,192,48961,1,0,0:0:0:0:
261,184,49555,1,0,0:0:0:0:
280,192,50149,1,0,0:0:0:0:
258,190,50446,1,0,0:0:0:0:
280,192,50743,1,8,0:0:0:0:
261,184,51040,1,8,0:0:0:0:
280,192,51337,1,0,0:0:0:0:
280,192,51931,1,0,0:0:0:0:
280,192,52525,1,0,0:0:0:0:
261,184,52822,1,8,0:0:0:0:
280,192,53120,1,8,0:0:0:0:
262,188,53417,1,0,0:0:0:0:
280,200,53714,1,0,0:0:0:0:
262,188,54308,1,0,0:0:0:0:
280,200,54902,1,0,0:0:0:0:
262,188,55199,1,0,0:0:0:0:
280,200,55496,1,8,0:0:0:0:
264,204,55793,1,8,0:0:0:0:
280,200,56090,1,0,0:0:0:0:
280,200,56684,1,0,0:0:0:0:
280,200,57278,1,0,0:0:0:0:
270,199,57575,1,8,0:0:0:0:
280,200,57872,1,8,0:0:0:0:
270,198,58169,1,0,0:0:0:0:
280,200,58466,1,0,0:0:0:0:
280,200,59060,1,0,0:0:0:0:
280,200,59654,1,8,0:0:0:0:
280,200,60248,1,0,0:0:0:0:
280,200,60842,1,0,0:0:0:0:
271,203,61139,1,0,0:0:0:0:
280,200,61436,1,8,0:0:0:0:
280,200,62030,1,8,0:0:0:0:
275,203,62327,1,0,0:0:0:0:
272,207,62624,1,8,0:0:0:0:
280,200,63219,1,0,0:0:0:0:
272,207,63516,1,8,0:0:0:0:
272,207,63813,1,8,0:0:0:0:
280,200,64407,1,4,0:0:0:0:
261,187,65001,1,0,0:0:0:0:
253,191,65298,1,8,0:0:0:0:
280,200,65595,1,0,0:0:0:0:
257,194,66189,1,8,0:0:0:0:
280,200,66783,1,0,0:0:0:0:
253,191,67080,1,0,0:0:0:0:
257,191,67377,1,8,0:0:0:0:
280,200,67971,1,0,0:0:0:0:
257,191,68268,1,0,0:0:0:0:
257,191,68565,1,8,0:0:0:0:
276,192,69159,1,8,0:0:0:0:
257,191,69456,1,0,0:0:0:0:
264,192,69753,1,8,0:0:0:0:
256,188,70347,1,0,0:0:0:0:
257,192,70644,1,0,0:0:0:0:
257,192,70941,1,8,0:0:0:0:
256,188,71535,1,8,0:0:0:0:
256,188,71832,1,0,0:0:0:0:
256,188,72129,1,0,0:0:0:0:
256,188,72723,1,0,0:0:0:0:
256,188,73021,1,0,0:0:0:0:
256,188,73318,1,8,0:0:0:0:
256,188,73912,1,8,0:0:0:0:
256,188,74209,1,0,0:0:0:0:
256,188,74506,1,8,0:0:0:0:
256,188,75100,1,0,0:0:0:0:
256,188,75397,1,0,0:0:0:0:
256,188,75694,1,8,0:0:0:0:
256,188,76288,1,0,0:0:0:0:
256,188,76585,1,0,0:0:0:0:
256,188,76882,1,8,0:0:0:0:
256,188,77476,1,8,0:0:0:0:
256,188,77773,1,0,0:0:0:0:
256,188,78070,1,0,0:0:0:0:
256,188,78664,1,0,0:0:0:0:
256,188,79258,1,8,0:0:0:0:
256,188,79852,1,0,0:0:0:0:
256,188,80149,1,0,0:0:0:0:
256,188,80446,1,8,0:0:0:0:
256,188,81040,1,0,0:0:0:0:
256,188,81337,1,0,0:0:0:0:
256,188,81634,1,8,0:0:0:0:
256,188,82228,1,0,0:0:0:0:
256,188,82525,1,0,0:0:0:0:
256,188,82822,1,0,0:0:0:0:
256,188,83417,1,0,0:0:0:0:
256,188,83714,1,0,0:0:0:0:
256,188,84011,1,8,0:0:0:0:
256,188,84605,1,8,0:0:0:0:
256,188,84902,1,0,0:0:0:0:
256,188,85199,1,0,0:0:0:0:
256,188,85793,1,8,0:0:0:0:
256,188,86090,1,0,0:0:0:0:
256,188,86387,1,0,0:0:0:0:
256,188,86981,1,0,0:0:0:0:
256,188,87575,1,8,0:0:0:0:
256,188,88169,1,8,0:0:0:0:
256,188,88466,1,0,0:0:0:0:
256,188,88763,1,8,0:0:0:0:
256,188,89357,1,8,0:0:0:0:
256,188,89654,1,0,0:0:0:0:
256,188,89951,1,0,0:0:0:0:
256,188,90545,1,8,0:0:0:0:
256,188,90842,1,0,0:0:0:0:
256,188,91139,1,0,0:0:0:0:
256,188,91733,1,8,0:0:0:0:
256,188,92030,1,0,0:0:0:0:
256,188,92327,1,8,0:0:0:0:
256,188,92921,1,0,0:0:0:0:
256,188,93219,1,8,0:0:0:0:
256,188,93516,1,8,0:0:0:0:
256,188,94110,1,8,0:0:0:0:
256,188,94704,1,0,0:0:0:0:
256,188,95298,1,8,0:0:0:0:
256,188,95892,1,0,0:0:0:0:
256,188,96486,1,8,0:0:0:0:
256,188,97080,1,0,0:0:0:0:
256,188,97674,1,12,0:0:0:0:
256,188,98268,1,0,0:0:0:0:
256,188,98565,1,8,0:0:0:0:
250,191,98862,1,0,0:0:0:0:
250,191,99159,1,8,0:0:0:0:
256,188,99456,1,8,0:0:0:0:
249,191,100050,1,0,0:0:0:0:
256,188,100644,1,8,0:0:0:0:
249,191,101238,1,8,0:0:0:0:
241,191,101535,1,0,0:0:0:0:
256,188,101832,1,8,0:0:0:0:
249,191,102426,1,0,0:0:0:0:
241,191,102723,1,0,0:0:0:0:
256,188,103021,1,8,0:0:0:0:
241,191,103615,1,0,0:0:0:0:
260,192,104209,1,0,0:0:0:0:
241,191,104803,1,0,0:0:0:0:
260,192,105397,1,8,0:0:0:0:
260,192,105991,1,0,0:0:0:0:
241,191,106288,1,0,0:0:0:0:
260,192,106585,1,8,0:0:0:0:
260,192,107179,1,8,0:0:0:0:
241,191,107476,1,0,0:0:0:0:
260,192,107773,1,0,0:0:0:0:
264,184,108367,1,0,0:0:0:0:
240,190,108961,1,8,0:0:0:0:
260,192,109555,1,8,0:0:0:0:
236,190,109852,1,0,0:0:0:0:
240,190,110149,1,0,0:0:0:0:
260,192,110743,1,0,0:0:0:0:
240,190,111337,1,8,0:0:0:0:
256,196,111931,1,8,0:0:0:0:
236,190,112228,1,0,0:0:0:0:
236,190,112525,1,0,0:0:0:0:
260,192,113120,1,0,0:0:0:0:
236,190,113714,1,0,0:0:0:0:
260,192,114308,1,0,0:0:0:0:
236,190,114605,1,0,0:0:0:0:
236,190,114902,1,8,0:0:0:0:
260,192,115496,1,8,0:0:0:0:
236,190,116090,1,0,0:0:0:0:
260,192,116684,1,8,0:0:0:0:
236,190,116981,1,0,0:0:0:0:
236,190,117278,1,0,0:0:0:0:
264,192,117872,1,0,0:0:0:0:
237,200,118169,1,0,0:0:0:0:
236,190,118466,1,8,0:0:0:0:
264,192,119060,1,8,0:0:0:0:
238,200,119357,1,0,0:0:0:0:
236,190,119654,1,0,0:0:0:0:
264,192,120248,1,8,0:0:0:0:
252,200,120545,1,0,0:0:0:0:
238,200,120842,1,0,0:0:0:0:
256,192,121436,1,8,0:0:0:0:
253,200,122030,1,4,0:0:0:0:
256,192,122624,1,0,0:0:0:0:
256,192,122921,1,0,0:0:0:0:
256,192,123219,1,0,0:0:0:0:
256,192,123813,1,0,0:0:0:0:
256,192,124110,1,0,0:0:0:0:
256,192,124407,1,8,0:0:0:0:
256,192,125001,1,8,0:0:0:0:
256,192,125298,1,0,0:0:0:0:
256,192,125595,1,0,0:0:0:0:
256,192,126189,1,0,0:0:0:0:
256,192,126783,1,8,0:0:0:0:
256,192,127377,1,0,0:0:0:0:
256,192,127674,1,0,0:0:0:0:
256,192,127971,1,0,0:0:0:0:
256,192,128565,1,0,0:0:0:0:
256,192,128862,1,0,0:0:0:0:
256,192,129159,1,8,0:0:0:0:
256,192,129753,1,0,0:0:0:0:
256,192,130050,1,8,0:0:0:0:
256,192,130347,1,8,0:0:0:0:
256,192,130941,1,8,0:0:0:0:
256,192,131535,1,8,0:0:0:0:
256,192,132129,1,8,0:0:0:0:
256,192,132426,1,8,0:0:0:0:
256,192,132723,1,0,0:0:0:0:
256,192,133318,1,0,0:0:0:0:
256,192,133912,1,8,0:0:0:0:
256,192,134506,1,0,0:0:0:0:
256,192,135100,1,8,0:0:0:0:
256,192,135694,1,8,0:0:0:0:
256,192,135991,1,0,0:0:0:0:
256,192,136288,1,0,0:0:0:0:
256,192,136585,1,8,0:0:0:0:
256,192,136882,1,8,0:0:0:0:
256,192,137476,1,0,0:0:0:0:
256,192,138070,1,8,0:0:0:0:
256,192,138664,1,0,0:0:0:0:
256,192,139258,1,0,0:0:0:0:
248,192,139555,1,0,0:0:0:0:
256,192,139852,1,8,0:0:0:0:
256,192,140446,1,8,0:0:0:0:
248,192,140743,1,0,0:0:0:0:
256,192,141040,1,0,0:0:0:0:
256,192,141634,1,0,0:0:0:0:
248,192,142228,1,8,0:0:0:0:
256,192,142822,1,0,0:0:0:0:
248,192,143417,1,8,0:0:0:0:
256,192,144011,1,8,0:0:0:0:
248,192,144308,1,0,0:0:0:0:
248,192,144605,1,0,0:0:0:0:
256,192,145199,1,0,0:0:0:0:
248,192,145496,1,8,0:0:0:0:
248,192,145793,1,8,0:0:0:0:
256,192,146387,1,8,0:0:0:0:
248,192,146981,1,0,0:0:0:0:
256,192,147575,1,8,0:0:0:0:
248,192,148169,1,0,0:0:0:0:
256,192,148763,1,8,0:0:0:0:
248,192,149060,1,0,0:0:0:0:
248,192,149357,1,8,0:0:0:0:
256,192,149951,1,8,0:0:0:0:
248,192,150248,1,0,0:0:0:0:
248,192,150545,1,0,0:0:0:0:
256,192,151139,1,0,0:0:0:0:
248,192,151733,1,8,0:0:0:0:
256,192,152327,1,0,0:0:0:0:
248,192,152921,1,8,0:0:0:0:
256,192,153516,1,0,0:0:0:0:
248,192,154110,1,8,0:0:0:0:
256,192,154704,1,4,0:0:0:0:
256,192,155298,1,0,0:0:0:0:
256,192,155595,1,8,0:0:0:0:
256,192,155892,1,8,0:0:0:0:
256,192,156189,1,0,0:0:0:0:
256,192,156486,1,0,0:0:0:0:
256,192,157080,1,0,0:0:0:0:
256,192,157674,1,8,0:0:0:0:
256,192,158268,1,0,0:0:0:0:
256,192,158565,1,0,0:0:0:0:
256,192,158862,1,8,0:0:0:0:
264,192,159456,1,8,0:0:0:0:
256,192,160050,1,0,0:0:0:0:
264,192,160644,1,0,0:0:0:0:
264,192,160941,1,0,0:0:0:0:
256,192,161238,1,8,0:0:0:0:
264,192,161832,1,0,0:0:0:0:
256,192,162426,1,8,0:0:0:0:
256,192,163021,1,8,0:0:0:0:
256,192,163318,1,0,0:0:0:0:
256,192,163615,1,0,0:0:0:0:
256,192,164209,1,8,0:0:0:0:
256,192,164506,1,0,0:0:0:0:
256,192,164803,1,8,0:0:0:0:
256,192,165397,1,0,0:0:0:0:
256,192,165991,1,0,0:0:0:0:
256,192,166585,1,8,0:0:0:0:
256,192,166882,1,0,0:0:0:0:
256,192,167179,1,0,0:0:0:0:
256,192,167773,1,0,0:0:0:0:
256,192,168367,1,0,0:0:0:0:
256,192,168961,1,8,0:0:0:0:
256,192,169258,1,0,0:0:0:0:
256,192,169555,1,0,0:0:0:0:
256,192,170149,1,0,0:0:0:0:
256,192,170743,1,8,0:0:0:0:
256,192,171337,1,8,0:0:0:0:
256,192,171634,1,0,0:0:0:0:
256,192,171931,1,8,0:0:0:0:
256,192,172525,1,8,0:0:0:0:
256,192,173120,1,0,0:0:0:0:
256,192,173714,1,8,0:0:0:0:
256,192,174011,1,0,0:0:0:0:
256,192,174308,1,0,0:0:0:0:
256,192,174605,1,0,0:0:0:0:
256,192,174902,1,8,0:0:0:0:
256,192,175496,1,0,0:0:0:0:
256,192,176090,1,8,0:0:0:0:
256,192,176684,1,0,0:0:0:0:
256,192,177278,1,8,0:0:0:0:
256,192,177872,1,0,0:0:0:0:
256,192,178466,1,8,0:0:0:0:
256,192,178763,1,8,0:0:0:0:
256,192,179060,1,0,0:0:0:0:
256,192,179654,1,8,0:0:0:0:
256,192,180248,1,0,0:0:0:0:
256,192,180842,1,8,0:0:0:0:
256,192,181436,1,0,0:0:0:0:
256,192,182030,1,8,0:0:0:0:
256,192,182624,1,0,0:0:0:0:
256,192,183219,1,0,0:0:0:0:
256,192,183516,1,0,0:0:0:0:
256,192,183813,1,8,0:0:0:0:
256,192,184407,1,8,0:0:0:0:
256,192,185001,1,0,0:0:0:0:
256,192,185595,1,8,0:0:0:0:
256,192,186189,1,0,0:0:0:0:
256,192,186783,1,8,0:0:0:0:
256,192,187377,1,0,0:0:0:0:
256,192,187971,1,8,0:0:0:0:
256,192,188515,1,8,0:0:0:0:
256,192,189159,12,0,193912,0:0:0:0:
256,192,194506,5,0,0:0:0:0:
256,192,195100,1,8,0:0:0:0:
264,200,195694,1,0,0:0:0:0:
256,192,196288,1,0,0:0:0:0:
256,204,196585,1,0,0:0:0:0:
264,200,196882,1,0,0:0:0:0:
256,192,197476,1,8,0:0:0:0:
264,200,198070,1,0,0:0:0:0:
256,192,198664,1,0,0:0:0:0:
264,200,199258,1,0,0:0:0:0:
256,192,199852,1,8,0:0:0:0:
264,200,200446,1,0,0:0:0:0:
256,192,201040,1,0,0:0:0:0:
256,204,201337,1,0,0:0:0:0:
260,200,201634,1,0,0:0:0:0:
256,192,202228,1,8,0:0:0:0:
256,192,202822,1,0,0:0:0:0:
256,192,203417,1,0,0:0:0:0:
256,192,204011,1,0,0:0:0:0:
256,192,204605,1,8,0:0:0:0:
256,192,205199,1,0,0:0:0:0:
256,192,205793,1,0,0:0:0:0:
256,204,206090,1,0,0:0:0:0:
256,192,206387,1,0,0:0:0:0:
256,192,206981,1,8,0:0:0:0:
256,192,207575,1,0,0:0:0:0:
256,192,208169,1,0,0:0:0:0:
256,192,208763,1,0,0:0:0:0:
256,192,209357,1,8,0:0:0:0:
256,192,209951,1,0,0:0:0:0:
256,192,210545,1,0,0:0:0:0:
256,204,210842,1,0,0:0:0:0:
256,192,211139,1,0,0:0:0:0:
256,192,211733,1,8,0:0:0:0:
256,192,212327,1,8,0:0:0:0:
256,192,212921,1,0,0:0:0:0:
256,192,213516,1,0,0:0:0:0:
256,192,214110,1,8,0:0:0:0:
256,204,214407,1,0,0:0:0:0:
256,192,214704,1,0,0:0:0:0:
256,192,215298,1,0,0:0:0:0:
256,192,215892,1,0,0:0:0:0:
256,192,216486,1,8,0:0:0:0:
256,192,217080,1,0,0:0:0:0:
256,192,217674,1,0,0:0:0:0:
256,192,218268,1,0,0:0:0:0:
256,192,218862,1,0,0:0:0:0:
256,204,219159,1,0,0:0:0:0:
256,192,219456,1,8,0:0:0:0:
256,192,220050,1,8,0:0:0:0:
256,192,220644,1,8,0:0:0:0:
256,192,221238,1,8,0:0:0:0:
256,204,221535,1,0,0:0:0:0:
256,192,221832,1,0,0:0:0:0:
256,192,222426,1,0,0:0:0:0:
256,192,223021,1,8,0:0:0:0:
256,192,223615,1,0,0:0:0:0:
256,204,223912,1,0,0:0:0:0:
256,192,224209,1,8,0:0:0:0:
256,192,224803,1,0,0:0:0:0:
256,192,225397,1,8,0:0:0:0:
264,196,225991,1,8,0:0:0:0:
256,204,226288,1,0,0:0:0:0:
256,192,226585,1,0,0:0:0:0:
252,188,227179,1,4,0:0:0:0:
256,188,227476,1,0,0:0:0:0:
256,188,227773,1,0,0:0:0:0:
264,196,228367,1,8,0:0:0:0:
252,188,228664,1,0,0:0:0:0:
252,188,228961,1,0,0:0:0:0:
256,192,229555,1,0,0:0:0:0:
252,188,229852,1,0,0:0:0:0:
252,188,230149,1,0,0:0:0:0:
256,192,230743,1,8,0:0:0:0:
256,192,231040,1,0,0:0:0:0:
248,188,231337,1,0,0:0:0:0:
256,192,231931,1,0,0:0:0:0:
248,188,232228,1,0,0:0:0:0:
248,188,232525,1,0,0:0:0:0:
256,192,233120,1,8,0:0:0:0:
248,188,233417,1,0,0:0:0:0:
248,188,233714,1,0,0:0:0:0:
256,192,234308,1,0,0:0:0:0:
256,192,234902,1,0,0:0:0:0:
256,192,235496,1,8,0:0:0:0:
256,192,236090,1,0,0:0:0:0:
256,192,236387,1,0,0:0:0:0:
256,192,236684,1,8,0:0:0:0:
256,192,237872,1,4,0:0:0:0:
256,192,238169,1,0,0:0:0:0:
256,192,238466,1,0,0:0:0:0:
256,192,239060,1,8,0:0:0:0:
256,192,239357,1,0,0:0:0:0:
256,192,239654,1,0,0:0:0:0:
256,192,240248,1,0,0:0:0:0:
256,192,240545,1,0,0:0:0:0:
256,192,240842,1,8,0:0:0:0:
256,192,241436,1,8,0:0:0:0:
256,192,241733,1,0,0:0:0:0:
256,192,242030,1,8,0:0:0:0:
256,192,242624,1,0,0:0:0:0:
256,192,242921,1,0,0:0:0:0:
256,192,243219,1,8,0:0:0:0:
256,192,243813,1,8,0:0:0:0:
256,192,244110,1,0,0:0:0:0:
256,192,244407,1,0,0:0:0:0:
256,192,245001,1,0,0:0:0:0:
256,192,245595,1,8,0:0:0:0:
256,192,246189,1,0,0:0:0:0:
256,192,246486,1,0,0:0:0:0:
256,192,246783,1,8,0:0:0:0:
256,192,247377,1,0,0:0:0:0:
256,192,247674,1,0,0:0:0:0:
256,192,247971,1,8,0:0:0:0:
256,192,248565,1,8,0:0:0:0:
256,192,248862,1,0,0:0:0:0:
256,192,249159,1,0,0:0:0:0:
256,192,249753,1,0,0:0:0:0:
256,192,250347,1,8,0:0:0:0:
256,192,250941,1,8,0:0:0:0:
256,192,251238,1,0,0:0:0:0:
256,192,251535,1,0,0:0:0:0:
256,192,252129,1,0,0:0:0:0:
256,192,252426,1,0,0:0:0:0:
256,192,252723,1,8,0:0:0:0:
256,192,253318,1,8,0:0:0:0:
256,192,253615,1,0,0:0:0:0:
256,192,253912,1,0,0:0:0:0:
256,192,254506,1,0,0:0:0:0:
256,192,255100,1,8,0:0:0:0:
256,192,255694,1,0,0:0:0:0:
256,192,255991,1,0,0:0:0:0:
256,192,256288,1,8,0:0:0:0:
256,192,256882,1,0,0:0:0:0:
256,192,257476,1,8,0:0:0:0:
256,192,258070,1,8,0:0:0:0:
256,192,258367,1,0,0:0:0:0:
256,192,258664,1,8,0:0:0:0:
260,200,259258,1,0,0:0:0:0:
260,188,259852,1,8,0:0:0:0:
260,188,260446,1,0,0:0:0:0:
252,192,260743,1,0,0:0:0:0:
252,192,261040,1,8,0:0:0:0:
260,188,261658,1,4,0:0:0:0:
252,192,262228,1,0,0:0:0:0:
260,188,262822,1,8,0:0:0:0:
252,192,263120,1,0,0:0:0:0:
252,192,263417,1,0,0:0:0:0:
260,188,264011,1,0,0:0:0:0:
252,192,264605,1,0,0:0:0:0:
260,188,265199,1,8,0:0:0:0:
252,192,265496,1,0,0:0:0:0:
260,188,265793,1,0,0:0:0:0:
260,188,266387,1,8,0:0:0:0:
252,192,266981,1,0,0:0:0:0:
260,188,267575,1,0,0:0:0:0:
252,192,267872,1,0,0:0:0:0:
252,192,268169,1,0,0:0:0:0:
260,188,268763,1,0,0:0:0:0:
260,188,269357,1,8,0:0:0:0:
260,188,269951,1,0,0:0:0:0:
260,188,270545,1,8,0:0:0:0:
252,192,270842,1,0,0:0:0:0:
260,188,271436,1,4,0:0:0:0:
260,188,272327,1,0,0:0:0:0:
260,188,272921,1,8,0:0:0:0:
260,188,273516,1,0,0:0:0:0:
260,188,274110,1,0,0:0:0:0:
260,188,274704,1,8,0:0:0:0:
260,188,275298,1,0,0:0:0:0:
260,188,275892,1,0,0:0:0:0:
260,188,276189,1,0,0:0:0:0:
260,188,276486,1,8,0:0:0:0:
260,188,276783,1,0,0:0:0:0:
260,188,277080,1,0,0:0:0:0:
260,188,277377,1,8,0:0:0:0:
260,188,277674,1,0,0:0:0:0:
260,188,278268,1,0,0:0:0:0:
260,188,278862,1,8,0:0:0:0:
260,188,279456,1,12,0:0:0:0:
256,192,281535,1,0,0:0:0:0:
256,192,282129,1,0,0:0:0:0:
256,192,282723,1,8,0:0:0:0:
256,192,283318,1,0,0:0:0:0:
256,192,283912,1,0,0:0:0:0:
256,192,284803,1,0,0:0:0:0:
256,192,285694,1,8,0:0:0:0:
256,192,286585,1,0,0:0:0:0:
256,192,287476,1,8,0:0:0:0:
256,188,292525,5,12,0:0:0:0:
