osu file format v9

[General]
AudioFilename: --02-.mp3
AudioLeadIn: 2000
PreviewTime: 149200
Countdown: 0
SampleSet: Normal
StackLeniency: 0.7
Mode: 0
LetterboxInBreaks: 0

[Editor]
Bookmarks: 28372,41614,54855,68096,81338,94579,107821,121062,134303,149200,175683,188924
DistanceSpacing: 1
BeatDivisor: 4
GridSize: 4

[Metadata]
Title:Dancing Kong Fu
Artist:Jin Yan Xie
Creator:bakabaka
Version:Dis
Source:
Tags:deepsea littlecar3370 disoy hokkien

[Difficulty]
HPDrainRate:2
CircleSize:3
OverallDifficulty:2
ApproachRate:4
SliderMultiplier:1.2
SliderTickRate:1

[Events]
//Background and Video events
0,0,"5071106229.jpg"
//Break Periods
2,28572,39466
2,127882,132983
//Storyboard Layer 0 (Background)
//Storyboard Layer 1 (Fail)
//Storyboard Layer 2 (Pass)
//Storyboard Layer 3 (Foreground)
//Storyboard Sound Samples
//Background Colour Transformations
3,100,163,162,255

[TimingPoints]
235,413.793103448276,4,1,2,80,1,0
1890,-100,4,2,1,80,0,0
15131,-100,4,1,2,80,0,0
21752,-100,4,2,1,80,0,0
28372,-100,4,1,2,70,0,0
40683,-100,4,1,2,80,0,0
68096,-100,4,1,2,80,0,0
68717,-100,4,2,1,80,0,0
87855,-100,4,2,0,80,0,0
88372,-100,4,1,1,60,0,0
88476,-100,4,2,0,80,0,0
89096,-100,4,1,1,60,0,0
89303,-100,4,2,0,80,0,0
90028,-100,4,1,1,60,0,0
90131,-100,4,2,0,80,0,0
90752,-100,4,1,1,60,0,0
90958,-100,4,2,0,80,0,0
91579,-100,4,1,1,60,0,0
91786,-100,4,2,0,80,0,0
93338,-100,4,2,0,60,0,0
94476,-100,4,1,2,60,0,0
121062,-100,4,2,1,80,0,0
126752,-100,4,1,2,80,0,0
175890,-100,4,2,1,80,0,0
176407,-100,4,1,2,80,0,0
176614,-100,4,2,1,80,0,0
177338,-100,4,1,2,80,0,0
177545,-100,4,2,1,80,0,0
178062,-100,4,1,2,80,0,0
178269,-100,4,2,1,80,0,0
178993,-100,4,1,2,80,0,0
179096,-100,4,2,1,80,0,0
179717,-100,4,1,2,80,0,0
179924,-100,4,2,1,80,0,0
180648,-100,4,1,2,80,0,0
180855,-100,4,2,1,80,0,0
181476,-100,4,1,2,80,0,0
181579,-100,4,2,1,80,0,0
182406,-100,4,2,1,80,0,0
183027,-100,4,1,2,80,0,0
183234,-100,4,2,1,80,0,0
183958,-100,4,1,2,80,0,0
184061,-100,4,2,1,80,0,0
184682,-100,4,1,2,80,0,0
184889,-100,4,2,1,80,0,0
185613,-100,4,1,2,80,0,0
185716,-100,4,2,1,80,0,0
186337,-100,4,1,2,80,0,0
186544,-100,4,2,1,80,0,0
187268,-100,4,1,2,80,0,0
187371,-100,4,2,1,80,0,0
187992,-100,4,1,2,80,0,0

[Colours]
Combo1 : 255,150,0
Combo2 : 5,240,5
Combo3 : 51,51,251
Combo4 : 240,5,5

[HitObjects]
256,192,235,12,4,1890
200,280,2303,6,0,B|256:300|332:276,2,120,8|0|8
252,172,3545,2,0,B|196:152|120:176,3,120,0|8|0|8
252,172,5200,6,0,B|328:196|440:172,2,180,0|8|0
224,56,6855,2,0,B|148:32|36:56,2,180,0|8|0
256,172,8510,5,4
316,276,8924,1,8
196,276,9338,1,0
256,172,9752,2,0,B|284:128|224:92|272:48,3,120,8|0|8|0
263,57,11200,1,0
263,57,11407,1,8
352,136,11821,5,2
424,232,12234,1,8
336,312,12648,1,0
260,220,13062,1,8
256,192,13476,12,4,15131
112,68,15545,6,0,B|140:108|136:156|108:184,2,120,8|0|8
400,68,17200,2,0,B|372:108|376:156|404:184,2,120,8|0|8
256,260,18855,6,0,B|256:132,2,120,8|0|8
256,20,20510,1,8
256,140,20924,1,0
256,260,21338,1,0
336,348,21752,6,0,B|392:280|504:300,2,180,2|8|0
256,256,23407,2,0,B|200:324|88:304,2,180,2|8|0
356,192,25062,2,0,B|316:140|240:140,1,120,0|8
240,20,25890,2,0,B|168:16|132:76,1,120,0|8
256,192,26717,12,4,28372
256,224,40786,6,0,B|256:296,2,60
184,128,41614,2,0,B|260:64|372:96,1,180,4|8
353,91,42855,1,10
444,168,43269,2,0,B|461:265|377:346,1,180,0|8
392,332,44510,1,2
288,272,44924,6,0,B|208:216|100:240,1,180,0|8
56,248,45752,1,8
116,144,46166,1,2
236,144,46579,2,0,B|296:112|280:28,3,120,0|8|0|8
376,120,48235,6,0,B|320:200|368:304,1,180,0|8
362,291,49476,1,2
252,336,49890,2,0,B|277:241|196:160,1,180,0|8
206,170,51131,1,2
116,92,51545,6,0,B|68:184|124:284,2,180,8|8|2
256,192,53200,12,4,54855
256,144,55269,5,8
148,192,55683,2,0,B|168:248|152:328,1,120,0|8
272,328,56510,2,0,B|352:288|472:312,2,180,0|8|0
288,208,58166,5,0
256,92,58579,2,0,B|320:116|388:100,2,120,8|0|8
136,112,59821,2,0,B|144:216|44:272,2,180,0|8|0
256,100,61476,6,0,B|296:148|372:140,3,120,0|8|0|8
424,36,63131,2,0,B|488:108|448:224,2,180,0|8|0
304,36,64786,1,0
192,80,65200,2,0,B|152:156|84:160,2,120,8|0|8
256,184,66441,2,0,B|256:264,2,60,0|0|8
376,176,67269,2,0,B|376:300,1,120,0|8
260,328,68097,6,0,B|176:296|56:320,1,180,4|8
82,315,68924,1,0
112,200,69338,1,8
72,88,69752,2,0,B|144:132|256:120,1,180,0|8
245,120,70579,1,0
360,92,70993,1,8
288,188,71407,6,0,B|200:248|212:352,1,180,0|8
212,340,72235,1,0
324,300,72648,1,8
444,312,73062,2,0,B|454:219|366:159,1,180,0|8
368,160,73890,1,0
268,92,74303,1,8
236,208,74717,6,0,B|236:284,2,60,0|0|8
124,164,75545,2,0,B|124:288,2,120,0|8|0
184,60,76786,2,0,B|252:92|312:56,1,120,8|0
299,62,77614,1,8
396,132,78028,6,0,B|336:208|360:324,1,180,0|0
320,348,78855,2,0,B|240:316|176:320,1,120,0|8
96,268,79683,6,0,B|156:192|132:76,1,180,0|0
172,52,80510,2,0,B|252:84|316:80,1,120,0|8
228,184,81338,6,0,B|204:244|224:320,2,120,4|2|0
468,204,82993,2,0,B|408:232|336:212,2,120,0|2|0
400,104,84235,6,0,B|332:36|220:44,2,180,0|2|0
288,144,85890,2,0,B|208:136|168:180,1,120,2|0
140,288,86717,2,0,B|220:296|260:252,1,120,2|0
368,288,87545,5,2
368,288,87959,2,0,B|368:212|432:172,2,120,4|0|0
256,240,89200,2,0,B|256:120,3,120,0|0|0|0
140,144,90855,2,0,B|88:196|116:272,1,120,0|0
204,332,91683,2,0,B|292:364|380:288,2,180,0|0|4
256,192,93338,12,4,94579
160,116,94993,6,0,B|240:184|348:176,1,180,8|0
256,344,96235,1,2
192,244,96648,2,0,B|136:176|32:164,2,180,8|0|2
316,244,98303,2,0,B|372:276|444:252,2,120,8|0|8
256,140,99545,2,0,B|256:16,2,120,8|0|8
256,140,100786,1,0
140,112,101200,5,2
36,172,101614,2,0,B|76:244|56:352,1,180,8|0
236,324,102855,1,2
348,280,103269,2,0,B|436:252|464:124,1,180,8|0
308,52,104510,5,2
208,116,104924,2,0,B|116:84|28:148,1,180,8|0
148,284,106166,2,8,B|136:356,2,60
256,232,106993,2,0,B|400:244,1,120,8|0
424,132,107821,6,0,B|284:120,1,120,4|8
204,56,108648,2,0,B|72:68,1,120,0|8
88,188,109476,2,0,B|136:248|120:320,1,120,0|8
240,264,110303,2,0,B|260:328,2,60,0|0|8
340,196,111131,6,0,B|476:152,2,120,0|8|0
240,128,112372,1,8
324,40,112786,2,0,B|256:20|184:48,1,120,0|8
128,132,113614,2,0,B|60:164|64:164,2,60,0|0|8
204,224,114441,2,0,B|252:264|244:344,1,120,0|8
352,280,115269,6,0,B|408:304|480:292,2,120,0|8|0
300,172,116510,2,0,B|300:48,1,120,8|0
300,52,117338,1,8
196,112,117752,2,0,B|144:160|72:140,1,120,0|8
104,260,118579,2,0,B|132:328|128:328,2,60,0|0|8
224,256,119407,2,0,B|236:228|272:216,1,60
328,224,119821,2,0,B|396:228|444:180,2,120,8|0|8
256,128,121062,5,2
152,68,121476,2,0,B|96:92,1,60,8|0
152,196,122097,2,0,B|84:228,1,60,0|8
200,280,122717,5,2
304,340,123131,2,0,B|360:316,1,60,8|0
304,212,123752,2,0,B|372:180,1,60,0|8
268,108,124372,5,2
380,68,124786,1,8
380,68,124993,1,0
272,16,125407,1,0
272,16,125614,2,0,B|200:32|184:92,1,120,8|4
80,148,126441,5,8
180,212,126855,2,8,B|248:224,4,60,8|8|8|8|12
256,104,134303,5,4
256,104,134717,2,0,B|184:80,1,60,8|0
104,160,135338,2,0,B|36:136,1,60,0|8
60,260,135959,5,0
60,260,136372,2,0,B|132:284,1,60,8|0
236,272,136993,2,0,B|304:296,1,60
264,176,137614,6,0,B|336:164|388:120,2,120,0|8|0
264,176,138855,1,8
160,236,139269,2,0,B|88:248|36:292,2,120,0|8|0
160,236,140510,1,8
256,308,140924,5,0
360,244,141338,1,8
256,184,141752,1,0
316,288,142166,2,0,B|364:328|452:304,1,120,8|0
432,188,142993,1,8
324,132,143407,2,0,B|272:172|196:156,1,120,8|0
96,128,144235,6,0,B|100:60|160:28,2,120,0|0|0
56,240,145476,2,0,B|56:320|56:324,2,60,8|0|0
172,276,146303,2,0,B|172:208,2,60,8|0|0
268,348,147131,2,0,B|316:308|404:312,1,120,8|0
500,320,147959,1,8
448,212,148372,2,2,B|448:144,3,60
388,156,149200,6,0,B|320:168|272:132,1,120,4|8
176,64,150028,2,0,B|112:96|104:172,1,120,0|8
200,228,150855,2,0,B|204:299|136:344,1,120,0|8
272,316,151683,2,0,B|348:344,2,60,0|0|8
316,204,152510,6,0,B|376:180|448:212,1,120,0|8
376,100,153338,2,0,B|448:96|496:136,2,120,0|8|0
256,116,154579,1,8
152,56,154993,2,0,B|84:80,2,60,0|0|8
136,176,155821,6,0,B|68:204|68:284,1,120,0|8
172,328,156648,2,0,B|240:300|240:220,1,120,0|8
288,128,157476,2,0,B|352:88|404:96,1,120,0|8
428,212,158303,2,0,B|428:292,2,60,0|0|8
312,240,159131,6,0,B|304:316|240:344,1,120,0|8
188,236,159959,2,0,B|136:280|56:256,1,120,0|8
72,140,160786,2,0,B|104:88,4,60,2|0|2|0|2
192,140,162028,1,4
308,104,162441,6,0,B|364:152|364:232,1,120,4|8
244,228,163269,2,0,B|256:288|204:356,1,120,0|8
108,288,164097,2,0,B|64:236|76:148,1,120,0|8
192,188,164924,2,0,B|192:120,2,60,0|0|8
304,156,165752,6,0,B|360:192|440:172,1,120,0|8
324,252,166579,2,0,B|364:296|360:368,1,120,0|8
244,328,167407,2,0,B|192:296|120:320,1,120,0|8
72,212,168234,2,0,B|12:240,2,60,0|0|8
184,164,169062,6,0,B|220:104|192:40,1,120,0|8
288,124,169890,2,0,B|320:184|400:192,1,120,0|8
488,248,170717,2,0,B|428:316|368:320,1,120,0|8
272,304,171545,2,0,B|204:304,2,60,0|0|8
196,208,172372,6,0,B|116:228|116:308,1,120,0|8
52,184,173200,2,0,B|20:240|36:304,2,120,0|8|0
88,136,174234,1,0
144,112,174441,2,0,B|212:132|272:100,2,120,8|0|8
188,224,175683,6,0,B|172:296|232:356,1,120,4|8
304,260,176510,2,0,B|344:308|420:308,1,120,2|8
464,200,177338,2,0,B|452:140|488:80,1,120,0|8
436,48,177959,5,2
376,60,178166,2,0,B|260:84,1,120,2|8
232,200,178993,2,0,B|88:232,1,120,4|8
72,108,179821,6,0,B|132:88|196:120,1,120,2|8
304,156,180648,2,0,B|356:196|440:176,1,120,0|8
472,152,181269,1,2
448,208,181476,2,0,B|392:248|416:332,1,120,2|8
292,324,182303,5,4
180,280,182717,2,0,B|108:300,3,60,8|2|2|2
80,252,183545,2,0,B|100:176|76:120,1,120,0|2
200,108,184372,2,0,B|268:76,3,60,8|2|2|2
308,104,185200,2,0,B|352:144|432:144,1,120,8|2
384,260,186028,6,0,B|400:324,3,60,8|2|2|2
344,340,186855,2,0,B|292:316|220:328,1,120,8|2
116,276,187683,2,0,B|48:312,3,60,8|2|2|0
40,248,188510,2,0,B|64:180|36:112,1,120,8|4
