osu file format v9

[General]
AudioFilename: --02-.mp3
AudioLeadIn: 2000
PreviewTime: 149200
Countdown: 0
SampleSet: Normal
StackLeniency: 0.7
Mode: 0
LetterboxInBreaks: 0

[Editor]
Bookmarks: 28372,41614,54855,68096,81338,94579,107821,121062,134303,149200,175683,188924
DistanceSpacing: 1.2
BeatDivisor: 4
GridSize: 8

[Metadata]
Title:Dancing Kong Fu
Artist:Jin Yan Xie
Creator:bakabaka
Version:DCar
Source:
Tags:deepsea littlecar3370 disoy hokkien

[Difficulty]
HPDrainRate:5
CircleSize:4
OverallDifficulty:6
ApproachRate:7
SliderMultiplier:1.2
SliderTickRate:1

[Events]
//Background and Video events
0,0,"5071106229.jpg"
//Break Periods
2,28572,40714
2,134503,143335
//Storyboard Layer 0 (Background)
//Storyboard Layer 1 (Fail)
//Storyboard Layer 2 (Pass)
//Storyboard Layer 3 (Foreground)
//Storyboard Sound Samples
//Background Colour Transformations
3,100,163,162,255

[TimingPoints]
235,413.793103448276,4,1,2,80,1,0
337,-200,4,2,2,36,0,0
1890,-100,4,2,1,80,0,0
13371,-66.6666666666667,4,1,1,80,0,0
27544,-200,4,1,1,60,0,0
28371,-66.6666666666667,4,1,1,60,0,0
41613,-100,4,1,1,60,0,0
48130,-66.6666666666667,4,1,1,60,0,0
53199,-200,4,1,1,60,0,0
54751,-66.6666666666667,4,1,1,60,0,0
81337,-200,4,1,1,60,0,0
86302,-66.6666666666667,4,1,1,60,0,0
161923,-100,4,1,1,60,0,0
162751,-66.6666666666667,4,1,1,60,0,0

[Colours]
Combo1 : 255,150,0
Combo2 : 5,240,5
Combo3 : 51,51,251
Combo4 : 240,5,5

[HitObjects]
256,80,441,2,0,B|256:300,1,210
112,288,2303,5,8
116,144,2717,1,0
160,84,2924,1,0
204,28,3131,1,8
344,24,3545,6,0,B|344:152,1,120,0|8
400,272,4372,1,0
328,272,4579,1,0
256,272,4786,1,8
184,272,4993,1,0
112,272,5200,6,0,B|72:200|80:144,1,120,0|8
208,88,6028,1,0
256,144,6234,1,0
304,200,6441,1,8
304,200,6855,5,4
408,304,7269,1,8
352,352,7476,1,0
304,296,7683,1,0
256,352,7890,1,0
208,296,8097,1,8
160,352,8303,1,0
112,296,8510,6,0,B|72:232|64:168,1,120,4|8
104,120,9131,1,0
152,64,9338,2,0,B|288:64,1,120,0|8
400,296,10166,6,0,B|440:232|448:168,2,120,0|8|0
328,296,11200,1,0
256,296,11407,1,2
112,296,11821,5,0
152,48,12234,1,2
400,88,12648,1,0
360,336,13062,1,2
144,320,13476,6,0,B|96:216,1,89.9999973177911,0|0
144,136,13890,2,0,B|184:224,1,89.9999973177911
288,248,14303,2,0,B|240:160,1,89.9999973177911
256,64,14717,1,0
256,64,15131,5,4
432,184,15545,2,0,B|400:272,1,89.9999973177911,2|0
352,360,15959,2,0,B|264:320,2,89.9999973177911,0|0|2
256,64,16786,5,0
80,184,17200,2,0,B|112:272,1,89.9999973177911,2|0
160,360,17614,2,0,B|248:320,1,89.9999973177911
344,288,18028,2,0,B|384:192|328:96,1,179.999994635582,2|0
136,48,18855,5,2
64,128,19062,1,0
128,216,19269,1,0
232,184,19476,1,0
240,80,19683,1,2
456,96,20097,6,0,B|496:192,1,89.9999973177911
464,288,20510,2,0,B|416:192,1,89.9999973177911,2|0
320,168,20924,2,0,B|376:272,1,89.9999973177911
368,352,21338,2,0,B|176:352,1,179.999994635582,2|0
104,288,21959,5,0
56,192,22166,2,0,B|56:80,1,89.9999973177911,2|0
160,136,22579,2,0,B|160:40,2,89.9999973177911,0|0|2
248,200,23200,2,0,B|296:256|368:256|432:176,1,179.999994635582
400,96,23821,5,2
328,16,24028,1,0
256,96,24234,1,0
192,16,24441,1,0
112,88,24648,1,2
112,88,25062,6,0,B|80:184,1,89.9999973177911
192,184,25476,2,0,B|152:288,1,89.9999973177911,2|0
264,296,25890,2,0,B|224:400,2,89.9999973177911,0|0|2
376,296,26510,2,0,B|376:96,1,179.999994635582
264,112,27131,5,2
184,184,27338,1,0
104,112,27545,2,0,B|72:112,2,30,0|0|0
104,112,28372,5,4
192,192,41614,6,0,B|64:192,2,120,0|8|0
264,192,42648,1,0
336,192,42855,1,8
408,192,43062,1,0
408,192,43269,6,0,B|408:320,2,120,0|8|0
456,136,44303,1,0
408,80,44510,1,8
360,136,44717,1,0
312,80,44924,6,0,B|192:80,1,120,0|8
136,40,45545,1,0
80,88,45752,2,0,B|80:168,1,60
136,192,46166,2,0,B|136:272,1,60,8|0
184,304,46579,5,8
256,176,46993,1,8
328,64,47407,1,8
256,176,47821,1,8
256,176,48235,6,0,B|208:272|104:296,1,179.999994635582,0|8
152,184,48855,1,0
152,184,49269,1,0
64,120,49476,1,8
72,16,49683,1,0
160,80,49890,1,0
376,112,50303,6,0,B|464:64,2,89.9999973177911,8|0|0
440,200,50924,1,0
352,256,51131,1,8
416,344,51338,1,0
416,344,51545,6,0,B|208:344,1,179.999994635582,0|8
136,296,52166,1,0
80,208,52372,1,0
176,160,52579,1,0
240,248,52786,1,8
136,296,52993,1,0
80,208,53200,2,0,B|80:136,3,60,4|0|0|0
256,24,54855,6,0,B|352:112|360:200,1,179.999994635582,2|0
416,264,55476,1,0
328,320,55683,1,2
264,232,55890,1,0
256,24,56303,6,0,B|160:112|152:200,1,179.999994635582
96,264,56924,1,8
184,320,57131,1,0
248,232,57338,2,0,B|312:144,1,89.9999973177911
392,224,57752,2,0,B|464:136,1,89.9999973177911,8|0
376,72,58166,5,2
376,72,58579,2,0,B|264:72,1,89.9999973177911
200,136,58993,2,0,B|88:136,1,89.9999973177911,2|0
40,216,59407,1,0
40,216,59614,6,0,B|112:304,1,89.9999973177911
192,232,60028,2,0,B|272:328,1,89.9999973177911,0|8
344,248,60441,2,0,B|424:336,1,89.9999973177911
496,248,60855,1,0
496,248,60959,1,0
496,248,61062,1,8
456,144,61269,1,0
456,144,61476,6,0,B|424:48,1,89.9999973177911,4|0
320,64,61890,2,0,B|291:149,1,89.9999973177911,8|0
184,144,62303,2,0,B|152:48,1,89.9999973177911
48,64,62717,2,0,B|19:149,1,89.9999973177911,8|0
24,160,63028,1,0
32,168,63131,1,0
128,224,63338,5,0
240,224,63545,1,8
352,224,63752,1,0
464,224,63959,2,0,B|424:128|472:32,2,179.999994635582,0|8|0
312,72,65200,5,8
312,72,65407,2,0,B|256:160,1,89.9999973177911
160,168,65821,2,0,B|208:264,1,89.9999973177911,0|8
256,192,66235,12,4,68097
256,192,68510,5,8
256,304,68717,1,0
256,192,68924,1,0
256,80,69131,1,0
256,192,69338,1,8
64,296,69752,6,0,B|24:192|72:104,1,179.999994635582,0|8
72,16,70372,1,0
176,48,70579,1,0
280,88,70786,1,0
376,136,70993,1,8
376,136,71407,6,0,B|480:192,2,89.9999973177911,0|0|8
320,232,72028,1,0
264,328,72235,2,0,B|160:272,2,89.9999973177911,0|0|8
64,248,73062,6,0,B|64:144,1,89.9999973177911
168,176,73476,2,0,B|168:72,1,89.9999973177911,8|0
280,96,73890,1,0
392,96,74097,1,0
280,96,74303,1,8
448,232,74717,5,4
256,336,75131,1,8
64,232,75545,1,0
256,128,75959,1,8
256,128,76166,1,0
64,32,76579,5,0
136,112,76786,2,0,B|136:224,1,89.9999973177911,8|0
200,288,77200,2,0,B|296:288,2,89.9999973177911,0|0|8
392,192,78028,5,0
392,192,78235,1,0
328,104,78441,1,8
328,104,78648,1,0
264,192,78855,1,0
264,192,79062,1,0
208,104,79269,1,8
208,104,79476,1,0
48,248,79890,6,0,B|152:248,1,89.9999973177911,0|8
208,328,80303,2,0,B|328:328,1,89.9999973177911
374,248,80717,2,0,B|464:248,1,89.9999973177911,0|8
376,112,81338,6,0,B|336:104|312:112,3,60,4|2|0|2
248,112,82993,2,0,B|224:96|192:112,3,60,0|2|0|2
147,124,84441,1,0
118,159,84648,6,0,B|118:223,1,60,0|2
156,243,85269,1,0
197,225,85476,2,0,B|197:153,1,60,0|2
238,145,86097,1,0
238,145,86303,5,4
448,72,86717,1,0
456,288,87131,1,0
237,146,87545,1,0
237,146,87752,1,0
237,146,87959,6,0,B|157:106|21:90,1,179.999994635582,4|8
72,200,88579,2,0,B|72:296,1,89.9999973177911
168,240,88993,1,0
168,352,89200,1,8
168,240,89407,1,0
168,352,89614,1,0
360,256,90028,6,0,B|456:256,2,89.9999973177911,8|0|0
392,152,90648,1,0
352,48,90855,1,8
320,152,91062,1,0
248,72,91269,2,0,B|32:72,1,179.999994635582,0|8
136,160,91890,1,0
136,160,92097,2,0,B|136:272,1,89.9999973177911
240,208,92510,2,0,B|240:304,2,89.9999973177911,8|0|0
256,192,93338,12,0,94579
80,72,94993,5,8
256,192,95407,2,0,B|256:296,1,89.9999973177911
360,248,95821,2,0,B|360:344,2,89.9999973177911,8|0|0
432,72,96648,5,8
256,192,97062,2,0,B|256:296,1,89.9999973177911
152,248,97476,2,0,B|152:344,2,89.9999973177911,8|0|0
152,136,98097,1,0
200,40,98303,1,8
312,40,98510,1,0
352,136,98717,2,0,B|352:256,1,89.9999973177911
256,168,99131,2,0,B|256:288,2,89.9999973177911,8|0|0
256,96,99959,5,8
256,168,100372,1,0
256,240,100786,1,8
48,192,101200,6,0,B|56:80|128:16,2,179.999994635582,4|8|0
96,288,102235,1,0
192,248,102441,1,8
152,144,102648,1,0
192,248,102855,6,0,B|384:248,2,179.999994635582,0|8|0
232,144,103890,1,0
280,48,104097,1,8
384,16,104303,1,0
488,56,104510,6,0,B|488:256,1,179.999994635582,0|8
392,280,105131,1,0
392,280,105338,2,0,B|352:184,1,89.9999973177911
248,200,105752,1,8
248,200,105959,2,0,B|208:288,1,89.9999973177911
256,192,106269,12,4,107821
128,144,108235,5,8
128,144,108441,1,0
216,80,108648,2,0,B|272:128|336:72,1,89.9999973177911
400,56,109062,1,8
400,56,109269,2,0,B|400:256,1,179.999994635582
472,320,109890,2,0,B|400:360|328:304,1,89.9999973177911,8|0
328,240,110303,2,0,B|256:200|184:256,1,89.9999973177911
241,226,110717,1,8
80,80,111131,6,0,B|272:80,1,179.999994635582,0|8
336,160,111752,1,0
408,80,111959,1,0
408,80,112166,2,0,B|304:80,1,89.9999973177911,0|8
208,80,112579,2,0,B|96:120,1,89.9999973177911
32,168,112993,2,0,B|144:224,1,89.9999973177911,0|8
208,264,113407,2,0,B|96:304,1,89.9999973177911
32,232,113821,1,0
32,232,113924,1,0
32,232,114028,2,0,B|128:200,1,89.9999973177911,8|0
160,104,114441,6,0,B|256:48|376:120,1,179.999994635582,4|8
280,192,115062,1,0
216,280,115269,2,0,B|312:336|432:264,1,179.999994635582,0|8
232,136,116097,6,0,B|272:48,1,89.9999973177911
160,112,116510,2,0,B|40:56,1,89.9999973177911,8|0
136,184,116924,2,0,B|96:280,1,89.9999973177911
208,208,117338,2,0,B|312:256,1,89.9999973177911,8|0
392,280,117752,5,0
392,280,118166,2,0,B|392:112,1,89.9999973177911,8|0
320,112,118579,2,0,B|320:200,1,89.9999973177911
248,280,118993,1,8
152,328,119200,6,0,B|32:288|24:184,1,179.999994635582
128,176,119821,2,0,B|144:232|216:240,1,89.9999973177911,8|0
224,136,120235,1,0
224,136,120441,2,0,B|296:64,1,89.9999973177911,0|8
400,296,121062,5,4
400,296,121476,2,0,B|320:216,1,89.9999973177911,8|0
264,152,121890,1,0
192,232,122097,1,0
264,152,122303,1,8
120,312,122717,6,0,B|32:240|32:136,1,179.999994635582,0|8
104,80,123338,1,0
104,80,123545,2,0,B|216:128,1,89.9999973177911
288,160,123959,1,8
288,160,124372,6,0,B|424:160,2,89.9999973177911,0|0|8
216,240,124993,1,0
216,240,125200,2,0,B|104:240,2,89.9999973177911,0|0|8
368,88,126028,5,4
432,176,126235,1,0
384,272,126441,1,0
280,280,126648,1,0
224,192,126855,1,0
328,184,127062,1,0
264,96,127269,1,0
120,256,127683,6,0,B|168:344,2,89.9999973177911,0|0|8
32,192,128303,1,0
120,128,128510,2,0,B|168:40,2,89.9999973177911,0|0|8
328,80,129338,5,0
368,176,129545,1,0
416,272,129752,2,0,B|456:352,1,89.9999973177911,8|0
352,344,130166,1,0
296,256,130372,2,0,B|200:256,1,89.9999973177911,0|8
112,56,130993,6,0,B|192:56|208:168|296:168,2,179.999994635582,0|8|0
104,168,132028,1,0
104,168,132235,2,0,B|0:168,1,89.9999973177911,8|0
72,256,132648,6,0,B|128:336,1,89.9999973177911
184,240,133062,2,0,B|288:240,1,89.9999973177911,8|0
240,136,133476,2,0,B|320:88,1,89.9999973177911,0|8
317,89,133890,1,8
256,240,134303,5,4
256,192,144235,12,0,147131
96,144,147545,5,2
304,72,147959,1,2
456,224,148372,1,2
384,144,148579,5,0
384,144,148786,2,0,B|320:144,2,44.9999986588955
344,248,149200,2,0,B|256:336|152:296,1,179.999994635582,0|8
96,232,149821,1,0
24,152,150028,1,0
64,56,150235,1,0
136,136,150441,1,8
96,232,150648,1,0
96,232,151062,6,0,B|200:232,1,89.9999973177911,0|8
232,136,151476,2,0,B|322:136,1,89.9999973177911
368,232,151890,2,0,B|458:232,1,89.9999973177911,0|8
344,48,152510,6,0,B|343:134|287:134|288:215,1,179.999994635582,0|8
256,112,153131,1,0
168,48,153338,2,0,B|168:134|224:134|223:215,1,179.999994635582,0|8
120,256,153959,1,0
120,256,154166,1,0
200,336,154372,1,0
312,336,154579,1,8
392,256,154786,1,0
392,256,154993,1,0
392,144,155200,2,0,B|392:88,2,44.9999986588955,0|0|8
192,72,155821,6,0,B|90:73|32:168,1,179.999994635582,4|8
40,155,156441,1,0
144,192,156648,2,0,B|224:192|256:248,1,89.9999973177911
256,320,157062,2,0,B|176:320|144:264,1,89.9999973177911,8|0
80,232,157476,5,0
80,232,157683,1,0
104,128,157890,1,8
104,128,158097,1,0
192,64,158303,2,0,B|280:40|320:72,1,89.9999973177911
304,56,158614,1,0
328,64,158717,1,8
424,120,158924,1,0
328,160,159131,6,0,B|360:264|472:280,1,179.999994635582,0|8
352,320,159752,1,0
256,264,159959,1,0
256,264,160166,2,0,B|152:264,1,89.9999973177911,0|8
80,200,160579,1,0
80,200,160993,6,0,B|152:128,1,89.9999973177911
224,64,161407,2,0,B|296:136,1,89.9999973177911
287,127,161821,1,0
368,200,162028,6,0,B|432:200,2,60,0|0|0
192,328,162855,5,8
280,264,163062,1,0
192,200,163269,2,0,B|96:136,1,89.9999973177911
117,150,163683,1,8
184,64,163890,6,0,B|240:64|280:176|336:176,1,179.999994635582
352,72,164510,1,8
352,72,164717,1,0
424,152,164924,2,0,B|424:240,1,89.9999973177911
424,352,165338,1,8
208,352,165752,6,0,B|272:256|192:160,1,179.999994635582,0|8
136,264,166372,1,0
136,264,166579,2,0,B|32:264,1,89.9999973177911
96,168,166993,1,8
144,72,167200,6,0,B|232:16|336:88,1,179.999994635582
416,112,167821,1,0
336,184,168028,2,0,B|280:224|224:168,2,89.9999973177911
352,176,168545,1,0
368,168,168648,1,0
480,168,168855,1,0
480,168,169062,6,0,B|432:272,1,89.9999973177911,4|0
368,328,169476,2,0,B|320:224,1,89.9999973177911,8|0
256,168,169890,2,0,B|160:352,1,179.999994635582,0|8
172,327,170510,1,0
96,256,170717,5,0
56,152,170924,1,0
112,56,171131,1,8
216,32,171338,1,0
312,88,171545,1,0
312,88,171752,2,0,B|416:88,2,89.9999973177911,0|8|0
224,152,172372,1,0
224,152,172786,6,0,B|128:152,1,89.9999973177911,8|0
72,240,173200,1,0
72,240,173407,1,0
144,320,173614,1,8
256,192,173821,12,4,175683
312,128,176097,6,0,B|400:88,1,89.9999973177911,8|0
368,200,176510,1,0
368,200,176717,2,0,B|264:256,1,89.9999973177911,0|8
72,248,177338,5,0
224,95,177752,2,0,B|144:175,1,89.9999973177911,8|0
264,200,178166,2,0,B|336:272,2,89.9999973177911,0|0|8
432,56,178993,5,0
392,160,179200,1,0
296,112,179407,1,8
256,216,179614,1,0
160,168,179821,1,0
120,272,180028,1,0
24,224,180234,1,8
176,72,180648,6,0,B|272:120,1,89.9999973177911
168,176,181062,2,0,B|72:224,1,89.9999973177911,8|0
168,288,181476,2,0,B|264:336,1,89.9999973177911,0|0
344,280,181890,2,0,B|448:184|408:104,1,179.999994635582,0|4
200,144,182717,5,8
296,88,182924,1,0
360,176,183131,1,0
264,224,183338,1,0
200,144,183545,1,8
200,144,183959,6,0,B|100:164|80:290,1,179.999994635582,0|8
192,240,184579,1,0
192,344,184786,2,0,B|292:324|312:198,1,179.999994635582,0|8
440,48,185614,6,0,B|464:160,1,89.9999973177911
352,128,186028,2,0,B|384:256,1,89.9999973177911,8|0
264,224,186441,1,0
192,304,186648,1,0
160,200,186855,1,8
368,248,187269,6,0,B|480:272,1,89.9999973177911
424,168,187683,2,0,B|328:144,1,89.9999973177911,8|0
264,224,188097,1,0
232,120,188303,1,0
160,200,188510,1,8
160,200,188924,5,4
