osu file format v14

[General]
AudioFilename: yesterday.mp3
AudioLeadIn: 0
PreviewTime: 53524
Countdown: 0
SampleSet: Soft
StackLeniency: 0.7
Mode: 0
LetterboxInBreaks: 0
WidescreenStoryboard: 0

[Editor]
DistanceSpacing: 0.5
BeatDivisor: 4
GridSize: 4
TimelineZoom: 2.599999

[Metadata]
Title:Yuukei Yesterday
TitleUnicode:Yuukei Yesterday
Artist:Jin
ArtistUnicode:Jin
Creator:Megurine Luka
Version:Luka
Source:
Tags:IA Kagerou Project Vocaloid3 Shizen no Teki P
BeatmapID:670081
BeatmapSetID:110190

[Difficulty]
HPDrainRate:7
CircleSize:4
OverallDifficulty:8
ApproachRate:9
SliderMultiplier:1.8
SliderTickRate:1

[Events]
//Background and Video events
0,0,"NG.jpg",0,0
Video,0,"yesterday.flv"
//Break Periods
2,112815,126560
//Storyboard Layer 0 (Background)
//Storyboard Layer 1 (Fail)
//Storyboard Layer 2 (Pass)
//Storyboard Layer 3 (Foreground)
//Storyboard Sound Samples

[TimingPoints]
1706,454.545454545455,4,2,1,60,1,0
10796,-100,4,2,2,60,0,0
54433,-100,4,2,2,80,0,1
67046,-100,4,2,1,80,0,1
68865,-100,4,2,2,80,0,0
68978,-100,4,2,2,80,0,1
82615,-100,4,2,2,60,0,0
83296,-100,4,2,2,60,0,0
96251,-100,4,2,1,60,0,0
98069,-100,4,2,2,60,0,0
127160,-100,4,2,2,80,0,1
139887,-100,4,2,1,80,0,1
141592,-100,4,2,1,60,0,0
141706,-100,4,2,2,80,0,1
156137,-100,4,2,2,60,0,0
156251,-100,4,2,2,80,0,1
168978,-100,4,2,1,80,0,1
170683,-100,4,2,1,60,0,0
170796,-100,4,2,2,80,0,1
183524,-100,4,2,1,80,0,1
184887,-100,4,2,2,80,0,1
188069,-100,4,2,1,60,0,0

[Colours]
Combo1 : 184,193,228
Combo2 : 255,255,128
Combo3 : 255,169,83
Combo4 : 179,243,139

[HitObjects]
80,80,3069,5,2,0:0:0:0:
64,200,3296,1,2,0:0:0:0:
88,184,3372,1,2,0:0:0:0:
120,176,3448,1,2,0:0:0:0:
152,176,3524,2,2,P|212:192|260:168,1,90
396,64,3978,1,2,0:0:0:0:
352,52,4092,1,2,0:0:0:0:
308,52,4206,1,2,0:0:0:0:
182,59,4319,6,2,P|242:75|268:68,1,90,2|0,0:0|0:0,0:0:0:0:
452,176,4660,2,0,P|356:160|332:176,1,90,2|0,0:0|0:0,0:0:0:0:
296,228,5001,1,2,0:0:0:0:
296,228,5228,6,0,L|304:336,1,90,2|2,0:0|0:0,0:0:0:0:
340,340,5569,1,2,0:0:0:0:
384,324,5683,1,2,0:0:0:0:
428,324,5796,1,2,0:0:0:0:
472,336,5910,1,2,0:0:0:0:
488,292,6024,1,2,0:0:0:0:
484,248,6137,6,0,P|472:180|448:144,1,90,10|10,0:0|0:0,0:0:0:0:
396,64,6592,2,0,P|304:68|280:52,1,90,10|0,0:0|0:0,0:0:0:0:
228,56,6933,1,2,0:0:0:0:
228,56,7046,1,2,0:0:0:0:
148,40,7160,6,0,L|160:148,1,90,10|2,0:0|0:0,0:0:0:0:
68,224,7615,1,2,0:0:0:0:
68,224,7728,1,2,0:0:0:0:
96,324,7956,2,2,L|220:312,1,90,10|2,0:0|0:0,0:0:0:0:
220,324,8296,1,2,0:0:0:0:
248,296,8410,1,2,0:0:0:0:
292,292,8524,2,2,L|356:308,1,45
380,296,8751,2,2,L|440:280,1,45,2|2,0:0|0:0,0:0:0:0:
468,272,8979,5,10,0:0:0:0:
468,272,9092,1,10,0:0:0:0:
416,104,9319,1,10,0:0:0:0:
264,68,9546,1,10,0:0:0:0:
136,164,9774,1,8,0:0:0:0:
136,164,9887,1,8,0:0:0:0:
248,168,10115,1,0,0:0:0:0:
244,192,10228,1,8,0:0:0:0:
240,212,10342,1,8,0:0:0:0:
236,232,10456,1,8,0:0:0:0:
232,252,10569,1,8,0:0:0:0:
228,276,10683,1,8,0:0:0:0:
224,300,10796,6,0,P|296:276|382:304,1,135,10|0,0:0|0:0,0:0:0:0:
404,352,11251,2,0,P|357:368|305:354,1,90,8|0,0:0|0:0,0:0:0:0:
352,288,11592,1,0,0:0:0:0:
376,212,11706,2,0,L|407:115,1,90
424,48,12046,1,0,0:0:0:0:
336,28,12160,2,0,L|304:116,1,90,8|0,0:0|0:0,0:0:0:0:
284,196,12501,1,0,0:0:0:0:
261,272,12615,6,0,L|212:289,1,45
99,259,12956,2,0,L|141:244,1,45,0|8,0:0|0:0,0:0:0:0:
205,138,13296,1,0,0:0:0:0:
351,48,13524,2,0,P|278:44|252:20,1,90,0|0,0:0|0:0,0:0:0:0:
185,28,13865,1,0,0:0:0:0:
184,28,13978,1,8,0:0:0:0:
100,123,14206,1,0,0:0:0:0:
100,258,14433,6,0,P|142:239|192:257,1,90
263,273,14774,1,0,0:0:0:0:
313,337,14887,2,0,P|268:355|222:343,1,90,8|0,0:0|0:0,0:0:0:0:
368,176,15342,2,0,L|342:266,1,90,0|0,0:0|0:0,0:0:0:0:
393,323,15683,1,0,0:0:0:0:
448,264,15796,2,0,L|472:177,1,90,8|0,0:0|0:0,0:0:0:0:
476,52,16251,5,0,0:0:0:0:
311,36,16478,1,0,0:0:0:0:
191,139,16706,1,8,0:0:0:0:
157,308,16933,1,8,0:0:0:0:
92,241,17160,1,8,0:0:0:0:
243,268,17387,1,8,0:0:0:0:
173,225,17615,1,8,0:0:0:0:
318,243,17842,1,0,0:0:0:0:
372,88,18069,6,0,P|329:147|324:182,1,90,2|0,0:0|0:0,0:0:0:0:
318,243,18410,1,0,0:0:0:0:
337,322,18524,2,0,L|437:346,1,90,8|0,0:0|0:0,0:0:0:0:
318,243,18865,1,0,0:0:0:0:
274,172,18978,2,0,L|186:150,1,90,0|0,0:0|0:0,0:0:0:0:
249,72,19433,1,8,0:0:0:0:
105,131,19660,1,0,0:0:0:0:
47,81,19887,6,0,P|28:137|47:179,1,90
59,242,20228,1,0,0:0:0:0:
133,275,20342,2,0,L|109:371,1,90,8|0,0:0|0:0,0:0:0:0:
216,265,20683,1,0,0:0:0:0:
290,233,20796,2,0,L|311:145,1,90,0|0,0:0|0:0,0:0:0:0:
424,63,21251,1,8,0:0:0:0:
444,172,21478,6,0,L|503:186,2,45
361,266,21933,1,0,0:0:0:0:
361,266,22046,1,0,0:0:0:0:
361,266,22160,2,0,L|251:253,1,90,8|0,0:0|0:0,0:0:0:0:
96,234,22615,2,0,P|148:213|180:165,1,90,0|0,0:0|0:0,0:0:0:0:
215,121,22956,1,0,0:0:0:0:
285,76,23069,2,0,L|374:86,1,90,8|0,0:0|0:0,0:0:0:0:
486,94,23524,6,0,L|497:163,1,45,8|0,0:0|0:0,0:0:0:0:
496,160,23751,1,8,0:0:0:0:
500,182,23865,1,8,0:0:0:0:
503,204,23978,1,8,0:0:0:0:
406,329,24206,1,8,0:0:0:0:
401,307,24319,1,8,0:0:0:0:
302,230,24546,1,8,0:0:0:0:
298,207,24660,1,8,0:0:0:0:
159,82,24887,1,8,0:0:0:0:
164,104,25001,1,8,0:0:0:0:
168,128,25115,1,8,0:0:0:0:
172,148,25228,1,8,0:0:0:0:
176,168,25342,6,0,L|148:308,1,135,10|0,0:0|0:0,0:0:0:0:
168,380,25796,2,0,P|204:352|264:348,1,90,8|0,0:0|0:0,0:0:0:0:
328,348,26137,1,0,0:0:0:0:
408,344,26251,2,0,L|436:292,1,45,0|0,0:0|0:0,0:0:0:0:
396,172,26592,2,0,L|374:211,1,45,0|8,0:0|0:0,0:0:0:0:
296,264,26933,1,0,0:0:0:0:
216,288,27160,6,0,P|168:292|129:276,1,90
180,212,27501,1,0,0:0:0:0:
204,132,27615,2,0,L|232:32,1,90,8|0,0:0|0:0,0:0:0:0:
368,56,28069,1,0,0:0:0:0:
472,200,28296,1,0,0:0:0:0:
472,200,28410,1,0,0:0:0:0:
472,200,28524,2,0,L|440:308,1,90,8|0,0:0|0:0,0:0:0:0:
446,286,28865,1,0,0:0:0:0:
384,336,28978,6,0,L|268:356,1,90
224,312,29319,1,0,0:0:0:0:
156,264,29433,2,0,L|40:284,1,90,8|0,0:0|0:0,0:0:0:0:
188,184,29887,1,0,0:0:0:0:
248,124,30001,2,0,L|352:96,1,90,0|0,0:0|0:0,0:0:0:0:
482,148,30342,2,0,L|396:172,1,90,8|0,0:0|0:0,0:0:0:0:
352,280,30796,5,0,0:0:0:0:
244,344,31024,1,0,0:0:0:0:
224,336,31137,1,0,0:0:0:0:
200,332,31251,2,0,P|100:328|48:352,1,135,8|0,0:0|0:0,0:0:0:0:
176,224,31706,2,0,P|207:235|307:231,1,135,8|0,0:0|0:0,0:0:0:0:
384,204,32160,1,8,0:0:0:0:
448,56,32387,5,0,0:0:0:0:
448,56,32501,1,0,0:0:0:0:
448,56,32615,2,0,L|488:168,1,90,2|0,0:0|0:0,0:0:0:0:
472,220,32956,1,0,0:0:0:0:
472,220,33069,1,8,0:0:0:0:
472,220,33296,5,0,0:0:0:0:
452,260,33410,1,0,0:0:0:0:
452,304,33524,2,0,P|392:280|340:276,1,90,0|0,0:0|0:0,0:0:0:0:
192,288,33978,1,8,0:0:0:0:
192,288,34206,1,0,0:0:0:0:
160,320,34319,1,0,0:0:0:0:
116,324,34433,2,0,P|60:304|16:312,1,90
60,380,34774,1,0,0:0:0:0:
76,305,34887,2,0,L|96:217,1,90,8|0,0:0|0:0,0:0:0:0:
191,87,35342,5,0,0:0:0:0:
207,93,35456,1,0,0:0:0:0:
223,84,35569,1,0,0:0:0:0:
241,92,35683,1,0,0:0:0:0:
257,84,35796,2,0,L|353:69,1,90,8|0,0:0|0:0,0:0:0:0:
424,97,36137,1,0,0:0:0:0:
448,174,36251,2,0,L|359:187,1,90,0|0,0:0|0:0,0:0:0:0:
331,264,36592,2,0,L|307:307,1,45,0|8,0:0|0:0,0:0:0:0:
173,330,36933,5,0,0:0:0:0:
187,307,37046,1,0,0:0:0:0:
202,284,37160,2,8,L|255:199,1,90
239,81,37615,1,8,0:0:0:0:
108,58,37842,2,8,L|46:46,1,45
116,146,38069,6,8,L|160:154,1,45
255,283,38410,1,8,0:0:0:0:
421,211,38637,1,8,0:0:0:0:
479,74,38865,2,8,L|417:62,1,45
340,192,39206,5,0,0:0:0:0:
255,283,39433,1,8,0:0:0:0:
240,292,39546,1,0,0:0:0:0:
224,296,39660,1,0,0:0:0:0:
208,300,39774,1,0,0:0:0:0:
192,300,39887,2,0,P|136:264|60:272,2,135,4|0|0,0:0|0:0|0:0,0:0:0:0:
312,368,40796,5,0,0:0:0:0:
432,304,41024,1,0,0:0:0:0:
464,140,41251,1,8,0:0:0:0:
441,136,41365,1,0,0:0:0:0:
418,136,41478,1,0,0:0:0:0:
396,142,41592,1,0,0:0:0:0:
372,148,41706,2,0,P|296:167|225:137,2,135,4|0|0,0:0|0:0|0:0,0:0:0:0:
304,80,42615,1,0,0:0:0:0:
340,237,42842,5,0,0:0:0:0:
208,316,43069,1,8,0:0:0:0:
128,328,43296,1,0,0:0:0:0:
112,316,43410,1,0,0:0:0:0:
92,300,43524,2,0,P|80:240|60:204,1,90,4|0,0:0|0:0,0:0:0:0:
44,140,43865,1,0,0:0:0:0:
108,88,43978,2,0,P|160:68|196:44,1,90,8|0,0:0|0:0,0:0:0:0:
264,24,44319,1,0,0:0:0:0:
304,96,44433,2,0,P|275:114|223:134,1,90,0|0,0:0|0:0,0:0:0:0:
216,232,44887,2,0,P|268:252|296:270,1,90,8|0,0:0|0:0,0:0:0:0:
348,352,45342,2,0,P|412:280|476:292,2,135,12|8|8,0:0|0:0|0:0,0:0:0:0:
440,364,46251,1,0,0:0:0:0:
440,364,46478,5,0,0:0:0:0:
444,280,46706,1,8,0:0:0:0:
452,196,46933,1,0,0:0:0:0:
376,58,47160,2,0,L|366:194,1,135,6|0,0:0|0:0,0:0:0:0:
300,360,47615,2,0,L|306:262,1,90,8|8,0:0|0:0,0:0:0:0:
305,270,48069,1,0,0:0:0:0:
224,148,48296,2,0,L|218:237,1,90,8|8,0:0|0:0,0:0:0:0:
125,290,48751,5,0,0:0:0:0:
46,215,48978,2,8,L|52:96,1,90,12|0,0:0|0:0,0:0:0:0:
128,221,49319,2,0,L|119:386,1,135,8|0,0:0|0:0,0:0:0:0:
282,366,49887,1,0,0:0:0:0:
428,271,50115,1,8,0:0:0:0:
428,271,50342,1,8,0:0:0:0:
412,187,50569,1,0,0:0:0:0:
396,102,50796,6,0,P|352:123|291:108,1,90,8|0,0:0|0:0,0:0:0:0:
158,70,51251,2,0,P|202:49|241:52,1,90,8|0,0:0|0:0,0:0:0:0:
218,138,51592,2,0,P|174:159|134:155,1,90,8|0,0:0|0:0,0:0:0:0:
53,141,51933,1,8,0:0:0:0:
90,18,52160,1,8,0:0:0:0:
239,44,52387,2,8,L|350:84,1,90
398,148,52842,5,0,0:0:0:0:
400,170,52956,1,8,0:0:0:0:
402,192,53069,1,8,0:0:0:0:
404,214,53183,1,8,0:0:0:0:
407,236,53296,1,8,0:0:0:0:
409,258,53410,1,8,0:0:0:0:
334,342,53637,2,8,L|329:297,1,45
320,216,53978,1,8,0:0:0:0:
221,177,54206,1,0,0:0:0:0:
97,172,54433,6,0,P|115:243|99:289,1,90,4|0,0:0|0:0,0:0:0:0:
91,355,54887,2,0,L|164:339,1,45,8|0,0:0|0:0,0:0:0:0:
225,304,55228,2,0,P|279:324|361:312,1,135,0|0,0:0|0:0,0:0:0:0:
432,291,55683,1,0,0:0:0:0:
432,291,55796,1,8,0:0:0:0:
456,193,56024,1,0,0:0:0:0:
396,130,56251,6,8,P|371:176|376:222,1,90
476,114,56706,1,8,0:0:0:0:
476,114,56819,1,0,0:0:0:0:
420,55,57046,2,8,L|325:42,1,90
250,30,57387,1,0,0:0:0:0:
250,30,57615,1,8,0:0:0:0:
141,121,57842,5,0,0:0:0:0:
120,128,57956,1,0,0:0:0:0:
99,137,58069,2,0,P|146:178|177:180,1,90,4|0,0:0|0:0,0:0:0:0:
313,182,58524,1,8,0:0:0:0:
313,182,58637,1,0,0:0:0:0:
457,116,58865,2,0,P|476:198|449:262,1,135,0|0,0:0|0:0,0:0:0:0:
430,319,59319,1,0,0:0:0:0:
355,351,59433,2,0,L|253:328,1,90,8|0,0:0|0:0,0:0:0:0:
174,218,59887,6,8,L|261:237,1,90
341,251,60228,1,0,0:0:0:0:
408,206,60342,2,8,P|368:172|321:173,1,90
260,136,60683,1,8,0:0:0:0:
260,136,60796,2,0,L|280:88,1,45,0|8,0:0|0:0,0:0:0:0:
328,80,61024,2,0,L|344:32,1,45
336,20,61251,1,8,0:0:0:0:
312,16,61365,1,0,0:0:0:0:
288,16,61478,1,0,0:0:0:0:
264,20,61592,1,0,0:0:0:0:
244,32,61706,6,0,P|184:56|144:48,1,90,4|0,0:0|0:0,0:0:0:0:
84,32,62046,1,0,0:0:0:0:
60,108,62160,2,0,L|40:164,1,45,8|0,0:0|0:0,0:0:0:0:
68,256,62501,1,0,0:0:0:0:
68,256,62615,1,0,0:0:0:0:
184,284,62842,1,0,0:0:0:0:
184,284,62956,1,0,0:0:0:0:
184,284,63069,2,0,P|236:280|276:244,1,90,8|0,0:0|0:0,0:0:0:0:
324,204,63410,1,0,0:0:0:0:
404,184,63524,6,8,L|508:200,1,90
492,60,63978,1,8,0:0:0:0:
492,60,64092,1,8,0:0:0:0:
344,72,64319,1,8,0:0:0:0:
344,72,64433,2,0,L|336:128,1,45,0|8,0:0|0:0,0:0:0:0:
372,192,64660,2,0,P|332:204|280:176,1,90,0|8,0:0|0:0,0:0:0:0:
152,96,65115,6,8,L|128:152,1,45
52,248,65456,2,0,L|69:206,1,45
152,280,65796,1,8,0:0:0:0:
256,268,66024,2,8,L|273:226,1,45
360,264,66251,1,0,0:0:0:0:
280,356,66478,1,0,0:0:0:0:
248,180,66706,1,8,0:0:0:0:
152,280,66933,5,0,0:0:0:0:
152,280,67046,1,0,0:0:0:0:
152,280,67160,2,2,L|80:252,1,45,10|2,0:0|0:0,0:0:0:0:
104,220,67387,2,2,L|80:176,1,45,2|2,0:0|0:0,0:0:0:0:
116,148,67615,2,2,L|112:88,1,45,10|2,0:0|0:0,0:0:0:0:
152,80,67842,2,2,L|176:36,1,45,2|2,0:0|0:0,0:0:0:0:
220,40,68069,1,10,0:0:0:0:
264,24,68183,1,2,0:0:0:0:
304,40,68296,1,2,0:0:0:0:
348,32,68410,1,2,0:0:0:0:
392,44,68524,6,0,P|444:56|492:40,1,90,10|0,0:0|0:0,0:0:0:0:
492,128,68865,1,0,0:0:0:0:
488,208,68978,2,0,L|480:320,1,90,4|0,0:0|0:0,0:0:0:0:
340,336,69433,1,8,0:0:0:0:
340,336,69546,1,0,0:0:0:0:
192,260,69774,2,0,L|104:288,1,90,0|0,0:0|0:0,0:0:0:0:
28,312,70115,1,0,0:0:0:0:
128,164,70342,2,0,L|213:136,1,90,8|0,0:0|0:0,0:0:0:0:
328,192,70796,6,8,P|392:204|424:188,1,90
372,124,71137,1,0,0:0:0:0:
372,124,71251,2,8,L|384:56,1,45
492,184,71592,2,8,L|472:288,1,90
456,356,71933,1,0,0:0:0:0:
456,356,72160,1,8,0:0:0:0:
368,360,72387,5,0,0:0:0:0:
368,360,72501,1,0,0:0:0:0:
368,360,72615,2,0,P|320:336|268:344,1,90,0|0,0:0|0:0,0:0:0:0:
56,244,73069,2,0,P|104:268|156:260,1,90,8|0,0:0|0:0,0:0:0:0:
200,216,73410,2,0,L|288:230,1,90,0|0,0:0|0:0,0:0:0:0:
368,244,73751,1,0,0:0:0:0:
448,116,73978,1,8,0:0:0:0:
424,116,74092,1,0,0:0:0:0:
400,112,74206,1,0,0:0:0:0:
380,104,74319,1,0,0:0:0:0:
360,96,74433,6,8,L|271:81,1,90
192,68,74774,1,0,0:0:0:0:
120,36,74887,2,8,P|116:96|144:128,1,90
188,176,75228,1,0,0:0:0:0:
188,176,75456,1,8,0:0:0:0:
304,228,75683,1,0,0:0:0:0:
292,248,75796,1,8,0:0:0:0:
276,264,75910,1,0,0:0:0:0:
256,276,76024,1,0,0:0:0:0:
236,284,76137,1,0,0:0:0:0:
212,288,76251,6,0,P|164:280|124:296,1,90,0|0,0:0|0:0,0:0:0:0:
304,356,76706,2,0,P|352:364|389:349,1,90,8|0,0:0|0:0,0:0:0:0:
452,300,77046,2,0,L|476:208,1,90,0|0,0:0|0:0,0:0:0:0:
492,132,77387,1,0,0:0:0:0:
352,112,77615,1,8,0:0:0:0:
212,128,77842,1,0,0:0:0:0:
84,200,78069,6,8,P|92:264|64:312,1,90
48,368,78410,1,0,0:0:0:0:
48,368,78524,2,8,L|112:380,1,45
244,320,78865,1,8,0:0:0:0:
404,340,79092,1,8,0:0:0:0:
268,148,79433,1,8,0:0:0:0:
268,148,79660,2,8,L|260:216,1,45
252,272,79887,1,0,0:0:0:0:
252,272,80115,5,0,0:0:0:0:
252,272,80228,1,0,0:0:0:0:
252,272,80342,2,0,P|328:264|360:280,1,90,8|8,0:0|0:0,0:0:0:0:
424,292,80683,1,8,0:0:0:0:
424,292,80910,1,0,0:0:0:0:
424,292,81024,2,0,L|456:192,1,90,0|8,0:0|0:0,0:0:0:0:
400,72,81478,2,0,L|380:136,1,45,0|0,0:0|0:0,0:0:0:0:
364,196,81706,5,8,0:0:0:0:
364,196,81819,1,8,0:0:0:0:
260,252,82046,1,8,0:0:0:0:
140,240,82274,1,8,0:0:0:0:
48,160,82501,2,8,L|60:104,1,45,8|8,0:0|0:0,0:0:0:0:
172,36,82842,5,0,0:0:0:0:
192,48,82956,1,8,0:0:0:0:
212,52,83069,1,8,0:0:0:0:
236,52,83183,1,8,0:0:0:0:
256,44,83296,1,8,0:0:0:0:
448,80,83524,6,0,P|396:72|348:96,1,90,4|0,0:0|0:0,0:0:0:0:
292,128,83865,1,0,0:0:0:0:
296,208,83978,2,0,L|304:304,1,90,8|0,0:0|0:0,0:0:0:0:
240,348,84319,1,0,0:0:0:0:
172,304,84433,2,0,L|164:214,1,90
160,136,84774,1,0,0:0:0:0:
108,192,84887,2,0,P|132:208|220:188,1,90,8|0,0:0|0:0,0:0:0:0:
268,192,85228,1,0,0:0:0:0:
352,168,85342,6,0,L|444:184,1,90
504,228,85683,1,0,0:0:0:0:
476,304,85796,2,0,L|387:288,2,90,8|0|0,0:0|0:0|0:0,0:0:0:0:
476,304,86478,1,0,0:0:0:0:
404,176,86706,1,8,0:0:0:0:
348,240,86933,1,0,0:0:0:0:
488,180,87160,6,0,P|476:128|440:100,1,90
372,76,87501,1,0,0:0:0:0:
372,76,87615,1,8,0:0:0:0:
312,16,87842,1,0,0:0:0:0:
272,136,88069,2,0,P|204:160|172:144,1,90
212,80,88410,1,0,0:0:0:0:
212,80,88524,1,8,0:0:0:0:
116,136,88751,1,0,0:0:0:0:
296,208,88978,1,0,0:0:0:0:
172,196,89206,6,0,P|116:220|76:204,1,90,0|8,0:0|0:0,0:0:0:0:
240,272,89660,2,0,P|312:288|344:272,1,90,8|8,0:0|0:0,0:0:0:0:
412,264,90115,1,8,0:0:0:0:
468,200,90342,2,0,P|396:184|383:188,1,90,8|0,0:0|0:0,0:0:0:0:
240,272,90796,5,8,0:0:0:0:
76,152,91024,2,0,L|88:212,1,45
160,92,91365,2,0,L|151:47,1,45
176,212,91706,1,8,0:0:0:0:
148,336,91933,1,0,0:0:0:0:
48,208,92160,1,0,0:0:0:0:
52,192,92274,1,0,0:0:0:0:
56,176,92387,1,0,0:0:0:0:
60,160,92501,1,0,0:0:0:0:
160,92,92615,6,0,L|136:200,1,90,8|0,0:0|0:0,0:0:0:0:
120,260,92956,1,0,0:0:0:0:
72,324,93069,2,0,P|128:312|168:324,1,90
236,340,93410,1,0,0:0:0:0:
316,356,93524,2,0,L|416:324,1,90,8|0,0:0|0:0,0:0:0:0:
468,184,93978,1,0,0:0:0:0:
396,116,94206,6,0,L|412:52,1,45,0|0,0:0|0:0,0:0:0:0:
468,184,94433,2,0,P|396:204|324:184,1,135,8|0,0:0|0:0,0:0:0:0:
216,112,94887,2,0,P|280:104|324:124,1,90
104,304,95342,2,0,L|88:215,1,90,8|0,0:0|0:0,0:0:0:0:
132,60,95683,2,0,L|147:148,1,90
148,148,96024,1,0,0:0:0:0:
148,148,96251,5,10,0:0:0:0:
152,192,96365,1,2,0:0:0:0:
180,228,96478,1,2,0:0:0:0:
224,240,96592,1,2,0:0:0:0:
268,236,96706,2,2,L|296:188,1,45,10|2,0:0|0:0,0:0:0:0:
308,156,96933,2,2,L|288:116,1,45,2|2,0:0|0:0,0:0:0:0:
300,72,97160,2,2,L|336:20,1,45,10|2,0:0|0:0,0:0:0:0:
372,28,97387,5,2,0:0:0:0:
384,72,97501,1,2,0:0:0:0:
416,104,97615,1,10,0:0:0:0:
456,124,97728,1,2,0:0:0:0:
504,128,97842,1,2,0:0:0:0:
488,256,98069,6,0,P|440:260|404:304,1,90,4|0,0:0|0:0,0:0:0:0:
356,348,98410,1,0,0:0:0:0:
276,356,98524,2,0,L|176:312,1,90,8|0,0:0|0:0,0:0:0:0:
120,288,98865,1,0,0:0:0:0:
120,288,98978,1,0,0:0:0:0:
96,184,99206,1,0,0:0:0:0:
96,184,99319,1,0,0:0:0:0:
140,80,99546,5,0,0:0:0:0:
140,80,99660,2,0,P|216:88|256:76,1,90
344,16,100001,2,0,P|268:8|255:10,1,90,0|0,0:0|0:0,0:0:0:0:
228,84,100342,2,0,L|248:184,1,90,8|0,0:0|0:0,0:0:0:0:
264,312,100796,1,0,0:0:0:0:
368,248,101024,1,0,0:0:0:0:
496,248,101251,6,0,L|476:340,1,90,8|0,0:0|0:0,0:0:0:0:
428,152,101706,2,0,L|447:64,1,90,2|0,0:0|0:0,0:0:0:0:
376,24,102046,1,0,0:0:0:0:
312,72,102160,2,0,P|256:88|200:72,1,90,8|0,0:0|0:0,0:0:0:0:
64,64,102615,1,0,0:0:0:0:
168,192,102842,1,0,0:0:0:0:
168,212,102956,1,0,0:0:0:0:
168,228,103069,2,0,P|160:288|140:336,1,90,8|0,0:0|0:0,0:0:0:0:
88,364,103410,1,0,0:0:0:0:
56,288,103524,2,0,P|156:272|264:312,1,180,0|8,0:0|0:0,0:0:0:0:
388,340,104206,5,0,0:0:0:0:
408,132,104433,2,0,P|376:196|384:268,1,135,8|0,0:0|0:0,0:0:0:0:
260,360,104887,2,0,P|292:296|284:224,1,135,8|0,0:0|0:0,0:0:0:0:
260,160,105342,5,0,0:0:0:0:
260,160,105456,2,0,L|280:72,1,90,0|0,0:0|0:0,0:0:0:0:
112,240,105796,2,0,L|91:327,1,90,8|0,0:0|0:0,0:0:0:0:
184,196,106251,1,0,0:0:0:0:
184,196,106365,1,0,0:0:0:0:
336,244,106592,5,0,0:0:0:0:
336,244,106706,1,8,0:0:0:0:
464,168,106933,1,0,0:0:0:0:
432,20,107160,2,0,P|408:80|432:124,1,90,0|0,0:0|0:0,0:0:0:0:
464,168,107501,1,0,0:0:0:0:
480,248,107615,2,0,L|460:352,1,90,8|0,0:0|0:0,0:0:0:0:
336,244,108069,1,0,0:0:0:0:
292,108,108296,5,0,0:0:0:0:
292,108,108410,1,0,0:0:0:0:
292,108,108524,2,0,L|176:76,1,90,8|0,0:0|0:0,0:0:0:0:
128,64,108865,1,0,0:0:0:0:
56,100,108978,2,0,P|96:140|144:144,1,90,0|0,0:0|0:0,0:0:0:0:
208,168,109319,1,0,0:0:0:0:
276,212,109433,2,0,L|284:320,1,90,8|0,0:0|0:0,0:0:0:0:
288,348,109774,1,0,0:0:0:0:
328,372,109887,5,0,0:0:0:0:
372,368,110001,1,0,0:0:0:0:
412,352,110115,1,0,0:0:0:0:
428,312,110228,1,0,0:0:0:0:
420,268,110342,2,0,P|420:180|440:160,1,90,8|0,0:0|0:0,0:0:0:0:
418,182,110683,1,0,0:0:0:0:
418,182,110796,1,8,0:0:0:0:
320,56,110910,1,8,0:0:0:0:
320,56,111137,5,8,0:0:0:0:
160,72,111365,1,8,0:0:0:0:
248,196,111592,1,8,0:0:0:0:
248,196,111706,1,8,0:0:0:0:
348,316,111933,5,8,0:0:0:0:
192,336,112160,1,8,0:0:0:0:
248,196,112615,1,4,0:0:0:0:
496,168,127160,6,0,L|460:284,1,90,4|0,0:0|0:0,0:0:0:0:
360,328,127615,1,8,0:0:0:0:
360,328,127728,1,0,0:0:0:0:
240,300,127956,2,0,P|168:280|104:296,1,135,0|0,0:0|0:0,0:0:0:0:
32,316,128410,1,0,0:0:0:0:
48,236,128524,2,0,L|88:152,1,90,8|0,0:0|0:0,0:0:0:0:
160,32,128978,6,8,P|216:52|256:40,1,90
400,88,129433,1,8,0:0:0:0:
400,88,129546,1,0,0:0:0:0:
480,168,129774,2,8,P|420:208|384:192,1,90
328,192,130115,1,0,0:0:0:0:
328,192,130342,1,8,0:0:0:0:
332,216,130456,1,0,0:0:0:0:
336,236,130569,1,0,0:0:0:0:
340,256,130683,1,0,0:0:0:0:
344,276,130796,6,0,L|328:372,1,90,0|0,0:0|0:0,0:0:0:0:
448,236,131251,2,0,L|462:147,1,90,8|0,0:0|0:0,0:0:0:0:
432,72,131592,2,0,P|376:76|348:52,1,90,0|0,0:0|0:0,0:0:0:0:
288,8,131933,1,0,0:0:0:0:
188,120,132160,1,8,0:0:0:0:
188,120,132387,1,0,0:0:0:0:
105,95,132615,6,8,P|127:57|168:40,1,90
192,204,133069,2,8,P|170:242|129:259,1,90
48,272,133410,2,8,L|72:368,1,90
112,372,133751,1,0,0:0:0:0:
156,360,133865,1,0,0:0:0:0:
200,372,133978,2,0,L|256:364,1,45,8|0,0:0|0:0,0:0:0:0:
284,344,134206,2,0,L|348:356,1,45,0|0,0:0|0:0,0:0:0:0:
372,364,134433,6,0,P|432:332|480:340,1,90,0|0,0:0|0:0,0:0:0:0:
472,200,134887,1,8,0:0:0:0:
472,200,135001,1,0,0:0:0:0:
424,68,135228,2,0,P|368:72|320:40,1,90,0|0,0:0|0:0,0:0:0:0:
268,20,135569,1,0,0:0:0:0:
268,20,135796,2,0,L|252:136,1,90,8|0,0:0|0:0,0:0:0:0:
144,284,136251,6,8,L|156:194,1,90
172,48,136706,1,8,0:0:0:0:
172,48,136819,1,8,0:0:0:0:
324,88,137046,2,8,L|424:120,1,90
488,140,137387,1,0,0:0:0:0:
416,236,137615,5,8,0:0:0:0:
404,256,137728,1,0,0:0:0:0:
392,276,137842,1,0,0:0:0:0:
380,296,137956,1,0,0:0:0:0:
368,316,138069,2,0,L|264:340,1,90,0|0,0:0|0:0,0:0:0:0:
200,348,138410,1,0,0:0:0:0:
120,360,138524,2,0,P|128:308|168:280,1,90,8|0,0:0|0:0,0:0:0:0:
232,256,138865,1,0,0:0:0:0:
168,204,138978,2,0,L|64:168,1,90,0|0,0:0|0:0,0:0:0:0:
36,72,139433,6,0,L|144:108,1,90,8|0,0:0|0:0,0:0:0:0:
121,100,139774,1,0,0:0:0:0:
164,84,139887,1,10,0:0:0:0:
208,84,140001,1,2,0:0:0:0:
252,96,140115,1,2,0:0:0:0:
288,124,140228,1,2,0:0:0:0:
324,152,140342,2,2,L|388:152,1,45,10|2,0:0|0:0,0:0:0:0:
416,152,140569,2,2,L|472:152,2,45,2|2|10,0:0|0:0|0:0,0:0:0:0:
368,308,141024,5,2,0:0:0:0:
324,324,141137,1,2,0:0:0:0:
280,328,141251,1,10,0:0:0:0:
236,320,141365,1,2,0:0:0:0:
196,296,141478,1,2,0:0:0:0:
164,264,141592,1,2,0:0:0:0:
120,256,141706,6,0,L|24:284,1,90,4|0,0:0|0:0,0:0:0:0:
176,168,142160,2,0,L|120:148,1,45,8|0,0:0|0:0,0:0:0:0:
208,80,142501,2,0,P|149:49|84:63,1,135,0|0,0:0|0:0,0:0:0:0:
12,100,142956,1,0,0:0:0:0:
40,176,143069,2,0,L|24:276,1,90,8|0,0:0|0:0,0:0:0:0:
128,332,143524,6,8,P|180:296|224:304,1,90
284,304,143865,1,0,0:0:0:0:
364,312,143978,2,0,L|436:296,1,45,8|0,0:0|0:0,0:0:0:0:
496,176,144319,2,8,L|396:200,1,90
408,197,144660,1,0,0:0:0:0:
244,28,144887,5,8,0:0:0:0:
208,56,145001,1,0,0:0:0:0:
192,100,145115,1,0,0:0:0:0:
196,144,145228,1,0,0:0:0:0:
216,184,145342,2,0,L|212:284,1,90,0|0,0:0|0:0,0:0:0:0:
324,128,145796,1,8,0:0:0:0:
324,128,146024,2,0,L|328:68,2,45,0|0|0,0:0|0:0|0:0,0:0:0:0:
404,228,146478,1,0,0:0:0:0:
504,168,146706,5,8,0:0:0:0:
508,212,146819,1,0,0:0:0:0:
500,256,146933,1,0,0:0:0:0:
484,296,147046,1,0,0:0:0:0:
452,328,147160,2,8,L|344:356,1,90
240,344,147615,1,8,0:0:0:0:
224,220,147842,2,0,L|164:236,1,45,0|8,0:0|0:0,0:0:0:0:
140,256,148069,2,0,L|96:240,1,45
60,220,148296,6,0,L|12:228,2,45,0|0|8,0:0|0:0|0:0,0:0:0:0:
72,176,148637,1,0,0:0:0:0:
64,132,148751,1,0,0:0:0:0:
92,96,148865,1,0,0:0:0:0:
88,52,148978,6,0,P|160:80|204:68,1,90,0|0,0:0|0:0,0:0:0:0:
252,80,149319,1,0,0:0:0:0:
332,60,149433,2,0,L|400:88,1,45,8|0,0:0|0:0,0:0:0:0:
472,136,149774,2,0,P|420:184|348:184,1,135,0|0,0:0|0:0,0:0:0:0:
280,172,150228,1,0,0:0:0:0:
204,144,150342,2,0,L|180:232,1,90,8|0,0:0|0:0,0:0:0:0:
52,300,150796,6,8,L|76:208,1,90
28,148,151137,1,0,0:0:0:0:
60,72,151251,2,8,L|112:44,1,45
204,140,151478,1,0,0:0:0:0:
204,140,151592,2,0,L|164:118,2,45,8|0|8,0:0|0:0|0:0,0:0:0:0:
280,172,151933,1,0,0:0:0:0:
392,196,152160,6,0,P|364:252|316:264,1,90,8|0,0:0|0:0,0:0:0:0:
260,276,152501,1,0,0:0:0:0:
188,316,152615,2,0,L|96:296,1,90
36,92,153069,2,0,L|140:124,1,90,8|0,0:0|0:0,0:0:0:0:
200,144,153410,1,0,0:0:0:0:
200,144,153524,2,0,L|312:112,1,90,0|0,0:0|0:0,0:0:0:0:
480,64,153978,5,8,0:0:0:0:
480,64,154206,2,0,L|468:132,1,45,0|0,0:0|0:0,0:0:0:0:
364,256,154433,2,8,L|372:204,1,45
480,64,154774,1,8,0:0:0:0:
364,256,155001,1,8,0:0:0:0:
480,64,155228,2,8,L|473:108,1,45,8|8,0:0|0:0,0:0:0:0:
304,104,155569,5,0,0:0:0:0:
304,104,155796,1,0,0:0:0:0:
304,104,156024,1,0,0:0:0:0:
244,172,156251,2,0,P|204:200|140:200,1,90,12|0,0:0|0:0,0:0:0:0:
76,320,156706,2,0,L|100:268,1,45,8|0,0:0|0:0,0:0:0:0:
92,88,157046,2,0,L|48:196,1,90,0|0,0:0|0:0,0:0:0:0:
28,248,157387,1,0,0:0:0:0:
176,124,157615,6,0,L|212:24,1,90,8|0,0:0|0:0,0:0:0:0:
284,12,157956,1,0,0:0:0:0:
276,92,158069,2,8,P|304:132|368:152,1,90
348,272,158410,1,0,0:0:0:0:
348,272,158524,2,0,L|392:232,1,45,8|0,0:0|0:0,0:0:0:0:
236,316,158865,2,0,P|164:328|132:320,1,90,0|0,0:0|0:0,0:0:0:0:
108,344,159206,1,0,0:0:0:0:
60,192,159433,5,8,0:0:0:0:
68,148,159546,1,0,0:0:0:0:
92,108,159660,1,0,0:0:0:0:
128,84,159774,1,0,0:0:0:0:
172,76,159887,2,0,P|224:104|292:84,1,90,0|0,0:0|0:0,0:0:0:0:
296,168,160228,1,0,0:0:0:0:
348,224,160342,2,0,L|476:204,1,90,8|0,0:0|0:0,0:0:0:0:
328,308,160683,2,0,L|239:321,1,90,0|0,0:0|0:0,0:0:0:0:
172,360,161024,5,0,0:0:0:0:
92,336,161137,2,0,L|124:276,1,45,0|8,0:0|0:0,0:0:0:0:
12,368,161478,1,0,0:0:0:0:
172,360,161706,1,8,0:0:0:0:
12,368,161933,1,8,0:0:0:0:
172,360,162160,2,0,L|216:272,1,90,8|0,0:0|0:0,0:0:0:0:
280,236,162501,2,0,L|318:154,1,90,8|0,0:0|0:0,0:0:0:0:
304,328,163069,5,8,0:0:0:0:
344,312,163183,1,0,0:0:0:0:
388,308,163296,1,0,0:0:0:0:
432,316,163410,1,0,0:0:0:0:
472,336,163524,2,0,P|512:292|508:236,1,90,0|0,0:0|0:0,0:0:0:0:
508,248,163865,1,0,0:0:0:0:
472,172,163978,6,0,L|508:120,2,45,8|0|0,0:0|0:0|0:0,0:0:0:0:
400,200,164319,2,0,P|352:208|296:176,1,90,0|0,0:0|0:0,0:0:0:0:
244,164,164660,1,0,0:0:0:0:
244,164,164774,1,0,0:0:0:0:
244,164,164887,2,0,L|144:172,1,90,8|0,0:0|0:0,0:0:0:0:
52,320,165342,6,8,L|141:312,1,90
208,348,165683,1,0,0:0:0:0:
280,368,165796,2,8,L|340:364,1,45
448,228,166137,2,8,L|348:236,1,90
152,72,166706,5,8,0:0:0:0:
124,192,166933,1,0,0:0:0:0:
124,192,167046,1,0,0:0:0:0:
152,72,167160,1,0,0:0:0:0:
240,164,167387,1,0,0:0:0:0:
72,120,167615,5,8,0:0:0:0:
196,248,167842,1,0,0:0:0:0:
196,248,167955,1,0,0:0:0:0:
252,72,168069,1,0,0:0:0:0:
196,248,168296,5,0,0:0:0:0:
72,120,168524,1,8,0:0:0:0:
196,248,168751,2,0,L|260:240,1,45,0|0,0:0|0:0,0:0:0:0:
284,248,168978,1,10,0:0:0:0:
320,220,169092,1,2,0:0:0:0:
364,228,169206,1,2,0:0:0:0:
368,184,169319,1,2,0:0:0:0:
352,140,169433,5,10,0:0:0:0:
320,108,169546,1,2,0:0:0:0:
276,100,169660,1,2,0:0:0:0:
232,108,169774,1,2,0:0:0:0:
200,140,169887,1,10,0:0:0:0:
156,156,170001,1,2,0:0:0:0:
112,152,170115,1,2,0:0:0:0:
68,136,170228,1,2,0:0:0:0:
40,104,170342,5,10,0:0:0:0:
40,104,170456,1,2,0:0:0:0:
40,104,170569,1,2,0:0:0:0:
40,104,170683,1,2,0:0:0:0:
40,104,170796,2,0,L|80:16,1,90,4|0,0:0|0:0,0:0:0:0:
112,152,171251,2,0,L|84:220,1,45,8|0,0:0|0:0,0:0:0:0:
44,336,171592,6,0,P|116:324|184:352,1,135,0|0,0:0|0:0,0:0:0:0:
244,368,172046,1,0,0:0:0:0:
320,352,172160,2,0,L|420:332,1,90,8|0,0:0|0:0,0:0:0:0:
460,188,172615,5,8,0:0:0:0:
336,104,172842,1,8,0:0:0:0:
460,188,173069,2,8,L|512:136,1,45
336,104,173410,1,8,0:0:0:0:
460,188,173637,1,8,0:0:0:0:
328,260,173978,5,8,0:0:0:0:
284,268,174092,1,0,0:0:0:0:
240,260,174206,1,0,0:0:0:0:
204,236,174319,1,0,0:0:0:0:
180,200,174433,2,0,L|76:220,1,90,0|0,0:0|0:0,0:0:0:0:
176,48,174887,2,0,L|280:28,1,90,8|0,0:0|0:0,0:0:0:0:
340,40,175228,1,0,0:0:0:0:
388,100,175342,2,0,L|492:80,1,90,0|0,0:0|0:0,0:0:0:0:
436,224,175796,5,8,0:0:0:0:
388,236,175910,1,0,0:0:0:0:
340,228,176024,1,0,0:0:0:0:
300,200,176137,1,0,0:0:0:0:
276,156,176251,6,8,L|184:180,1,90
116,200,176592,1,0,0:0:0:0:
84,296,176706,2,0,L|184:268,1,90,8|8,0:0|0:0,0:0:0:0:
224,336,177046,2,8,L|324:308,1,90
352,328,177387,1,0,0:0:0:0:
396,340,177501,1,0,0:0:0:0:
436,316,177615,5,8,0:0:0:0:
480,324,177728,1,0,0:0:0:0:
508,288,177842,1,0,0:0:0:0:
508,244,177956,1,0,0:0:0:0:
488,204,178069,6,0,L|504:104,1,90,0|0,0:0|0:0,0:0:0:0:
396,28,178524,1,8,0:0:0:0:
396,28,178637,1,0,0:0:0:0:
312,104,178865,2,0,L|292:208,1,90,0|0,0:0|0:0,0:0:0:0:
272,232,179206,1,0,0:0:0:0:
184,368,179433,2,0,L|200:279,1,90,8|0,0:0|0:0,0:0:0:0:
136,124,179887,5,8,0:0:0:0:
312,104,180115,1,8,0:0:0:0:
136,124,180342,2,8,L|120:184,1,45,8|8,0:0|0:0,0:0:0:0:
312,104,180683,1,8,0:0:0:0:
136,124,180910,1,8,0:0:0:0:
448,356,181251,6,0,P|380:364|352:340,1,90,8|0,0:0|0:0,0:0:0:0:
292,328,181592,1,0,0:0:0:0:
224,292,181706,2,0,L|132:320,1,90,0|0,0:0|0:0,0:0:0:0:
48,216,182160,1,8,0:0:0:0:
48,216,182274,1,0,0:0:0:0:
108,80,182501,1,0,0:0:0:0:
248,132,182842,1,0,0:0:0:0:
108,80,183069,1,8,0:0:0:0:
48,216,183296,1,0,0:0:0:0:
48,216,183410,1,0,0:0:0:0:
48,216,183524,6,2,L|72:264,1,45,10|2,0:0|0:0,0:0:0:0:
92,296,183751,2,2,L|112:255,1,45,2|2,0:0|0:0,0:0:0:0:
152,236,183978,2,2,L|174:275,1,45,10|2,0:0|0:0,0:0:0:0:
212,300,184206,2,2,L|232:259,1,45,2|2,0:0|0:0,0:0:0:0:
272,236,184433,2,2,L|292:276,1,45,10|2,0:0|0:0,0:0:0:0:
332,300,184660,2,2,L|352:259,1,45,2|2,0:0|0:0,0:0:0:0:
380,224,184887,6,0,L|416:306,1,90,8|0,0:0|0:0,0:0:0:0:
460,320,185228,1,0,0:0:0:0:
460,320,185342,1,0,0:0:0:0:
484,172,185569,1,0,0:0:0:0:
344,100,185796,5,8,0:0:0:0:
344,100,185910,1,0,0:0:0:0:
344,100,186137,2,0,P|344:168|380:224,1,135,0|0,0:0|0:0,0:0:0:0:
460,320,186706,1,8,0:0:0:0:
460,320,186933,2,0,L|480:280,1,45,0|0,0:0|0:0,0:0:0:0:
316,360,187160,5,8,0:0:0:0:
316,360,187274,1,8,0:0:0:0:
460,320,187501,1,8,0:0:0:0:
316,360,187728,1,8,0:0:0:0:
460,320,187956,2,8,L|496:256,1,45,8|8,0:0|0:0,0:0:0:0:
504,144,188410,1,2,0:0:0:0:
504,144,188524,5,10,0:0:0:0:
504,144,188637,1,2,0:0:0:0:
504,144,188751,1,2,0:0:0:0:
504,144,188865,1,2,0:0:0:0:
504,144,188978,2,2,P|436:160|384:132,1,90,2|2,0:0|0:0,0:0:0:0:
376,144,189319,1,2,0:0:0:0:
336,124,189433,1,10,0:0:0:0:
292,116,189546,1,2,0:0:0:0:
248,120,189660,1,2,0:0:0:0:
204,136,189774,1,2,0:0:0:0:
172,168,189887,6,2,L|100:200,1,45,2|2,0:0|0:0,0:0:0:0:
140,265,190115,2,2,L|100:284,1,45,2|2,0:0|0:0,0:0:0:0:
84,356,190342,1,10,0:0:0:0:
136,88,190569,5,2,0:0:0:0:
136,88,190683,1,2,0:0:0:0:
136,88,190796,2,2,P|76:92|36:72,1,90,2|2,0:0|0:0,0:0:0:0:
8,64,191137,2,2,L|24:172,1,90,2|2,0:0|0:0,0:0:0:0:
24,200,191478,1,2,0:0:0:0:
84,356,191706,6,2,L|140:328,1,45,2|2,0:0|0:0,0:0:0:0:
168,324,191933,2,2,L|232:312,1,45,2|2,0:0|0:0,0:0:0:0:
256,312,192160,2,2,L|316:320,1,45,10|2,0:0|0:0,0:0:0:0:
344,324,192387,2,2,L|408:344,1,45,2|2,0:0|0:0,0:0:0:0:
432,352,192615,2,2,P|440:296|476:236,1,90,2|2,0:0|0:0,0:0:0:0:
432,96,193069,6,2,P|427:140|410:182,1,90,10|2,0:0|0:0,0:0:0:0:
384,220,193410,1,2,0:0:0:0:
340,236,193524,2,2,B|276:248|304:244,1,45,2|2,0:0|0:0,0:0:0:0:
152,176,193751,2,2,L|252:160,1,90,2|10,0:0|0:0,0:0:0:0:
312,60,194206,6,2,B|248:72|276:68,1,45,2|2,0:0|0:0,0:0:0:0:
224,56,194433,2,2,P|148:52|116:32,1,90,2|2,0:0|0:0,0:0:0:0:
24,136,194887,2,2,L|56:104,1,45,10|2,0:0|0:0,0:0:0:0:
40,240,195115,2,2,L|72:208,1,45,2|2,0:0|0:0,0:0:0:0:
60,344,195569,5,2,0:0:0:0:
176,312,195796,1,10,0:0:0:0:
300,340,196024,1,2,0:0:0:0:
264,200,196251,1,2,0:0:0:0:
360,56,196478,5,2,0:0:0:0:
344,100,196592,1,2,0:0:0:0:
344,144,196706,1,10,0:0:0:0:
360,188,196819,1,2,0:0:0:0:
392,220,196933,1,2,0:0:0:0:
436,232,197046,1,2,0:0:0:0:
480,232,197160,6,2,P|476:304|476:308,1,45,2|2,0:0|0:0,0:0:0:0:
475,290,197387,1,2,0:0:0:0:
475,303,197501,1,2,0:0:0:0:
474,316,197615,1,10,0:0:0:0:
473,329,197728,1,2,0:0:0:0:
473,342,197842,1,2,0:0:0:0:
473,355,197956,1,2,0:0:0:0:
473,368,198069,5,2,0:0:0:0:
439,355,198183,1,2,0:0:0:0:
405,367,198296,1,2,0:0:0:0:
373,348,198410,1,2,0:0:0:0:
338,357,198524,1,10,0:0:0:0:
308,336,198637,1,2,0:0:0:0:
273,346,198751,1,2,0:0:0:0:
243,324,198865,1,2,0:0:0:0:
208,332,198978,2,2,L|136:314,2,45,2|2|2,0:0|0:0|0:0,0:0:0:0:
208,332,199319,1,2,0:0:0:0:
167,371,199433,2,2,L|72:350,1,90,10|2,0:0|0:0,0:0:0:0:
36,196,199887,6,2,L|123:215,1,90,2|2,0:0|0:0,0:0:0:0:
160,188,200228,1,2,0:0:0:0:
200,212,200342,2,2,P|264:220|312:204,1,90,10|2,0:0|0:0,0:0:0:0:
408,116,200796,2,2,P|364:107|319:113,1,90,2|2,0:0|0:0,0:0:0:0:
276,128,201137,1,2,0:0:0:0:
236,108,201251,2,2,L|116:72,1,90,10|2,0:0|0:0,0:0:0:0:
36,56,201706,5,2,0:0:0:0:
72,168,201933,1,2,0:0:0:0:
96,204,202046,1,2,0:0:0:0:
108,244,202160,1,10,0:0:0:0:
104,284,202274,1,2,0:0:0:0:
92,324,202387,2,2,L|144:332,2,45,2|2|2,0:0|0:0|0:0,0:0:0:0:
32,376,202842,5,2,0:0:0:0:
212,304,203069,1,10,0:0:0:0:
384,356,203296,1,2,0:0:0:0:
212,304,203524,5,6,0:0:0:0:
