osu file format v12

[General]
AudioFilename: deceive .mp3
AudioLeadIn: 0
PreviewTime: 73896
Countdown: 0
SampleSet: Normal
StackLeniency: 0.7
Mode: 0
LetterboxInBreaks: 0

[Editor]
DistanceSpacing: 1.2
BeatDivisor: 4
GridSize: 4

[Metadata]
Title:Yobanashi Deceive
TitleUnicode:夜咄ディセイブ
Artist:Jin
ArtistUnicode:じん
Creator:tutuhaha
Version:Normal
Source:
Tags:Vocaloid IA Shizen no Teki P Mekaku City Records Kagerou Project
BeatmapID:230807
BeatmapSetID:80104

[Difficulty]
HPDrainRate:3
CircleSize:3
OverallDifficulty:4
ApproachRate:5
SliderMultiplier:0.5
SliderTickRate:1

[Events]
//Background and Video events
Video,0,"deceive .flv"
0,0,"33685648.jpg",0,0
//Break Periods
2,37634,43619
2,144711,158080
//Storyboard Layer 0 (Background)
//Storyboard Layer 1 (Fail)
//Storyboard Layer 2 (Pass)
//Storyboard Layer 3 (Foreground)
//Storyboard Sound Samples
//Background Colour Transformations
3,100,163,162,255

[TimingPoints]
6050,230.769230769231,4,1,1,60,1,0
72223,-100,4,1,2,60,0,0
72338,-100,4,1,1,60,0,0
74357,-100,4,1,2,70,0,1
80300,-100,4,1,1,70,0,1
80415,-100,4,1,2,70,0,1
86242,-100,4,1,1,70,0,1
87280,-100,4,1,1,60,0,0
111684,-100,4,1,2,60,0,0
111800,-100,4,1,1,60,0,0
123453,-100,4,1,2,60,0,0
123569,-100,4,1,1,60,0,0
124376,-100,4,1,2,60,0,0
124492,-100,4,1,1,60,0,0
125300,-100,4,1,2,60,0,0
125415,-100,4,1,1,60,0,0
126223,-100,4,1,2,60,0,0
126338,-100,4,1,1,60,0,0
127146,-100,4,1,2,60,0,0
127261,-100,4,1,1,60,0,0
128069,-100,4,1,2,60,0,0
128184,-100,4,1,1,60,0,0
128992,-100,4,1,2,60,0,0
129107,-100,4,1,1,60,0,0
131588,-100,4,1,2,70,0,1
137530,-100,4,1,1,70,0,1
137646,-100,4,1,2,70,0,1
143473,-100,4,1,1,70,0,1
144511,-100,4,1,1,60,0,0
159280,-100,4,1,2,70,0,1
165511,-100,4,1,1,70,0,1
165915,-100,4,1,2,70,0,1
167530,-100,4,1,1,70,0,1
167646,-100,4,1,2,70,0,1
171280,-100,4,1,1,70,0,1
173126,-100,4,1,1,60,0,0
174973,-100,4,1,1,60,0,1
175088,-100,4,1,1,60,0,0

[Colours]
Combo1 : 77,138,81
Combo2 : 174,153,81
Combo3 : 168,0,0
Combo4 : 128,0,255

[HitObjects]
376,308,7896,22,8,L|276:320,1,100,4|0,0:0|0:0,0:0:0:0:
156,332,8819,2,0,P|136:288|136:228,1,100,0|8,0:0|0:0,0:0:0:0:
108,120,9742,2,0,L|76:72,2,50,0|0|8,0:0|0:0|0:0,0:0:0:0:
220,76,10665,2,0,L|247:117,2,50,0|0|8,0:0|0:0|0:0,0:0:0:0:
336,48,11588,5,0,0:0:0:0:
444,100,12050,1,8,0:0:0:0:
460,220,12511,2,0,P|456:260|420:308,1,100,0|8,0:0|0:0,0:0:0:0:
308,352,13434,6,0,L|208:320,1,100,0|8,0:0|0:0,0:0:0:0:
156,344,14126,2,0,P|124:296|40:268,1,150,0|8,0:0|0:0,0:0:0:0:
36,148,15280,5,4,0:0:0:0:
156,152,15742,1,8,0:0:0:0:
228,60,16203,2,0,P|264:48|332:56,1,100,0|8,0:0|0:0,0:0:0:0:
436,100,17126,6,0,L|450:52,2,50,0|0|8,0:0|0:0|0:0,0:0:0:0:
340,172,18050,2,0,L|325:219,2,50,0|0|8,0:0|0:0|0:0,0:0:0:0:
444,236,18973,5,0,0:0:0:0:
384,340,19434,1,8,0:0:0:0:
264,360,19896,2,0,P|256:316|288:264,1,100,0|8,0:0|0:0,0:0:0:0:
204,180,20819,6,0,L|176:132,1,50
156,80,21280,2,0,P|128:108|64:116,1,100,8|0,0:0|0:0,0:0:0:0:
12,128,21973,1,0,0:0:0:0:
28,188,22203,2,0,L|56:288,1,100,8|4,0:0|0:0,0:0:0:0:
168,328,23126,5,8,0:0:0:0:
288,332,23588,2,0,P|272:292|232:248,1,100,0|8,0:0|0:0,0:0:0:0:
152,164,24511,6,0,P|160:120|192:72,1,100,0|8,0:0|0:0,0:0:0:0:
240,44,25203,2,0,P|280:92|368:108,1,150,0|8,0:0|0:0,0:0:0:0:
480,92,26357,5,0,0:0:0:0:
464,212,26819,1,8,0:0:0:0:
404,316,27280,2,0,P|344:292|320:264,1,100,0|8,0:0|0:0,0:0:0:0:
256,164,28203,6,0,P|232:152|152:156,2,100,0|8|0,0:0|0:0|0:0,0:0:0:0:
192,268,29588,2,0,L|172:324,1,50,8|0,0:0|0:0,0:0:0:0:
128,352,30050,6,0,P|104:328|40:288,1,100,4|8,0:0|0:0,0:0:0:0:
32,172,30973,2,0,P|48:132|92:88,1,100,0|8,0:0|0:0,0:0:0:0:
204,60,31896,6,0,P|264:60|308:80,1,100,0|8,0:0|0:0,0:0:0:0:
360,76,32588,2,0,P|392:136|472:168,1,150,0|8,0:0|0:0,0:0:0:0:
428,280,33742,5,0,0:0:0:0:
316,240,34203,1,8,0:0:0:0:
212,300,34665,1,0,0:0:0:0:
100,256,35126,1,8,0:0:0:0:
20,164,35588,6,0,P|40:116|84:84,1,100,0|8,0:0|0:0,0:0:0:0:
112,36,36280,2,0,L|264:76,1,150,0|8,0:0|0:0,0:0:0:0:
372,108,37434,1,4,0:0:0:0:
444,132,44819,6,0,P|448:180|432:232,1,100,4|8,0:0|0:0,0:0:0:0:
344,308,45742,2,0,P|332:276|328:204,1,100,0|8,0:0|0:0,0:0:0:0:
272,104,46665,6,0,P|248:64|200:32,1,100,0|8,0:0|0:0,0:0:0:0:
144,40,47357,2,0,P|148:80|84:168,1,150,0|8,0:0|0:0,0:0:0:0:
8,256,48511,5,0,0:0:0:0:
128,268,48973,1,8,0:0:0:0:
206,358,49434,2,0,L|306:354,1,100,0|8,0:0|0:0,0:0:0:0:
424,336,50357,6,0,P|408:288|412:232,2,100,0|8|0,0:0|0:0|0:0,0:0:0:0:
500,244,51742,2,0,L|516:192,1,50,8|0,0:0|0:0,0:0:0:0:
500,140,52203,6,0,P|480:88|440:52,1,100,4|8,0:0|0:0,0:0:0:0:
332,24,53126,1,0,0:0:0:0:
236,92,53588,1,8,0:0:0:0:
156,184,54049,6,0,P|104:208|56:212,1,100,0|8,0:0|0:0,0:0:0:0:
44,268,54742,2,0,L|192:324,1,150,0|8,0:0|0:0,0:0:0:0:
272,240,55896,5,0,0:0:0:0:
380,296,56357,1,8,0:0:0:0:
444,196,56819,1,0,0:0:0:0:
336,144,57280,1,8,0:0:0:0:
256,52,57742,6,0,P|232:84|176:116,1,100,0|8,0:0|0:0,0:0:0:0:
140,160,58434,2,0,P|124:108|44:52,1,150,0|8,0:0|0:0,0:0:0:0:
24,172,59588,6,0,L|28:248,1,75,4|8,0:0|0:0,0:0:0:0:
68,328,60280,2,0,P|120:320|192:248,1,150,0|8,0:0|0:0,0:0:0:0:
188,196,61203,1,0,0:0:0:0:
172,136,61434,6,0,L|240:88,1,75,4|8,0:0|0:0,0:0:0:0:
312,52,62126,2,0,P|376:60|432:120,1,150,0|8,0:0|0:0,0:0:0:0:
460,172,63049,1,0,0:0:0:0:
464,232,63280,6,0,L|384:300,1,100,4|0,0:0|0:0,0:0:0:0:
360,352,63973,2,0,P|332:304|240:280,1,150,8|8,0:0|0:0,0:0:0:0:
188,296,64896,1,0,0:0:0:0:
132,316,65126,6,0,L|48:252,1,100,4|0,0:0|0:0,0:0:0:0:
12,212,65819,2,0,P|56:184|64:88,1,150,8|8,0:0|0:0,0:0:0:0:
176,40,66973,6,0,L|256:52,1,75,4|8,0:0|0:0,0:0:0:0:
336,72,67665,2,0,P|376:140|452:152,1,150,8|0,0:0|0:0,0:0:0:0:
500,164,68588,1,8,0:0:0:0:
496,224,68819,6,0,L|444:292,1,75,4|8,0:0|0:0,0:0:0:0:
384,344,69511,2,0,P|332:320|300:236,1,150,8|0,0:0|0:0,0:0:0:0:
252,200,70434,1,8,0:0:0:0:
216,152,70665,5,4,0:0:0:0:
116,88,71126,1,0,0:0:0:0:
60,112,71357,2,0,P|40:144|40:208,1,100,8|8,0:0|0:0,0:0:0:0:
36,264,72049,2,0,L|136:296,1,100,0|4,0:0|0:0,0:0:0:0:
488,252,73896,6,0,L|384:252,1,100,0|4,0:0|0:0,0:0:0:0:
336,224,74588,1,8,0:0:0:0:
284,192,74819,2,0,P|264:160|228:136,1,75
160,88,75511,1,8,0:0:0:0:
108,116,75742,6,0,L|12:160,1,100
4,216,76434,1,8,0:0:0:0:
36,268,76665,2,0,P|76:288|116:296,1,75
196,300,77357,1,8,0:0:0:0:
248,272,77588,6,0,L|352:264,1,100
400,236,78280,1,8,0:0:0:0:
432,184,78511,2,0,P|444:144|448:104,1,75
396,40,79203,1,8,0:0:0:0:
336,32,79434,2,0,L|280:40,1,50,0|8,0:0|0:0,0:0:0:0:
244,80,79896,6,0,P|208:64|104:100,1,150,0|8,0:0|0:0,0:0:0:0:
76,148,80819,2,0,L|104:248,1,100
140,292,81511,1,8,0:0:0:0:
192,320,81742,6,0,L|244:324,1,50,4|8,0:0|0:0,0:0:0:0:
300,304,82203,2,0,L|376:284,1,75
444,232,82896,1,8,0:0:0:0:
452,172,83126,6,0,P|444:144|388:96,1,100
340,64,83819,1,8,0:0:0:0:
284,40,84050,2,0,L|208:64,1,75
128,92,84742,1,8,0:0:0:0:
76,120,84973,6,0,P|68:160|44:196,1,75
96,268,85665,2,0,L|112:324,1,50,8|0,0:0|0:0,0:0:0:0:
192,352,86242,2,0,P|240:296|372:336,1,225,0|4,0:0|0:0,0:0:0:0:
416,224,87742,5,8,0:0:0:0:
440,108,88203,2,0,L|372:32,1,100,0|8,0:0|0:0,0:0:0:0:
252,44,89126,6,0,P|200:48|152:76,1,100,0|8,0:0|0:0,0:0:0:0:
100,76,89819,2,0,P|84:128|4:176,1,150,0|8,0:0|0:0,0:0:0:0:
36,292,90973,5,4,0:0:0:0:
148,252,91434,1,8,0:0:0:0:
244,324,91896,1,0,0:0:0:0:
352,276,92357,1,8,0:0:0:0:
460,332,92819,6,0,P|476:304|476:284,1,50
488,228,93280,2,0,P|456:216|424:184,1,75,8|0,0:0|0:0,0:0:0:0:
200,44,94665,6,0,L|124:120,1,100,4|8,0:0|0:0,0:0:0:0:
60,212,95588,1,0,0:0:0:0:
132,308,96050,1,8,0:0:0:0:
244,264,96511,5,0,0:0:0:0:
348,324,96973,1,8,0:0:0:0:
348,324,97203,2,0,P|364:280|456:236,1,150,0|8,0:0|0:0,0:0:0:0:
472,116,98357,6,0,P|440:68|408:40,1,100,4|8,0:0|0:0,0:0:0:0:
296,68,99280,2,0,P|248:80|192:76,1,100,0|8,0:0|0:0,0:0:0:0:
80,72,100203,6,0,L|44:116,1,50
24,164,100665,2,0,P|76:184|96:204,2,75,8|8|0,0:0|0:0|0:0,0:0:0:0:
16,224,101588,2,0,L|32:328,1,100,8|4,0:0|0:0,0:0:0:0:
148,344,102511,5,8,0:0:0:0:
208,240,102973,1,0,0:0:0:0:
328,224,103434,1,8,0:0:0:0:
412,140,103896,6,0,P|408:100|368:52,1,100,0|8,0:0|0:0,0:0:0:0:
316,36,104588,2,0,L|160:52,1,150,0|8,0:0|0:0,0:0:0:0:
56,100,105742,5,0,0:0:0:0:
108,208,106203,1,8,0:0:0:0:
72,324,106665,1,0,0:0:0:0:
192,332,107126,1,8,0:0:0:0:
228,216,107588,5,0,0:0:0:0:
344,248,108050,2,0,L|420:224,1,75,8|0,0:0|0:0,0:0:0:0:
444,172,108626,1,0,0:0:0:0:
468,116,108857,6,0,P|448:84|364:48,1,125,8|4,0:0|0:0,0:0:0:0:
252,60,109896,1,8,0:0:0:0:
136,88,110357,2,0,P|96:132|88:176,1,100,0|8,0:0|0:0,0:0:0:0:
88,292,111280,6,0,P|160:280|248:336,1,175
328,296,112434,1,0,0:0:0:0:
376,260,112665,6,0,L|468:204,1,100,8|0,0:0|0:0,0:0:0:0:
440,88,113588,1,8,0:0:0:0:
328,44,114050,2,0,P|312:80|308:144,1,100,0|8,0:0|0:0,0:0:0:0:
256,248,114973,5,0,0:0:0:0:
172,332,115434,2,0,P|116:324|84:196,1,200,8|8,0:0|0:0,0:0:0:0:
112,84,116819,6,0,L|268:64,2,150,2|8|0,0:0|0:0|0:0,0:0:0:0:
56,108,118434,1,8,0:0:0:0:
44,168,118665,6,0,L|64:324,2,150,2|8|0,0:0|0:0|0:0,0:0:0:0:
56,108,120280,1,8,0:0:0:0:
116,120,120511,6,0,P|184:136|224:204,1,150,2|8,0:0|0:0,0:0:0:0:
240,260,121434,2,0,L|348:240,1,100,0|8,0:0|0:0,0:0:0:0:
460,248,122357,6,0,P|472:196|416:112,1,150,2|8,0:0|0:0,0:0:0:0:
376,84,123280,2,0,L|272:48,1,100
220,60,123973,1,8,0:0:0:0:
164,76,124203,6,0,L|84:96,1,75,2|0,0:0|0:0,0:0:0:0:
60,180,124896,2,0,P|48:252|88:320,1,150,8|0,0:0|0:0,0:0:0:0:
144,320,125819,1,8,0:0:0:0:
204,312,126050,6,0,L|288:308,1,75,2|0,0:0|0:0,0:0:0:0:
344,248,126742,2,0,P|368:176|328:112,1,150,8|0,0:0|0:0,0:0:0:0:
236,48,127896,6,0,L|136:56,1,100,2|0,0:0|0:0,0:0:0:0:
116,112,128588,2,0,P|152:168|128:252,1,150,8|0,0:0|0:0,0:0:0:0:
220,328,129742,1,4,0:0:0:0:
24,132,131126,6,0,L|128:132,1,100,0|4,0:0|0:0,0:0:0:0:
176,160,131819,1,8,0:0:0:0:
228,192,132050,2,0,P|248:224|284:248,1,75
352,296,132742,1,8,0:0:0:0:
404,268,132973,6,0,L|500:224,1,100
508,168,133665,1,8,0:0:0:0:
476,116,133896,2,0,P|436:96|396:88,1,75
316,84,134588,1,8,0:0:0:0:
264,112,134819,6,0,L|160:120,1,100
112,148,135511,1,8,0:0:0:0:
80,200,135742,2,0,P|68:240|64:280,1,75
116,344,136434,1,8,0:0:0:0:
176,352,136665,2,0,L|232:344,1,50,0|8,0:0|0:0,0:0:0:0:
268,304,137126,6,0,P|304:320|408:284,1,150,0|8,0:0|0:0,0:0:0:0:
436,236,138050,2,0,L|416:180,1,50,0|8,0:0|0:0,0:0:0:0:
400,132,138511,6,0,P|360:84|320:68,1,100,0|4,0:0|0:0,0:0:0:0:
268,60,139203,1,8,0:0:0:0:
212,80,139434,2,0,L|136:100,1,75
68,152,140126,1,8,0:0:0:0:
60,212,140357,6,0,P|68:240|124:288,1,100
172,320,141050,1,8,0:0:0:0:
228,344,141280,2,0,L|304:320,1,75
384,292,141973,1,8,0:0:0:0:
436,264,142203,6,0,P|444:224|468:188,1,75
416,116,142896,2,0,L|400:60,1,50,8|0,0:0|0:0,0:0:0:0:
320,32,143473,2,0,P|272:88|140:48,1,225,0|4,0:0|0:0,0:0:0:0:
284,52,159280,6,0,L|344:60,1,50,4|8,0:0|0:0,0:0:0:0:
364,108,159742,2,0,P|408:120|436:136,1,75
456,220,160434,1,8,0:0:0:0:
420,268,160665,6,0,P|384:320|344:328,1,100
292,344,161357,1,8,0:0:0:0:
232,344,161588,2,0,L|152:328,1,75
100,260,162280,1,8,0:0:0:0:
108,200,162511,6,0,P|112:152|88:96,1,100
140,64,163203,1,8,0:0:0:0:
188,28,163434,2,0,L|268:36,1,75
340,80,164126,1,8,0:0:0:0:
392,108,164357,6,0,P|440:116|484:148,2,100
380,168,165511,2,0,P|344:228|260:240,1,150,8|0,0:0|0:0,0:0:0:0:
212,232,166434,1,8,0:0:0:0:
152,224,166665,6,0,L|48:224,1,100,4|0,0:0|0:0,0:0:0:0:
16,176,167357,2,0,P|44:148|72:84,1,100,8|8,0:0|0:0,0:0:0:0:
88,36,168050,6,0,P|148:48|184:72,1,100
240,72,168742,1,8,0:0:0:0:
296,96,168973,2,0,L|376:104,1,75
448,148,169665,1,8,0:0:0:0:
412,196,169896,6,0,L|360:252,1,75
280,288,170588,2,0,L|224:296,1,50,8|0,0:0|0:0,0:0:0:0:
152,344,171165,6,0,P|176:272|96:192,1,200,0|0,0:0|0:0,0:0:0:0:
80,104,172434,1,8,0:0:0:0:
112,52,172665,2,0,L|216:40,1,100,0|4,0:0|0:0,0:0:0:0:
372,120,174973,6,0,P|380:144|392:168,1,50,4|8,0:0|0:0,0:0:0:0:
408,224,175434,2,0,P|292:232|244:300,1,200
188,304,176588,1,8,0:0:0:0:
128,308,176819,6,0,L|64:168,2,150,0|8|0,0:0|0:0|0:0,0:0:0:0:
156,360,178434,1,8,0:0:0:0:
216,352,178665,6,0,P|288:352|352:304,2,150,0|8|8,0:0|0:0|0:0,0:0:0:0:
204,232,180511,2,0,P|184:140|136:112,1,150,0|8,0:0|0:0,0:0:0:0:
84,88,181434,2,0,L|232:48,1,150,0|8,0:0|0:0,0:0:0:0:
288,44,182357,6,0,P|328:92|416:96,2,150,4|8|8,0:0|0:0|0:0,0:0:0:0:
236,152,184203,2,0,L|216:208,1,50,0|8,0:0|0:0,0:0:0:0:
192,252,184665,2,0,P|120:288|96:356,1,150,0|8,0:0|0:0,0:0:0:0:
156,360,185588,2,0,L|260:360,1,100,0|4,0:0|0:0,0:0:0:0:
316,256,186511,6,0,P|308:200|316:172,2,75,0|8|8,0:0|0:0|0:0,0:0:0:0:
352,304,187434,2,0,L|452:304,1,100
480,220,188242,5,8,0:0:0:0:
436,144,188588,2,0,L|352:144,1,75,0|8,0:0|0:0,0:0:0:0:
352,56,189280,2,0,P|312:64|248:48,1,100
164,48,190088,5,8,0:0:0:0:
76,60,190434,2,0,L|76:136,1,75,0|8,0:0|0:0,0:0:0:0:
60,224,191126,2,0,P|96:240|124:268,1,75,0|4,0:0|0:0,0:0:0:0:
