osu file format v12

[General]
AudioFilename: deceive .mp3
AudioLeadIn: 0
PreviewTime: 73896
Countdown: 0
SampleSet: Normal
StackLeniency: 0.7
Mode: 0
LetterboxInBreaks: 0

[Editor]
DistanceSpacing: 1.2
BeatDivisor: 4
GridSize: 4

[Metadata]
Title:Yobanashi Deceive
TitleUnicode:夜咄ディセイブ
Artist:Jin
ArtistUnicode:じん
Creator:tutuhaha
Version:Dance
Source:
Tags:Vocaloid IA Shizen no Teki P Mekaku City Records Kagerou Project
BeatmapID:223146
BeatmapSetID:80104

[Difficulty]
HPDrainRate:7
CircleSize:4
OverallDifficulty:8
ApproachRate:9
SliderMultiplier:1.2
SliderTickRate:2

[Events]
//Background and Video events
Video,0,"deceive .flv"
0,0,"33685648.jpg",0,0
//Break Periods
2,37634,44219
//Storyboard Layer 0 (Background)
//Storyboard Layer 1 (Fail)
//Storyboard Layer 2 (Pass)
//Storyboard Layer 3 (Foreground)
//Storyboard Sound Samples
//Background Colour Transformations
3,100,163,162,255

[TimingPoints]
6050,230.769230769231,4,1,1,60,1,0
24915,-100,4,1,2,60,0,0
25030,-100,4,1,1,60,0,0
29819,-83.3333333333333,4,1,1,60,0,0
30050,-100,4,1,1,60,0,0
31376,-100,4,1,2,60,0,0
31492,-100,4,1,1,60,0,0
32300,-100,4,1,2,60,0,0
32415,-100,4,1,1,60,0,0
51684,-100,4,1,2,60,0,0
51800,-100,4,1,2,60,0,0
51973,-83.3333333333333,4,1,1,60,0,0
52203,-100,4,1,1,60,0,0
73896,-100,4,1,1,40,0,0
74357,-83.3333333333333,4,1,1,70,0,1
87280,-100,4,1,1,60,0,0
94203,-100,4,1,1,40,0,0
94434,-100,4,1,1,60,0,0
104300,-100,4,1,2,60,0,0
104415,-100,4,1,1,60,0,0
104703,-200,4,1,1,60,0,0
105742,-100,4,1,1,60,0,0
107992,-100,4,1,2,60,0,0
108107,-100,4,1,1,60,0,0
111684,-100,4,1,2,60,0,0
111800,-100,4,1,1,60,0,0
131588,-83.3333333333333,4,1,1,70,0,1
142376,-83.3333333333333,4,1,2,70,0,1
142492,-83.3333333333333,4,1,1,70,0,1
144511,-83.3333333333333,4,1,1,60,0,0
145434,-83.3333333333333,4,1,2,60,0,0
145492,-83.3333333333333,4,1,1,60,0,0
148434,-83.3333333333333,4,1,2,60,0,0
148492,-83.3333333333333,4,1,1,60,0,0
152126,-83.3333333333333,4,1,2,60,0,0
152184,-83.3333333333333,4,1,1,60,0,0
155819,-83.3333333333333,4,1,2,60,0,0
155876,-83.3333333333333,4,1,1,60,0,0
157434,-200,4,1,1,60,0,0
159050,-200,4,2,1,60,0,0
159280,-83.3333333333333,4,1,1,70,0,1
165742,-83.3333333333333,4,1,1,50,0,1
166665,-83.3333333333333,4,1,1,60,0,1
173126,-83.3333333333333,4,1,1,60,0,0
174973,-83.3333333333333,4,1,1,60,0,1
175088,-83.3333333333333,4,1,1,60,0,0

[Colours]
Combo1 : 77,138,81
Combo2 : 174,153,81
Combo3 : 168,0,0
Combo4 : 128,0,255

[HitObjects]
256,192,6280,1,10,0:0:0:0:
188,272,6511,1,0,0:0:0:0:
188,272,6626,2,0,P|136:236|128:176,1,120,8|0,0:0|0:0,0:0:0:0:
59,150,6973,6,0,L|75:90,1,60,2|0,0:0|0:0,0:0:0:0:
115,26,7203,2,0,P|139:46|155:78,1,60
215,122,7434,1,8,0:0:0:0:
286,127,7549,1,0,0:0:0:0:
357,116,7665,1,8,0:0:0:0:
417,78,7780,1,0,0:0:0:0:
462,22,7896,5,6,0:0:0:0:
452,144,8126,1,0,0:0:0:0:
504,280,8357,1,8,0:0:0:0:
408,204,8588,1,0,0:0:0:0:
408,204,8703,2,0,P|388:260|328:292,1,120,0|0,0:0|0:0,0:0:0:0:
284,348,9050,2,0,P|244:344|216:324,1,60
224,200,9280,2,0,P|264:216|280:232,1,60,8|0,0:0|0:0,0:0:0:0:
176,272,9511,6,0,P|116:272|56:308,2,120,0|0|0,0:0|0:0|0:0,0:0:0:0:
384,356,10203,1,8,0:0:0:0:
508,168,10434,1,0,0:0:0:0:
508,168,10550,2,0,L|416:68,1,120,0|0,0:0|0:0,0:0:0:0:
428,200,10896,2,0,L|336:100,1,120,0|8,0:0|0:0,0:0:0:0:
236,44,11357,1,0,0:0:0:0:
8,172,11588,6,0,P|76:160|116:108,1,120,6|0,0:0|0:0,0:0:0:0:
100,48,11934,1,0,0:0:0:0:
100,48,12050,2,0,P|156:68|188:124,1,120,8|0,0:0|0:0,0:0:0:0:
168,192,12396,1,0,0:0:0:0:
124,256,12511,6,0,P|124:288|128:324,1,60
200,288,12742,2,0,P|200:320|196:356,1,60
276,348,12973,1,8,0:0:0:0:
280,304,13088,1,0,0:0:0:0:
276,260,13203,2,0,P|272:216|268:192,1,60
232,132,13434,5,0,0:0:0:0:
232,132,13550,2,0,P|216:64|160:28,1,120
128,96,13896,2,0,P|88:144|72:200,1,120,8|0,0:0|0:0,0:0:0:0:
32,336,14242,2,0,P|88:300|120:252,1,120
144,352,14588,6,0,P|164:328|176:292,1,60,8|0,0:0|0:0,0:0:0:0:
284,336,14819,2,0,P|304:312|316:276,1,60,8|0,0:0|0:0,0:0:0:0:
428,304,15050,2,0,P|448:280|460:244,1,60,8|0,0:0|0:0,0:0:0:0:
456,112,15280,6,0,P|408:160|400:216,2,120,6|0|8,0:0|0:0|0:0,0:0:0:0:
364,40,15973,1,0,0:0:0:0:
364,40,16088,2,0,P|292:32|224:56,1,120
220,112,16434,2,0,P|180:124|156:124,1,60
112,64,16665,1,8,0:0:0:0:
84,104,16780,1,0,0:0:0:0:
88,152,16896,2,0,P|108:180|132:196,1,60
296,308,17126,6,0,P|268:292|228:280,1,60
200,216,17357,2,0,P|232:196|264:188,1,60
332,200,17588,2,0,L|412:236,1,60,8|0,0:0|0:0,0:0:0:0:
452,256,17819,1,0,0:0:0:0:
344,120,17934,2,0,L|424:156,1,60
464,176,18165,1,0,0:0:0:0:
424,68,18280,2,0,P|364:40|288:44,1,120,0|8,0:0|0:0,0:0:0:0:
240,28,18626,5,0,0:0:0:0:
188,76,18742,1,0,0:0:0:0:
126,38,18857,1,0,0:0:0:0:
80,96,18973,6,0,P|104:160|88:216,1,120,6|0,0:0|0:0,0:0:0:0:
48,312,19434,1,8,0:0:0:0:
168,300,19665,1,0,0:0:0:0:
280,344,19896,6,0,P|312:336|344:316,1,60
348,252,20126,2,0,P|376:240|404:216,1,60
424,104,20357,2,0,P|396:124|380:148,1,60,8|0,0:0|0:0,0:0:0:0:
316,176,20588,1,0,0:0:0:0:
72,48,20819,6,0,P|68:84|72:112,1,60
156,212,21050,2,0,P|160:248|156:276,1,60,8|0,0:0|0:0,0:0:0:0:
72,368,21280,2,0,P|60:312|80:240,1,120,8|0,0:0|0:0,0:0:0:0:
128,144,21626,1,0,0:0:0:0:
228,60,21742,6,0,P|260:60|300:68,1,60,8|0,0:0|0:0,0:0:0:0:
432,168,21973,2,0,P|400:168|360:176,1,60,8|0,0:0|0:0,0:0:0:0:
268,168,22203,5,8,0:0:0:0:
314,222,22319,1,0,0:0:0:0:
266,274,22434,5,0,0:0:0:0:
279,344,22550,1,0,0:0:0:0:
208,352,22665,6,0,P|160:312|136:248,1,120,4|0,0:0|0:0,0:0:0:0:
76,168,23126,1,8,0:0:0:0:
124,56,23357,2,0,P|156:40|188:36,1,60
256,44,23588,1,0,0:0:0:0:
256,44,23703,2,0,P|320:60|388:40,1,120
512,84,24050,2,0,P|460:88|388:128,1,120,8|0,0:0|0:0,0:0:0:0:
372,192,24396,5,0,0:0:0:0:
372,192,24511,2,0,P|348:252|352:308,1,120
300,368,24857,2,0,P|236:336|168:336,1,120
116,304,25203,1,0,0:0:0:0:
116,304,25319,2,0,P|68:284|32:224,1,120
8,156,25665,1,0,0:0:0:0:
208,28,25896,5,8,0:0:0:0:
244,68,26011,1,0,0:0:0:0:
192,80,26126,1,0,0:0:0:0:
484,160,26357,6,0,P|464:216|412:256,1,120,2|0,0:0|0:0,0:0:0:0:
316,320,26819,1,8,0:0:0:0:
192,312,27050,2,0,P|164:328|128:328,1,60
72,288,27280,2,0,P|72:256|80:224,1,60
244,68,27626,1,0,0:0:0:0:
244,68,27742,2,0,P|240:128|200:188,1,120,8|0,0:0|0:0,0:0:0:0:
132,168,28088,5,0,0:0:0:0:
132,168,28203,2,0,P|128:96|152:48,1,120
384,44,28665,1,8,0:0:0:0:
384,44,28780,1,0,0:0:0:0:
480,192,29011,5,0,0:0:0:0:
368,328,29242,1,0,0:0:0:0:
256,176,29473,2,0,P|248:140|232:112,2,60,0|10|0,0:0|0:0|0:0,0:0:0:0:
104,180,29819,6,0,P|136:184|180:180,1,71.9999978027344
312,76,30050,6,0,P|368:112|392:164,1,120,2|0,0:0|0:0,0:0:0:0:
420,264,30511,1,8,0:0:0:0:
332,348,30742,2,0,P|296:352|260:348,1,60
200,344,30973,1,0,0:0:0:0:
200,344,31088,2,0,P|140:340|88:312,2,120
176,268,31665,2,0,P|160:264|124:240,1,60
60,192,31896,5,0,0:0:0:0:
100,36,32126,1,0,0:0:0:0:
100,36,32242,2,0,P|172:40|212:76,1,120
316,164,32703,2,0,P|376:192|436:184,1,120
488,136,33050,1,0,0:0:0:0:
396,336,33280,5,8,0:0:0:0:
352,300,33396,1,0,0:0:0:0:
344,356,33511,1,0,0:0:0:0:
128,312,33742,6,0,P|80:280|60:216,1,120,0|0,0:0|0:0,0:0:0:0:
60,112,34203,1,8,0:0:0:0:
156,40,34434,2,0,P|184:40|224:52,1,60
288,60,34665,1,0,0:0:0:0:
288,60,34780,2,0,P|336:92|404:100,1,120
504,212,35126,2,0,P|452:184|380:176,1,120,8|0,0:0|0:0,0:0:0:0:
324,216,35473,1,0,0:0:0:0:
256,256,35588,6,0,P|224:308|156:340,1,120
100,312,35934,1,0,0:0:0:0:
100,312,36050,2,0,L|40:264,1,60,8|2,0:0|0:0,0:0:0:0:
112,32,36396,5,8,0:0:0:0:
112,32,36511,2,0,L|160:72,1,60,2|0,0:0|0:0,0:0:0:0:
276,52,36742,2,0,L|328:92,1,60,0|0,0:0|0:0,0:0:0:0:
440,100,36973,5,8,0:0:0:0:
480,158,37088,1,0,0:0:0:0:
438,215,37203,1,0,0:0:0:0:
473,277,37319,1,0,0:0:0:0:
412,313,37434,1,6,0:0:0:0:
480,336,44819,6,0,P|456:284|400:248,1,120,4|0,0:0|0:0,0:0:0:0:
296,232,45280,1,8,0:0:0:0:
176,252,45511,2,0,P|148:264|124:288,1,60
64,332,45742,1,0,0:0:0:0:
64,332,45857,2,0,P|36:272|32:204,1,120
48,48,46203,2,0,P|80:100|88:160,1,120,8|0,0:0|0:0,0:0:0:0:
164,172,46549,5,0,0:0:0:0:
164,172,46665,2,0,P|216:136|280:136,1,120
328,80,47011,1,8,0:0:0:0:
456,164,47242,1,0,0:0:0:0:
460,320,47473,2,0,P|388:316|320:224,1,180,0|0,0:0|0:0,0:0:0:0:
256,36,48049,5,8,0:0:0:0:
200,32,48165,1,0,0:0:0:0:
228,80,48280,1,0,0:0:0:0:
376,272,48511,6,0,P|312:292|248:272,1,120,2|0,0:0|0:0,0:0:0:0:
156,240,48973,1,8,0:0:0:0:
72,156,49203,2,0,P|64:136|56:96,1,60
116,48,49434,1,0,0:0:0:0:
116,48,49549,2,0,P|144:104|156:164,1,120
156,240,49896,2,0,P|144:300|104:352,1,120,8|0,0:0|0:0,0:0:0:0:
52,300,50242,1,0,0:0:0:0:
24,228,50357,6,0,P|20:168|48:112,1,120
256,40,50819,1,8,0:0:0:0:
256,40,50934,1,0,0:0:0:0:
352,160,51165,2,0,P|408:144|452:88,1,120,0|8,0:0|0:0,0:0:0:0:
468,24,51511,1,0,0:0:0:0:
468,24,51626,2,0,L|336:36,1,120
232,120,51973,6,0,L|316:112,1,71.9999978027344
448,200,52203,6,0,P|452:264|424:320,1,120,2|0,0:0|0:0,0:0:0:0:
324,356,52665,1,8,0:0:0:0:
204,344,52896,2,0,P|176:336|148:312,1,60
76,296,53126,1,0,0:0:0:0:
76,296,53242,2,0,P|40:272|8:192,1,120
4,124,53588,1,8,0:0:0:0:
144,52,53819,2,0,P|168:40|216:40,1,60
272,48,54049,6,0,P|336:72|396:72,1,120
508,156,54511,1,8,0:0:0:0:
508,156,54626,1,0,0:0:0:0:
436,292,54857,2,0,P|388:320|268:304,1,180
192,312,55319,1,0,0:0:0:0:
192,312,55434,2,0,P|156:284|120:276,1,60,8|0,0:0|0:0,0:0:0:0:
144,160,55665,2,0,P|112:148|72:148,1,60
188,96,55896,6,0,P|252:88|304:44,1,120,2|0,0:0|0:0,0:0:0:0:
408,40,56357,1,8,0:0:0:0:
472,140,56588,2,0,P|488:176|496:212,1,60
476,268,56819,1,0,0:0:0:0:
476,268,56934,2,0,P|456:336|404:376,1,120
268,332,57280,2,0,P|328:296|396:292,1,120,8|0,0:0|0:0,0:0:0:0:
360,212,57626,5,0,0:0:0:0:
360,212,57742,2,0,L|340:76,1,120
200,48,58203,1,8,0:0:0:0:
200,48,58319,1,2,0:0:0:0:
56,104,58549,5,8,0:0:0:0:
56,104,58665,2,0,L|80:176,1,60,2|0,0:0|0:0,0:0:0:0:
36,272,58896,2,0,L|60:344,1,60
172,356,59126,5,8,0:0:0:0:
207,293,59242,1,0,0:0:0:0:
169,232,59357,1,0,0:0:0:0:
196,165,59473,1,0,0:0:0:0:
264,144,59588,6,0,L|400:144,1,120,4|0,0:0|0:0,0:0:0:0:
460,144,59934,1,8,0:0:0:0:
496,288,60165,1,8,0:0:0:0:
420,288,60280,2,0,L|288:288,1,120
248,344,60626,6,0,P|208:300|84:304,1,180,0|8,0:0|0:0,0:0:0:0:
52,232,61088,2,0,L|-4:196,2,60
148,360,61434,6,0,P|180:296|124:208,1,180,4|8,0:0|0:0,0:0:0:0:
68,68,62011,1,8,0:0:0:0:
68,68,62126,2,0,P|136:108|232:72,1,180
296,40,62588,2,0,L|356:24,1,60
420,37,62819,5,8,0:0:0:0:
482,72,62934,1,0,0:0:0:0:
498,141,63049,1,0,0:0:0:0:
478,209,63165,1,0,0:0:0:0:
428,260,63280,6,0,P|396:312|332:328,1,120,4|0,0:0|0:0,0:0:0:0:
264,316,63626,1,0,0:0:0:0:
264,316,63742,2,0,P|240:252|176:224,1,120,8|0,0:0|0:0,0:0:0:0:
120,212,64088,2,0,P|80:268|140:368,1,180,8|0,0:0|0:0,0:0:0:0:
188,316,64549,1,0,0:0:0:0:
212,244,64665,6,0,L|272:212,1,60,8|0,0:0|0:0,0:0:0:0:
228,148,64896,2,0,L|288:116,1,60
292,48,65126,5,4,0:0:0:0:
428,120,65357,1,0,0:0:0:0:
428,120,65473,1,0,0:0:0:0:
428,120,65588,2,0,L|492:160,1,60,8|0,0:0|0:0,0:0:0:0:
496,264,65819,2,0,P|464:232|376:224,1,120,8|0,0:0|0:0,0:0:0:0:
340,280,66165,2,0,P|312:336|248:368,1,120,8|0,0:0|0:0,0:0:0:0:
196,340,66511,5,8,0:0:0:0:
137,299,66626,1,0,0:0:0:0:
66,313,66742,1,0,0:0:0:0:
18,260,66857,1,0,0:0:0:0:
24,188,66973,6,0,P|24:128|60:80,1,120,4|0,0:0|0:0,0:0:0:0:
120,32,67319,2,0,L|248:28,1,120,8|0,0:0|0:0,0:0:0:0:
124,116,67665,2,0,L|252:112,1,120
352,184,68011,6,0,P|296:136|324:44,1,180,0|8,0:0|0:0,0:0:0:0:
393,23,68473,1,0,0:0:0:0:
462,37,68588,1,0,0:0:0:0:
495,99,68703,1,0,0:0:0:0:
480,168,68819,6,0,P|464:228|400:260,1,120,4|0,0:0|0:0,0:0:0:0:
320,360,69165,2,0,P|312:300|344:244,1,120,8|0,0:0|0:0,0:0:0:0:
368,176,69511,1,0,0:0:0:0:
256,36,69742,6,0,L|176:60,1,60
212,128,69973,2,0,L|132:152,1,60
84,160,70203,1,8,0:0:0:0:
43,218,70319,1,0,0:0:0:0:
45,289,70434,1,0,0:0:0:0:
89,345,70549,1,0,0:0:0:0:
160,352,70665,6,0,P|220:340|268:284,1,120,4|8,0:0|0:0,0:0:0:0:
256,220,71011,1,0,0:0:0:0:
288,148,71126,2,0,L|348:104,1,60,0|0,0:0|0:0,0:0:0:0:
396,72,71357,1,8,0:0:0:0:
460,32,71473,6,0,P|492:76|480:160,1,120
484,256,71819,2,0,P|464:236|456:192,1,60,8|0,0:0|0:0,0:0:0:0:
380,196,72049,5,0,0:0:0:0:
328,252,72165,1,0,0:0:0:0:
256,220,72280,5,8,0:0:0:0:
200,272,72396,1,0,0:0:0:0:
128,240,72511,6,0,L|60:240,1,60,4|0,0:0|0:0,0:0:0:0:
216,28,72857,2,0,L|280:28,1,60
464,192,73203,5,0,0:0:0:0:
464,192,73319,1,0,0:0:0:0:
256,336,73549,1,0,0:0:0:0:
256,336,73665,1,0,0:0:0:0:
40,80,73896,6,0,P|116:92|136:140,1,120
416,332,74357,6,0,P|408:264|344:232,1,143.999995605469,6|8,0:0|0:0,0:0:0:0:
292,172,74703,1,0,0:0:0:0:
292,172,74819,2,0,P|240:216|156:220,1,143.999995605469,0|8,0:0|0:0,0:0:0:0:
44,156,75165,6,0,P|124:132|192:156,1,143.999995605469
140,216,75511,2,0,P|104:244|64:256,1,71.9999978027344,8|0,0:0|0:0,0:0:0:0:
20,308,75742,2,0,P|56:332|104:340,1,71.9999978027344
164,332,75973,2,0,P|192:328|232:300,1,71.9999978027344,8|0,0:0|0:0,0:0:0:0:
284,248,76203,6,0,P|324:192|316:112,1,143.999995605469,2|8,0:0|0:0,0:0:0:0:
256,72,76549,1,0,0:0:0:0:
196,212,76665,2,0,P|196:276|252:352,1,143.999995605469,0|8,0:0|0:0,0:0:0:0:
316,352,77011,6,0,P|364:300|376:212,1,143.999995605469
376,152,77357,2,0,L|312:120,1,71.9999978027344,8|0,0:0|0:0,0:0:0:0:
188,124,77588,2,0,P|248:80|248:12,1,143.999995605469,0|8,0:0|0:0,0:0:0:0:
24,188,78049,5,2,0:0:0:0:
96,328,78280,1,8,0:0:0:0:
188,124,78511,1,0,0:0:0:0:
180,204,78626,2,0,L|216:272,1,71.9999978027344,0|8,0:0|0:0,0:0:0:0:
260,176,78857,6,0,P|276:108|228:36,1,143.999995605469
88,96,79203,2,0,L|124:164,1,71.9999978027344,8|0,0:0|0:0,0:0:0:0:
198,289,79434,6,0,P|256:240|260:176,1,143.999995605469,0|8,0:0|0:0,0:0:0:0:
180,204,79780,1,0,0:0:0:0:
116,272,79896,2,0,P|120:316|136:348,1,71.9999978027344,2|0,0:0|0:0,0:0:0:0:
264,344,80126,2,0,P|275:318|279:274,1,71.9999978027344,8|0,0:0|0:0,0:0:0:0:
80,200,80357,6,0,P|48:228|36:260,1,71.9999978027344
354,258,80588,2,0,P|344:232|312:204,1,71.9999978027344,8|0,0:0|0:0,0:0:0:0:
216,128,80819,6,0,P|284:128|336:52,1,143.999995605469,2|8,0:0|0:0,0:0:0:0:
256,56,81165,1,0,0:0:0:0:
176,36,81280,5,8,0:0:0:0:
140,108,81396,1,8,0:0:0:0:
76,156,81511,1,8,0:0:0:0:
92,232,81626,1,8,0:0:0:0:
136,296,81742,6,0,P|184:344|272:352,1,143.999995605469,6|8,0:0|0:0,0:0:0:0:
336,336,82088,1,0,0:0:0:0:
336,336,82203,2,0,P|408:316|440:252,1,143.999995605469,0|8,0:0|0:0,0:0:0:0:
400,188,82550,6,0,P|340:192|288:260,1,143.999995605469
248,320,82896,2,0,P|220:348|188:372,1,71.9999978027344,8|0,0:0|0:0,0:0:0:0:
120,364,83126,2,0,P|88:344|68:308,1,71.9999978027344
68,240,83357,2,0,P|96:204|140:192,1,71.9999978027344,8|0,0:0|0:0,0:0:0:0:
188,164,83588,6,0,P|264:180|340:152,1,143.999995605469,2|8,0:0|0:0,0:0:0:0:
472,44,84050,1,0,0:0:0:0:
472,44,84165,2,0,L|467:118,1,71.9999978027344,0|8,0:0|0:0,0:0:0:0:
452,240,84396,2,0,P|428:320|364:356,1,143.999995605469
300,356,84742,6,0,P|268:324|252:284,1,71.9999978027344,8|0,0:0|0:0,0:0:0:0:
268,220,84973,2,0,P|268:172|252:132,1,71.9999978027344
184,40,85203,1,8,0:0:0:0:
104,20,85319,6,0,P|104:92|136:164,1,143.999995605469,2|0,0:0|0:0,0:0:0:0:
68,204,85665,2,0,P|84:248|84:284,1,71.9999978027344,8|0,0:0|0:0,0:0:0:0:
148,312,85896,2,0,P|168:284|176:244,1,71.9999978027344
204,180,86126,1,8,0:0:0:0:
256,64,86242,6,0,P|288:144|356:156,1,143.999995605469
204,180,86588,2,0,P|236:216|268:228,1,71.9999978027344,8|0,0:0|0:0,0:0:0:0:
328,248,86819,5,8,0:0:0:0:
392,204,86934,1,8,0:0:0:0:
400,284,87050,5,8,0:0:0:0:
476,298,87165,1,8,0:0:0:0:
428,360,87280,6,0,L|308:364,1,120,6|0,0:0|0:0,0:0:0:0:
110,295,87742,2,0,L|240:292,1,120,8|0,0:0|0:0,0:0:0:0:
80,180,88203,5,0,0:0:0:0:
102,111,88319,1,0,0:0:0:0:
164,76,88434,1,0,0:0:0:0:
234,68,88550,1,0,0:0:0:0:
299,98,88665,2,0,P|327:114|371:122,1,60,8|0,0:0|0:0,0:0:0:0:
436,240,88896,2,0,P|396:204|324:196,1,120,0|0,0:0|0:0,0:0:0:0:
260,224,89242,5,0,0:0:0:0:
260,224,89357,2,0,L|188:220,1,60,0|0,0:0|0:0,0:0:0:0:
164,288,89588,2,0,P|112:320|28:320,1,120,8|0,0:0|0:0,0:0:0:0:
124,220,89934,6,0,P|56:248|-8:244,1,120
28,168,90280,2,0,P|24:136|32:104,1,60
140,32,90511,2,0,P|148:84|132:148,1,120,8|0,0:0|0:0,0:0:0:0:
272,300,90973,6,0,P|260:244|212:196,1,120,6|0,0:0|0:0,0:0:0:0:
224,84,91434,1,8,0:0:0:0:
336,36,91665,2,0,P|368:40|396:52,1,60,0|0,0:0|0:0,0:0:0:0:
440,108,91896,1,0,0:0:0:0:
456,148,92011,1,0,0:0:0:0:
460,192,92126,2,0,P|456:228|444:260,1,60,0|0,0:0|0:0,0:0:0:0:
366,262,92357,6,0,P|370:298|380:320,1,60,8|0,0:0|0:0,0:0:0:0:
250,306,92588,2,0,P|254:342|268:368,1,60,0|0,0:0|0:0,0:0:0:0:
288,236,92819,5,0,0:0:0:0:
244,228,92934,1,0,0:0:0:0:
200,240,93050,2,0,P|168:264|136:268,1,60,8|0,0:0|0:0,0:0:0:0:
44,320,93280,6,0,L|80:256,1,60
44,136,93511,2,0,L|80:72,1,60,8|0,0:0|0:0,0:0:0:0:
376,152,94203,6,0,B|392:144|392:144|416:156|416:156|436:144|436:144|456:156|456:156|496:152,1,120
488,232,94550,1,0,0:0:0:0:
312,200,94665,6,0,P|296:140|324:88,1,120,6|0,0:0|0:0,0:0:0:0:
376,152,95011,1,0,0:0:0:0:
384,228,95126,2,0,P|348:276|284:284,1,120,8|0,0:0|0:0,0:0:0:0:
8,296,95588,6,0,L|72:260,1,60
128,296,95819,2,0,L|188:256,1,60,0|0,0:0|0:0,0:0:0:0:
216,200,96050,1,8,0:0:0:0:
172,188,96165,1,0,0:0:0:0:
128,196,96280,2,0,P|100:176|72:148,1,60,0|0,0:0|0:0,0:0:0:0:
80,32,96511,5,0,0:0:0:0:
80,32,96626,2,0,P|128:64|148:120,1,120,0|0,0:0|0:0,0:0:0:0:
224,120,96973,2,0,P|264:132|280:156,1,60,8|0,0:0|0:0,0:0:0:0:
332,192,97203,5,0,0:0:0:0:
332,192,97319,2,0,P|412:196|464:172,1,120
440,48,97665,2,0,P|412:38|320:48,1,120,0|8,0:0|0:0,0:0:0:0:
224,120,98126,2,0,P|212:152|216:184,1,60,0|0,0:0|0:0,0:0:0:0:
276,272,98357,6,0,P|232:232|164:236,1,120,6|0,0:0|0:0,0:0:0:0:
108,272,98703,1,0,0:0:0:0:
108,272,98819,2,0,P|72:312|80:376,1,120,8|0,0:0|0:0,0:0:0:0:
148,340,99165,1,0,0:0:0:0:
224,356,99280,6,0,P|256:368|292:368,1,60
352,332,99511,2,0,P|360:300|356:268,1,60
300,220,99742,1,8,0:0:0:0:
256,216,99857,1,0,0:0:0:0:
216,232,99973,2,0,P|196:260|192:296,1,60
172,168,100203,6,0,L|148:108,1,60,2|0,0:0|0:0,0:0:0:0:
128,44,100434,1,0,0:0:0:0:
96,192,100550,2,0,L|72:132,1,60,0|8,0:0|0:0,0:0:0:0:
52,68,100780,1,0,0:0:0:0:
20,216,100896,2,0,L|-4:156,1,60,8|0,0:0|0:0,0:0:0:0:
96,192,101126,6,0,P|96:240|80:264,1,60,2|0,0:0|0:0,0:0:0:0:
68,320,101357,1,8,0:0:0:0:
144,308,101473,1,0,0:0:0:0:
212,272,101588,6,0,P|228:256|240:220,1,60
288,164,101819,1,8,0:0:0:0:
328,232,101934,1,0,0:0:0:0:
340,308,102050,6,0,L|476:320,2,120,4|0|8,0:0|0:0|0:0,0:0:0:0:
192,192,102742,2,0,L|120:184,1,60,0|8,0:0|0:0,0:0:0:0:
64,160,102973,1,0,0:0:0:0:
64,160,103088,2,0,P|64:92|16:48,1,120
104,20,103434,2,0,L|236:28,1,120,8|0,0:0|0:0,0:0:0:0:
244,104,103780,5,0,0:0:0:0:
244,104,103896,2,0,P|316:108|368:84,1,120
420,40,104242,2,0,P|484:76|512:128,1,120
409,365,104703,6,0,B|407:348|407:348|426:337|426:337|418:315|418:315|445:296|445:296,1,89.9999999999999
492,236,105165,1,0,0:0:0:0:
492,236,105280,2,0,P|458:207|409:203,1,89.9999999999999
348,240,105742,6,0,P|316:192|248:172,1,120,4|0,0:0|0:0,0:0:0:0:
148,192,106203,1,8,0:0:0:0:
52,268,106434,2,0,P|40:296|40:332,1,60,0|8,0:0|0:0,0:0:0:0:
108,356,106665,1,0,0:0:0:0:
108,356,106780,2,0,P|164:348|200:296,1,120
236,228,107126,2,0,P|240:168|208:112,1,120,8|0,0:0|0:0,0:0:0:0:
148,72,107473,5,0,0:0:0:0:
148,72,107588,2,0,L|24:32,1,120
12,108,107934,2,0,P|60:152|64:208,1,120
24,268,108280,1,0,0:0:0:0:
24,268,108396,5,0,0:0:0:0:
256,344,108626,5,0,0:0:0:0:
488,268,108857,5,8,0:0:0:0:
256,192,109088,5,0,0:0:0:0:
228,120,109203,2,0,P|224:92|232:40,1,60,8|0,0:0|0:0,0:0:0:0:
304,64,109434,6,0,P|336:112|344:172,1,120,6|0,0:0|0:0,0:0:0:0:
296,276,109896,1,8,0:0:0:0:
188,332,110126,2,0,L|120:344,1,60,0|8,0:0|0:0,0:0:0:0:
80,284,110357,1,0,0:0:0:0:
80,284,110473,2,0,P|92:216|48:160,1,120
28,108,110819,2,0,P|68:60|148:36,1,120,8|0,0:0|0:0,0:0:0:0:
228,96,111165,6,0,P|192:100|164:96,1,60
164,252,111511,1,0,0:0:0:0:
164,252,111626,2,0,P|232:264|296:252,1,120
404,180,112088,2,0,P|432:132|496:100,1,120,8|0,0:0|0:0,0:0:0:0:
496,180,112434,2,0,P|492:216|480:248,1,60
412,260,112665,1,8,0:0:0:0:
368,252,112780,1,0,0:0:0:0:
332,224,112896,2,0,P|320:188|324:160,1,60,8|0,0:0|0:0,0:0:0:0:
356,48,113126,6,0,P|320:88|256:92,1,120,6|0,0:0|0:0,0:0:0:0:
152,52,113588,1,8,0:0:0:0:
32,36,113819,2,0,P|16:80|12:116,1,60,0|8,0:0|0:0,0:0:0:0:
40,168,114050,1,0,0:0:0:0:
40,168,114165,2,0,P|68:224|56:288,1,120
60,356,114511,2,0,P|116:348|172:308,1,120,8|0,0:0|0:0,0:0:0:0:
232,272,114857,1,0,0:0:0:0:
304,244,114973,6,0,P|360:256|424:300,1,120,2|0,0:0|0:0,0:0:0:0:
488,152,115434,1,8,0:0:0:0:
488,152,115550,1,0,0:0:0:0:
368,56,115780,1,0,0:0:0:0:
228,124,116011,2,0,L|168:87,1,60,8|0,0:0|0:0,0:0:0:0:
106,54,116242,5,0,0:0:0:0:
69,115,116357,1,0,0:0:0:0:
103,178,116473,1,0,0:0:0:0:
64,238,116588,1,8,0:0:0:0:
99,300,116703,1,0,0:0:0:0:
70,365,116819,6,0,P|148:371|194:352,1,120,2|0,0:0|0:0,0:0:0:0:
320,312,117165,2,0,P|268:284|192:284,1,120
372,372,117511,1,8,0:0:0:0:
372,372,117626,2,0,P|436:360|480:316,1,120
492,248,117973,6,0,P|488:216|476:192,1,60
404,160,118203,2,0,P|400:128|388:104,1,60
308,96,118434,2,0,P|304:64|292:40,1,60,8|0,0:0|0:0,0:0:0:0:
216,28,118665,5,2,0:0:0:0:
20,136,118896,1,0,0:0:0:0:
20,136,119011,2,0,P|72:144|116:200,1,120
128,272,119357,1,8,0:0:0:0:
68,324,119473,2,0,P|36:280|40:216,1,120
132,100,119819,6,0,P|160:80|200:72,1,60,8|0,0:0|0:0,0:0:0:0:
251,45,120050,1,0,0:0:0:0:
322,49,120165,1,0,0:0:0:0:
381,89,120280,1,8,0:0:0:0:
398,159,120396,6,0,P|382:222|268:247,1,180,2|0,0:0|0:0,0:0:0:0:
208,220,120857,2,0,P|169:171|175:104,1,120,8|0,0:0|0:0,0:0:0:0:
200,44,121203,2,0,P|227:64|246:95,1,60
340,156,121434,6,0,L|344:124,3,30
316,176,121665,6,0,L|308:248,1,60
260,296,121896,2,0,P|212:320|140:312,1,120,0|8,0:0|0:0,0:0:0:0:
80,272,122242,1,0,0:0:0:0:
68,196,122357,6,0,P|76:136|116:80,1,120,2|0,0:0|0:0,0:0:0:0:
164,32,122703,1,0,0:0:0:0:
164,32,122819,2,0,L|212:92,1,60
280,72,123050,2,0,L|328:132,1,60,8|0,0:0|0:0,0:0:0:0:
388,120,123280,5,0,0:0:0:0:
432,176,123396,1,0,0:0:0:0:
443,246,123511,1,8,0:0:0:0:
415,311,123626,1,0,0:0:0:0:
336,344,123742,6,0,L|368:368,3,30
336,312,123973,6,0,L|278:268,1,60,8|0,0:0|0:0,0:0:0:0:
216,122,124203,6,0,P|195:71|132:31,1,120,2|8,0:0|0:0,0:0:0:0:
64,36,124550,2,0,L|1:151,1,120
0,312,124896,2,0,L|18:249,1,60,8|0,0:0|0:0,0:0:0:0:
60,192,125126,6,0,P|81:183|110:151,1,60
212,185,125357,2,0,P|235:184|273:164,1,60,8|0,0:0|0:0,0:0:0:0:
356,235,125588,2,0,P|378:242|420:236,1,60
457,340,125819,2,0,P|475:354|517:363,1,60,8|0,0:0|0:0,0:0:0:0:
488,236,126050,6,0,P|476:192|456:172,1,60,2|0,0:0|0:0,0:0:0:0:
392,160,126280,1,8,0:0:0:0:
328,112,126396,2,0,P|396:100|428:60,1,120
352,28,126742,6,0,L|288:24,1,60,8|0,0:0|0:0,0:0:0:0:
200,80,126973,2,0,L|136:76,1,60
68,152,127203,2,0,L|4:148,1,60,8|0,0:0|0:0,0:0:0:0:
88,232,127434,2,0,P|128:216|144:196,1,60
196,160,127665,1,8,0:0:0:0:
172,288,127780,6,0,P|228:260|260:200,1,120,2|0,0:0|0:0,0:0:0:0:
284,140,128126,2,0,P|296:112|332:96,1,60,8|0,0:0|0:0,0:0:0:0:
456,128,128357,2,0,P|404:168|340:160,1,120,0|8,0:0|0:0,0:0:0:0:
228,68,128703,6,0,P|168:60|112:84,1,120
64,144,129050,1,8,0:0:0:0:
40,216,129165,1,0,0:0:0:0:
60,292,129280,5,8,0:0:0:0:
128,256,129396,1,0,0:0:0:0:
188,304,129511,5,8,0:0:0:0:
260,276,129626,1,0,0:0:0:0:
320,324,129742,6,0,L|388:344,1,60,6|0,0:0|0:0,0:0:0:0:
336,56,130088,2,0,L|272:40,1,60
456,240,130434,6,0,L|524:260,1,60
188,128,130780,2,0,L|128:112,1,60
20,356,131126,6,0,P|96:344|128:296,1,120
416,40,131588,6,0,P|352:76|336:144,1,143.999995605469,6|8,0:0|0:0,0:0:0:0:
328,220,131934,1,0,0:0:0:0:
376,284,132050,2,0,P|428:252|452:168,1,143.999995605469,0|8,0:0|0:0,0:0:0:0:
335,140,132396,6,0,L|184:88,1,143.999995605469,0|0,0:0|0:0,0:0:0:0:
176,168,132742,2,0,L|104:144,1,71.9999978027344
208,244,132973,2,0,P|216:300|288:348,1,143.999995605469,0|8,0:0|0:0,0:0:0:0:
360,372,133319,1,0,0:0:0:0:
440,372,133434,5,2,0:0:0:0:
380,208,133665,1,8,0:0:0:0:
208,244,133896,1,0,0:0:0:0:
428,144,134126,1,8,0:0:0:0:
348,128,134242,6,0,P|308:168|308:252,1,143.999995605469
368,288,134588,2,0,P|400:288|440:264,1,71.9999978027344,8|0,0:0|0:0,0:0:0:0:
380,208,134819,2,0,L|236:152,1,143.999995605469,0|8,0:0|0:0,0:0:0:0:
24,80,135280,5,2,0:0:0:0:
56,236,135511,1,8,0:0:0:0:
200,48,135742,1,0,0:0:0:0:
164,120,135857,2,0,P|152:152|160:192,1,71.9999978027344,0|8,0:0|0:0,0:0:0:0:
280,296,136088,6,0,L|228:156,1,143.999995605469
39,167,136434,2,0,P|40:200|56:236,1,71.9999978027344,8|0,0:0|0:0,0:0:0:0:
144,345,136665,6,0,L|280:296,1,143.999995605469,0|8,0:0|0:0,0:0:0:0:
348,256,137011,1,0,0:0:0:0:
344,180,137126,2,0,P|312:189|278:217,1,71.9999978027344,2|0,0:0|0:0,0:0:0:0:
359,333,137357,2,0,P|396:320|416:288,1,71.9999978027344,8|0,0:0|0:0,0:0:0:0:
400,128,137588,6,0,P|368:108|332:104,1,71.9999978027344
479,326,137819,2,0,P|487:292|480:256,1,71.9999978027344,8|0,0:0|0:0,0:0:0:0:
480,164,138050,2,0,P|488:116|432:40,1,143.999995605469,0|8,0:0|0:0,0:0:0:0:
360,24,138396,1,0,0:0:0:0:
280,20,138511,5,8,0:0:0:0:
244,88,138626,1,0,0:0:0:0:
164,92,138742,1,8,0:0:0:0:
120,156,138857,1,0,0:0:0:0:
40,152,138973,6,0,P|36:184|40:224,1,71.9999978027344,6|0,0:0|0:0,0:0:0:0:
116,236,139203,2,0,P|120:272|116:316,1,71.9999978027344,8|0,0:0|0:0,0:0:0:0:
192,208,139434,2,0,P|224:184|332:216,1,143.999995605469,0|8,0:0|0:0,0:0:0:0:
460,284,139780,6,0,P|404:244|404:168,1,143.999995605469
400,92,140126,2,0,P|396:56|384:16,1,71.9999978027344,8|0,0:0|0:0,0:0:0:0:
320,68,140357,2,0,P|260:52|204:104,1,143.999995605469,0|8,0:0|0:0,0:0:0:0:
72,200,140819,5,2,0:0:0:0:
116,352,141050,1,8,0:0:0:0:
256,252,141280,1,0,0:0:0:0:
316,304,141396,1,0,0:0:0:0:
392,324,141511,1,8,0:0:0:0:
472,328,141626,6,0,P|460:264|500:184,1,143.999995605469
476,52,141973,2,0,P|475:89|463:129,1,71.9999978027344,8|0,0:0|0:0,0:0:0:0:
396,160,142203,1,0,0:0:0:0:
396,160,142319,2,0,L|260:96,1,143.999995605469
204,48,142665,6,0,B|156:100|68:108,1,143.999995605469,2|8,0:0|0:0,0:0:0:0:
56,184,143011,1,0,0:0:0:0:
40,260,143126,2,0,P|44:308|60:332,1,71.9999978027344
132,196,143357,5,8,0:0:0:0:
120,276,143473,2,0,P|144:332|228:348,1,143.999995605469
207,206,143819,6,0,L|196:284,1,71.9999978027344,8|0,0:0|0:0,0:0:0:0:
276,252,144050,5,8,0:0:0:0:
300,176,144165,1,0,0:0:0:0:
356,232,144280,5,8,0:0:0:0:
360,312,144396,1,0,0:0:0:0:
428,268,144511,6,0,P|440:200|432:120,1,143.999995605469,4|0,0:0|0:0,0:0:0:0:
460,248,144857,6,0,P|472:180|464:100,1,143.999995605469,0|0,0:0|0:0,0:0:0:0:
492,228,145203,6,0,P|504:160|496:80,1,143.999995605469,4|2,0:0|0:0,0:0:0:0:
344,48,145665,5,0,0:0:0:0:
272,36,145780,1,8,0:0:0:0:
200,52,145896,1,0,0:0:0:0:
128,40,146011,1,8,0:0:0:0:
56,52,146126,6,0,P|48:88|56:128,1,71.9999978027344,0|8,0:0|0:0,0:0:0:0:
60,200,146357,1,0,0:0:0:0:
84,276,146473,1,8,0:0:0:0:
192,360,146588,6,0,P|200:320|196:272,1,71.9999978027344,0|8,0:0|0:0,0:0:0:0:
192,208,146819,1,0,0:0:0:0:
168,132,146934,1,8,0:0:0:0:
288,60,147050,6,0,P|280:96|288:136,1,71.9999978027344,0|8,0:0|0:0,0:0:0:0:
300,208,147280,1,0,0:0:0:0:
320,284,147396,1,8,0:0:0:0:
432,376,147511,6,0,P|440:336|436:288,1,71.9999978027344,0|8,0:0|0:0,0:0:0:0:
444,224,147742,6,0,P|452:164|428:76,1,143.999995605469,4|0,0:0|0:0,0:0:0:0:
476,200,148088,6,0,P|484:140|460:52,1,143.999995605469,4|0,0:0|0:0,0:0:0:0:
392,24,148434,1,2,0:0:0:0:
84,64,148665,5,0,0:0:0:0:
120,64,148742,1,8,0:0:0:0:
156,64,148819,1,0,0:0:0:0:
192,64,148896,1,0,0:0:0:0:
192,320,149126,5,0,0:0:0:0:
156,320,149203,1,8,0:0:0:0:
120,320,149280,1,0,0:0:0:0:
84,320,149357,1,0,0:0:0:0:
328,192,149588,5,0,0:0:0:0:
364,192,149665,1,8,0:0:0:0:
400,192,149742,1,0,0:0:0:0:
436,192,149819,1,0,0:0:0:0:
256,36,150050,5,8,0:0:0:0:
256,348,150280,5,0,0:0:0:0:
232,272,150396,1,8,0:0:0:0:
176,216,150511,5,0,0:0:0:0:
136,284,150626,1,8,0:0:0:0:
60,256,150742,5,0,0:0:0:0:
36,180,150857,1,8,0:0:0:0:
36,100,150973,5,0,0:0:0:0:
104,136,151088,1,8,0:0:0:0:
184,132,151203,6,0,L|252:108,1,71.9999978027344,0|8,0:0|0:0,0:0:0:0:
424,124,151434,6,0,P|360:132|284:184,1,143.999995605469,4|0,0:0|0:0,0:0:0:0:
416,164,151780,6,0,P|352:172|288:220,1,143.999995605469,4|0,0:0|0:0,0:0:0:0:
268,296,152126,1,2,0:0:0:0:
108,288,152357,5,0,0:0:0:0:
108,288,152473,1,8,0:0:0:0:
108,72,152703,1,0,0:0:0:0:
64,220,152934,5,0,0:0:0:0:
64,220,153050,1,8,0:0:0:0:
172,32,153280,1,0,0:0:0:0:
60,136,153511,5,0,0:0:0:0:
60,136,153626,1,8,0:0:0:0:
60,136,153742,1,8,0:0:0:0:
247,28,153973,1,0,0:0:0:0:
108,72,154203,5,0,0:0:0:0:
108,72,154319,1,8,0:0:0:0:
108,72,154434,1,8,0:0:0:0:
320,48,154665,1,0,0:0:0:0:
436,224,154896,6,0,P|424:184|400:160,1,71.9999978027344,0|8,0:0|0:0,0:0:0:0:
336,200,155126,6,0,P|314:262|252:312,1,143.999995605469,4|0,0:0|0:0,0:0:0:0:
356,232,155473,6,0,P|334:294|272:352,1,143.999995605469,4|0,0:0|0:0,0:0:0:0:
200,360,155819,1,2,0:0:0:0:
60,248,156050,5,0,0:0:0:0:
36,168,156165,1,8,0:0:0:0:
116,136,156280,5,0,0:0:0:0:
156,212,156396,1,8,0:0:0:0:
228,164,156511,5,0,0:0:0:0:
256,84,156626,1,8,0:0:0:0:
312,152,156742,5,0,0:0:0:0:
384,108,156857,1,8,0:0:0:0:
420,188,156973,5,0,0:0:0:0:
504,168,157088,1,8,0:0:0:0:
496,84,157203,5,0,0:0:0:0:
428,32,157319,1,8,0:0:0:0:
420,188,157434,6,0,B|408:252|456:308|456:308|384:280|328:340|328:340|260:288|192:344,1,420,0|0,0:0|0:0,0:0:0:0:
20,48,159280,6,0,P|88:72|116:140,1,143.999995605469,6|8,0:0|0:0,0:0:0:0:
76,204,159626,1,0,0:0:0:0:
76,204,159742,2,0,P|132:244|208:232,1,143.999995605469,0|8,0:0|0:0,0:0:0:0:
288,64,160088,6,0,P|224:96|196:168,1,143.999995605469
272,184,160434,2,0,L|348:200,1,71.9999978027344,8|0,0:0|0:0,0:0:0:0:
356,296,160665,2,0,L|432:312,1,71.9999978027344
448,216,160896,2,0,L|524:232,1,71.9999978027344,8|0,0:0|0:0,0:0:0:0:
296,352,161126,6,0,P|272:308|308:224,1,143.999995605469,2|8,0:0|0:0,0:0:0:0:
368,176,161473,1,0,0:0:0:0:
408,108,161588,2,0,P|404:68|380:32,1,71.9999978027344
308,36,161819,1,8,0:0:0:0:
232,56,161934,2,0,P|216:128|136:168,1,143.999995605469
60,48,162280,6,0,L|148:72,1,71.9999978027344,8|0,0:0|0:0,0:0:0:0:
160,165,162511,2,0,L|240:184,1,71.9999978027344
292,268,162742,5,8,0:0:0:0:
292,268,162857,2,0,P|232:272|184:344,1,143.999995605469,2|0,0:0|0:0,0:0:0:0:
108,320,163203,2,0,P|65:307|48:261,1,71.9999978027344,8|0,0:0|0:0,0:0:0:0:
26,207,163434,2,0,P|40:132|104:88,1,143.999995605469,0|8,0:0|0:0,0:0:0:0:
260,140,163780,6,0,P|192:120|168:32,1,143.999995605469
248,56,164126,2,0,L|328:32,1,71.9999978027344,8|0,0:0|0:0,0:0:0:0:
332,112,164357,2,0,P|324:184|264:220,1,143.999995605469,0|8,0:0|0:0,0:0:0:0:
260,140,164703,1,0,0:0:0:0:
408,184,164819,6,0,L|476:208,1,71.9999978027344,2|0,0:0|0:0,0:0:0:0:
328,284,165050,2,0,L|359:349,1,71.9999978027344,8|0,0:0|0:0,0:0:0:0:
155,343,165280,6,0,L|188:272,1,71.9999978027344,0|0,0:0|0:0,0:0:0:0:
41,205,165511,2,0,L|116:180,1,71.9999978027344,8|0,0:0|0:0,0:0:0:0:
144,60,165742,6,0,L|116:100,3,35.9999989013672,2|0|0|0,0:0|0:0|0:0|0:0,0:0:0:0:
228,140,165973,6,0,L|200:100,3,35.9999989013672
288,28,166203,6,0,L|260:68,3,35.9999989013672
372,108,166434,6,0,L|344:68,3,35.9999989013672
472,48,166665,6,0,P|468:88|452:116,1,71.9999978027344,6|0,0:0|0:0,0:0:0:0:
496,236,166896,2,0,P|476:260|428:272,1,71.9999978027344,8|0,0:0|0:0,0:0:0:0:
372,380,167126,2,0,P|364:312|300:268,1,143.999995605469,0|8,0:0|0:0,0:0:0:0:
152,256,167473,6,0,P|220:248|264:184,1,143.999995605469
288,116,167819,2,0,P|284:76|260:36,1,71.9999978027344,8|0,0:0|0:0,0:0:0:0:
192,36,168050,2,0,P|152:56|128:96,1,71.9999978027344
24,232,168280,2,0,P|36:276|60:304,1,71.9999978027344,8|0,0:0|0:0,0:0:0:0:
188,340,168511,6,0,P|172:272|104:236,1,143.999995605469,2|8,0:0|0:0,0:0:0:0:
68,172,168857,1,0,0:0:0:0:
28,104,168973,2,0,P|52:80|104:68,1,71.9999978027344
152,116,169203,5,8,0:0:0:0:
152,116,169319,2,0,P|224:136|280:92,1,143.999995605469
348,60,169665,2,0,L|428:76,1,71.9999978027344,8|0,0:0|0:0,0:0:0:0:
464,140,169896,1,0,0:0:0:0:
408,196,170011,2,0,L|332:208,1,71.9999978027344,0|8,0:0|0:0,0:0:0:0:
228,220,170242,6,0,P|276:244|288:336,1,143.999995605469,2|0,0:0|0:0,0:0:0:0:
216,300,170588,2,0,L|136:300,1,71.9999978027344,8|0,0:0|0:0,0:0:0:0:
96,240,170819,1,0,0:0:0:0:
72,164,170934,1,0,0:0:0:0:
88,84,171050,1,8,0:0:0:0:
192,204,171165,6,0,P|252:184|292:112,1,143.999995605469,2|0,0:0|0:0,0:0:0:0:
364,108,171511,2,0,P|388:100|412:56,1,71.9999978027344,8|0,0:0|0:0,0:0:0:0:
464,128,171742,1,0,0:0:0:0:
408,184,171857,1,0,0:0:0:0:
420,264,171973,1,8,0:0:0:0:
276,348,172088,6,0,P|328:308|344:232,1,143.999995605469,2|0,0:0|0:0,0:0:0:0:
332,156,172434,2,0,P|340:136|324:80,1,71.9999978027344,8|0,0:0|0:0,0:0:0:0:
380,24,172665,5,0,0:0:0:0:
300,16,172780,1,0,0:0:0:0:
252,80,172896,5,8,0:0:0:0:
162,120,173011,1,0,0:0:0:0:
82,61,173126,1,6,0:0:0:0:
256,192,173242,12,0,174050,0:0:0:0:
160,220,174973,6,0,P|108:192|80:112,1,143.999995605469,6|8,0:0|0:0,0:0:0:0:
116,44,175319,1,0,0:0:0:0:
196,44,175434,2,0,P|216:40|272:44,1,71.9999978027344
348,44,175665,1,8,0:0:0:0:
428,52,175780,6,0,P|436:120|492:180,1,143.999995605469
340,124,176126,1,8,0:0:0:0:
340,124,176242,2,0,P|376:196|428:232,1,143.999995605469
300,232,176588,2,0,P|324:264|368:284,1,71.9999978027344,8|0,0:0|0:0,0:0:0:0:
244,296,176819,6,0,P|224:284|168:280,1,71.9999978027344,2|0,0:0|0:0,0:0:0:0:
128,340,177050,1,8,0:0:0:0:
48,344,177165,2,0,P|48:280|4:204,1,143.999995605469
24,132,177511,1,8,0:0:0:0:
52,56,177626,6,0,P|104:40|192:60,1,143.999995605469
248,116,177973,2,0,P|284:120|344:112,1,71.9999978027344,8|0,0:0|0:0,0:0:0:0:
376,60,178203,1,0,0:0:0:0:
444,96,178319,1,0,0:0:0:0:
436,176,178434,1,8,0:0:0:0:
484,240,178550,1,0,0:0:0:0:
440,308,178665,6,0,P|400:340|312:368,1,143.999995605469,2|8,0:0|0:0,0:0:0:0:
248,320,179011,1,0,0:0:0:0:
248,320,179126,2,0,P|184:308|100:324,1,143.999995605469,0|8,0:0|0:0,0:0:0:0:
24,188,179473,6,0,P|72:224|160:232,1,143.999995605469
228,208,179819,2,0,P|260:196|296:156,1,71.9999978027344,8|0,0:0|0:0,0:0:0:0:
312,96,180050,2,0,P|324:56|352:28,1,71.9999978027344
424,36,180280,1,8,0:0:0:0:
468,104,180396,1,0,0:0:0:0:
476,184,180511,6,0,P|468:256|412:308,1,143.999995605469,2|8,0:0|0:0,0:0:0:0:
356,352,180857,1,0,0:0:0:0:
356,352,180973,2,0,L|268:320,1,71.9999978027344
212,348,181203,2,0,L|144:320,1,71.9999978027344,8|0,0:0|0:0,0:0:0:0:
76,280,181434,6,0,P|52:248|36:212,1,71.9999978027344,10|0,0:0|0:0,0:0:0:0:
118,67,181665,2,0,P|136:92|152:136,1,71.9999978027344,8|0,0:0|0:0,0:0:0:0:
76,136,181896,5,8,0:0:0:0:
112,208,182011,1,0,0:0:0:0:
184,236,182126,1,8,0:0:0:0:
264,232,182242,1,0,0:0:0:0:
336,200,182357,6,0,P|372:128|368:56,1,143.999995605469,6|8,0:0|0:0,0:0:0:0:
208,28,182703,1,0,0:0:0:0:
208,28,182819,2,0,P|236:104|288:144,1,143.999995605469,0|8,0:0|0:0,0:0:0:0:
384,264,183165,6,0,P|432:228|456:140,1,143.999995605469
380,24,183511,2,0,P|372:64|384:100,1,71.9999978027344,8|0,0:0|0:0,0:0:0:0:
336,200,183742,2,0,P|312:236|304:268,1,71.9999978027344
200,316,183973,2,0,P|166:338|149:372,1,71.9999978027344,8|0,0:0|0:0,0:0:0:0:
168,244,184203,6,0,P|160:208|132:180,1,71.9999978027344,2|0,0:0|0:0,0:0:0:0:
56,184,184434,2,0,B|36:152|28:100|24:104,1,71.9999978027344,8|0,0:0|0:0,0:0:0:0:
68,48,184665,2,0,P|96:28|140:24,1,71.9999978027344
208,24,184896,1,8,0:0:0:0:
168,92,185011,6,0,P|236:116|276:172,1,143.999995605469
284,252,185357,2,0,P|316:268|348:308,1,71.9999978027344,8|0,0:0|0:0,0:0:0:0:
416,316,185588,1,0,0:0:0:0:
476,264,185703,1,0,0:0:0:0:
496,188,185819,1,8,0:0:0:0:
480,112,185934,1,0,0:0:0:0:
432,48,186050,6,0,P|368:100|308:104,1,143.999995605469,2|8,0:0|0:0,0:0:0:0:
240,68,186396,1,0,0:0:0:0:
164,52,186511,2,0,P|124:40|88:40,1,71.9999978027344
32,92,186742,1,8,0:0:0:0:
204,132,186857,6,0,P|268:156|304:232,1,143.999995605469,2|0,0:0|0:0,0:0:0:0:
376,232,187203,5,8,0:0:0:0:
340,304,187319,1,0,0:0:0:0:
276,348,187434,5,8,0:0:0:0:
236,280,187550,1,0,0:0:0:0:
156,284,187665,5,8,0:0:0:0:
124,356,187780,1,0,0:0:0:0:
60,312,187896,6,0,P|56:276|60:232,1,71.9999978027344,10|0,0:0|0:0,0:0:0:0:
300,148,188242,6,0,P|301:177|292:224,1,71.9999978027344,8|0,0:0|0:0,0:0:0:0:
64,96,188588,6,0,P|60:60|68:16,1,71.9999978027344,8|0,0:0|0:0,0:0:0:0:
256,300,188934,6,0,P|257:329|252:372,1,71.9999978027344,8|0,0:0|0:0,0:0:0:0:
504,104,189280,5,0,0:0:0:0:
412,120,189396,1,0,0:0:0:0:
504,124,189511,5,0,0:0:0:0:
416,100,189626,1,0,0:0:0:0:
308,80,189742,6,0,P|312:116|308:160,1,71.9999978027344,10|0,0:0|0:0,0:0:0:0:
68,244,190088,6,0,P|67:215|76:168,1,71.9999978027344,8|0,0:0|0:0,0:0:0:0:
304,296,190434,6,0,P|308:332|300:376,1,71.9999978027344,8|0,0:0|0:0,0:0:0:0:
112,92,190780,6,0,P|111:63|116:20,1,71.9999978027344,8|0,0:0|0:0,0:0:0:0:
456,196,191126,5,8,0:0:0:0:
368,168,191242,1,0,0:0:0:0:
280,200,191357,1,8,0:0:0:0:
192,172,191473,1,6,0:0:0:0:
56,332,192453,5,0,0:0:0:0:
56,332,192511,1,0,0:0:0:0:
56,332,192569,1,0,0:0:0:0:
56,332,192626,1,0,0:0:0:0:
