osu file format v14

[General]
AudioFilename: world calling.mp3
AudioLeadIn: 0
PreviewTime: 47233
Countdown: 0
SampleSet: Soft
StackLeniency: 0.7
Mode: 0
LetterboxInBreaks: 1
WidescreenStoryboard: 0

[Editor]
Bookmarks: 30193,60433,90193,120433,150193,180433
DistanceSpacing: 1.3
BeatDivisor: 6
GridSize: 4
TimelineZoom: 1.6

[Metadata]
Title:World calling
TitleUnicode:ワールド・コーリング
Artist:Jin
ArtistUnicode:じん
Creator:koyomiya
Version:Akali- collab
Source:IA
Tags:IA, akali-, mikoto2983
BeatmapID:783050
BeatmapSetID:355694

[Difficulty]
HPDrainRate:7
CircleSize:4.6
OverallDifficulty:8
ApproachRate:8.8
SliderMultiplier:2.5
SliderTickRate:2

[Events]
//Background and Video events
//Break Periods
2,80073,86563
2,99273,100003
//Storyboard Layer 0 (Background)
//Storyboard Layer 1 (Fail)
//Storyboard Layer 2 (Pass)
//Storyboard Layer 3 (Foreground)
//Storyboard Sound Samples

[TimingPoints]
1393,480,4,2,2,55,1,0
3073,-133.333333333333,4,2,2,40,0,0
29953,-100,4,2,2,55,0,0
30433,-100,4,1,0,55,0,0
31873,-86.9565217391304,4,1,0,55,0,0
32593,-100,4,1,0,55,0,0
33793,-133.333333333333,4,1,0,35,0,0
35713,-181.818181818181,4,1,0,35,0,0
36913,-133.333333333333,4,1,0,35,0,0
37633,-181.818181818181,4,1,0,35,0,0
38353,-133.333333333333,4,1,0,35,0,0
39553,-200,4,1,0,35,0,0
40513,-133.333333333333,4,1,0,20,0,0
40993,-111.111111111111,4,1,0,55,0,0
41473,-133.333333333333,4,1,0,45,0,0
43393,-200,4,1,0,45,0,0
44833,-133.333333333333,4,1,0,45,0,0
45793,-133.333333333333,4,1,0,50,0,0
47233,-166.666666666667,4,1,0,50,0,0
48673,-166.666666666667,4,1,0,25,0,0
48913,-111.111111111111,4,1,0,50,0,0
49153,-90.9090909090909,4,1,0,55,0,1
54913,-80,4,2,0,55,0,1
55153,-80,4,1,0,55,0,1
56833,-111.111111111111,4,1,0,55,0,1
57553,-80,4,1,0,55,0,1
60913,-90.9090909090909,4,1,0,55,0,1
62593,-200,4,1,0,55,0,1
63073,-125,4,1,0,55,0,1
63553,-76.9230769230769,4,1,0,55,0,1
64033,-90.9090909090909,4,1,0,55,0,1
66433,-142.857142857143,4,1,0,55,0,1
67393,-90.9090909090909,4,1,0,55,0,1
70273,-142.857142857143,4,1,0,55,0,1
70753,-90.9090909090909,4,1,0,55,0,1
72433,-142.857142857143,4,1,0,55,0,1
72913,-90.9090909090909,4,1,0,55,0,1
74113,-142.857142857143,4,1,0,55,0,1
74593,-90.9090909090909,4,1,0,55,0,1
76993,-142.857142857143,4,1,0,55,0,1
77473,-90.9090909090909,4,1,0,55,0,1
80113,-133.333333333333,4,2,2,55,0,0
87313,-133.333333333333,4,2,2,35,0,0
93073,-105.263157894737,4,1,0,45,0,0
93313,-133.333333333333,4,1,0,35,0,0
94273,-181.818181818181,4,1,0,35,0,0
94813,-181.818181818181,4,1,0,25,0,0
95233,-117.647058823529,4,1,0,45,0,0
97393,-133.333333333333,4,1,0,45,0,0
98113,-100,4,3,0,45,0,0
98593,-117.647058823529,4,1,0,45,0,0
100753,-117.647058823529,4,1,0,35,0,0
100993,-117.647058823529,4,3,0,35,0,0
101233,-117.647058823529,4,1,0,35,0,0
101953,-86.9565217391304,4,1,0,35,0,0
102913,-117.647058823529,4,1,0,35,0,0
109393,-153.846153846153,4,1,0,35,0,0
109873,-117.647058823529,4,1,0,45,0,0
110353,-105.263157894737,4,1,0,45,0,0
113473,-105.263157894737,4,3,0,45,0,0
113713,-105.263157894737,4,1,0,45,0,0
115393,-133.333333333333,4,1,0,45,0,0
116113,-105.263157894737,4,1,0,45,0,0
116833,-74.074074074074,4,1,0,45,0,0
117313,-105.263157894737,4,1,0,45,0,0
120193,-100,4,1,0,50,0,0
121153,-133.333333333333,4,1,0,50,0,0
121873,-90.9090909090909,4,1,0,40,0,0
123073,-133.333333333333,4,1,0,50,0,0
123793,-90.9090909090909,4,1,0,40,0,0
124993,-133.333333333333,4,1,0,55,0,0
125473,-105.263157894737,4,2,0,50,0,0
132673,-105.263157894737,4,1,0,55,0,0
133153,-105.263157894737,4,2,0,50,0,0
133393,-105.263157894737,4,1,0,55,0,0
133633,-105.263157894737,4,2,0,50,0,0
136513,-133.333333333333,4,1,0,55,0,0
136753,-105.263157894737,4,2,2,55,0,0
138433,-105.263157894737,4,1,0,55,0,0
138673,-105.263157894737,4,2,0,40,0,0
139153,-105.263157894737,4,2,0,45,0,0
139633,-105.263157894737,4,2,0,50,0,0
139873,-105.263157894737,4,2,0,55,0,0
140113,-83.3333333333333,4,1,0,55,0,1
142273,-100,4,1,0,55,0,1
143233,-83.3333333333333,4,2,2,55,0,1
143473,-83.3333333333333,4,1,0,55,0,1
144193,-83.3333333333333,4,1,0,55,0,1
144433,-83.3333333333333,4,2,2,55,0,1
146113,-100,4,1,0,55,0,1
147073,-100,4,2,2,55,0,1
147193,-83.3333333333333,4,1,0,55,0,1
148273,-83.3333333333333,4,2,2,55,0,1
148513,-83.3333333333333,4,1,0,55,0,1
149953,-100,4,2,0,55,0,1
150433,-83.3333333333333,4,2,2,55,0,1
151153,-83.3333333333333,4,1,0,55,0,1
151873,-111.111111111111,4,1,0,55,0,1
152593,-83.3333333333333,4,1,0,55,0,1
153793,-66.6666666666667,4,1,0,55,0,1
154993,-83.3333333333333,4,3,0,55,0,1
155233,-83.3333333333333,4,1,0,40,0,1
155953,-83.3333333333333,4,1,0,55,0,1
156433,-83.3333333333333,4,1,0,40,0,1
156913,-83.3333333333333,4,1,0,55,0,1
158593,-200,4,1,0,40,0,1
159313,-83.3333333333333,4,1,0,55,0,1
159553,-83.3333333333333,4,1,0,40,0,1
159793,-83.3333333333333,4,1,0,55,0,1
160513,-83.3333333333333,4,1,0,40,0,1
160993,-83.3333333333333,4,1,0,55,0,1
166273,-66.6666666666667,4,1,0,55,0,1
166753,-83.3333333333333,4,1,0,55,0,1
170593,-83.3333333333333,4,1,0,40,0,1
171313,-76.9230769230769,4,1,0,55,0,1
176833,-100,4,1,0,55,0,1
177313,-76.9230769230769,4,1,0,55,0,1
178033,-76.9230769230769,4,1,0,40,0,1
178273,-76.9230769230769,4,1,0,55,0,1
187153,-105.263157894737,4,2,2,35,0,0
188593,-105.263157894737,4,2,2,10,0,0

[HitObjects]
112,192,3073,5,0,0:0:0:0:
172,120,3313,2,0,P|232:92|280:112,1,93.7500035762789
284,136,3673,1,0,0:0:0:0:
308,176,3793,2,0,P|288:240|236:268,1,93.7500035762789
276,80,4273,2,0,P|320:52|400:72,1,93.7500035762789
284,240,4753,2,0,P|236:280|196:280,1,93.7500035762789
388,160,5233,6,0,P|428:200|444:264,1,93.7500035762788
208,260,5713,2,0,P|160:232|144:180,1,93.7500035762788
152,156,6073,1,0,0:0:0:0:
184,120,6193,2,0,P|220:88|280:92,1,93.7500035762788
384,160,6673,1,0,0:0:0:0:
144,252,6913,1,0,0:0:0:0:
244,132,7153,5,0,0:0:0:0:
320,76,7393,2,0,P|368:52|428:64,1,93.7500035762788
312,280,7873,1,0,0:0:0:0:
200,332,8113,1,0,0:0:0:0:
328,200,8353,2,0,P|292:152|252:144,1,93.7500035762788
216,140,8713,1,0,0:0:0:0:
172,160,8833,2,0,P|136:196|72:192,2,93.7500035762788
48,92,9553,1,0,0:0:0:0:
228,52,9793,5,0,0:0:0:0:
352,120,10033,2,0,P|380:168|372:228,1,93.7500035762788
288,312,10513,1,0,0:0:0:0:
288,312,10753,1,0,0:0:0:0:
288,312,10873,1,0,0:0:0:0:
288,312,10993,6,0,P|216:292|176:272,1,93.7500035762788
228,196,11473,2,0,P|280:188|320:216,1,93.7500035762788
360,224,11833,1,0,0:0:0:0:
400,196,11953,2,0,P|428:152|400:84,1,93.7500035762788
232,192,12433,2,0,P|184:220|180:272,1,93.7500035762788
296,100,12913,6,0,P|344:84|400:132,1,93.7500035762788
232,296,13393,2,0,P|188:308|124:292,1,93.7500035762788
100,276,13753,1,0,0:0:0:0:
68,244,13873,1,0,0:0:0:0:
148,192,14113,1,0,0:0:0:0:
371,83,14353,2,0,P|424:104|436:156,1,93.7500035762788
298,352,14833,1,0,0:0:0:0:
196,80,15073,1,0,0:0:0:0:
196,80,15553,5,0,0:0:0:0:
328,128,15793,2,0,P|384:160|412:212,1,93.7500035762788
232,336,16273,1,0,0:0:0:0:
232,336,16513,5,0,0:0:0:0:
108,268,16753,2,0,P|120:216|176:184,1,93.7500035762788
380,88,17233,1,0,0:0:0:0:
380,88,17473,5,0,0:0:0:0:
388,228,17713,2,0,P|356:280|316:304,1,93.7500035762788
284,300,18033,1,0,0:0:0:0:
240,280,18113,1,0,0:0:0:0:
220,236,18193,1,0,0:0:0:0:
220,236,18433,1,0,0:0:0:0:
244,144,18673,6,0,P|288:100|348:108,1,93.7500035762788
364,108,19033,1,0,0:0:0:0:
396,144,19153,2,0,P|424:188|412:240,1,93.7500035762788
280,200,19633,2,0,P|208:144|208:116,1,93.7500035762788
388,56,20113,2,0,P|436:72|464:120,1,93.7500035762788
228,292,20593,6,0,B|208:248|208:248|188:296,1,93.7500035762788
92,192,21073,2,0,P|48:164|48:116,1,93.7500035762788
156,212,21553,2,0,P|212:224|276:184,1,93.7500035762788
408,128,22033,2,0,B|456:104|456:104|396:48,1,93.7500035762788
288,56,22513,5,0,0:0:0:0:
164,120,22753,2,0,P|112:168|88:208,1,93.7500035762788
99,186,23233,1,0,0:0:0:0:
356,128,23473,2,0,P|328:164|268:184,1,93.7500035762788
99,186,23953,1,0,0:0:0:0:
60,216,24073,1,0,0:0:0:0:
68,264,24193,1,0,0:0:0:0:
200,316,24433,2,0,P|280:320|312:288,1,93.7500035762788
376,96,24913,1,0,0:0:0:0:
376,96,25153,5,0,0:0:0:0:
236,84,25393,2,0,P|164:104|152:128,1,93.7500035762788
104,232,25753,1,0,0:0:0:0:
184,196,25873,2,0,P|236:184|268:216,1,93.7500035762788
300,240,26233,1,0,0:0:0:0:
348,236,26353,6,0,P|416:192|428:172,1,93.7500035762788
300,112,26833,2,0,P|236:104|232:164,1,93.7500035762788
240,164,27193,1,0,0:0:0:0:
276,192,27313,2,0,P|292:252|260:272,1,93.7500035762788
108,216,27793,2,0,P|104:168|152:120,1,93.7500035762788
400,200,28273,2,0,B|424:156|424:156|448:212,1,93.7500035762788
344,300,28753,5,0,0:0:0:0:
252,300,28993,1,0,0:0:0:0:
172,248,29233,1,0,0:0:0:0:
148,156,29473,1,0,0:0:0:0:
204,80,29713,1,0,0:0:0:0:
448,184,29953,2,0,P|452:236|368:296,1,125
288,272,30433,6,0,P|184:268|156:228,1,125,2|0,0:0|0:0,0:0:0:0:
180,116,30913,2,0,P|284:120|312:160,1,125,2|4,0:0|0:0,0:0:0:0:
336,272,31393,1,6,0:0:0:0:
188,316,31633,1,0,0:0:0:0:
112,180,31873,2,0,P|180:220|288:64,1,287.500005483627,2|6,0:0|0:0,0:0:0:0:
384,160,32593,2,0,P|384:232|232:304,1,250
144,240,33313,2,0,P|184:240|188:232,4,31.25
140,88,33793,6,0,P|184:124|308:72,1,187.500007152558,0|2,0:0|0:0,0:0:0:0:
376,156,34513,1,0,0:0:0:0:
304,280,34753,1,2,0:0:0:0:
188,228,34993,2,0,P|136:224|128:184,1,93.7500035762788,0|2,0:0|0:0,0:0:0:0:
216,80,35473,5,0,0:0:0:0:
332,136,35713,2,0,P|308:220|268:260,1,137.500004196167,6|0,0:0|0:0,0:0:0:0:
112,260,36433,1,0,0:0:0:0:
272,256,36673,1,2,0:0:0:0:
168,168,36913,2,0,P|188:120|224:80,2,93.7500035762788,0|2|0,0:0|0:0|0:0,0:0:0:0:
248,232,37633,6,0,P|272:148|312:108,1,137.500004196167,6|2,0:0|0:0,0:0:0:0:
368,204,38353,2,0,P|344:256|296:288,1,93.7500035762788,0|2,0:0|0:0,0:0:0:0:
172,292,38833,2,0,P|196:240|244:208,2,93.7500035762788,0|2|0,0:0|0:0|0:0,0:0:0:0:
92,208,39553,2,0,P|112:148|204:64,1,187.5,2|0,0:0|0:0,0:0:0:0:
316,108,40513,2,0,P|276:132|272:144,2,46.8750017881394,2|0|0,0:0|0:0|0:0,0:0:0:0:
180,256,40993,6,0,P|272:272|296:228,1,112.499996566773,4|0,0:0|0:0,0:0:0:0:
288,256,41353,1,0,0:0:0:0:
300,248,41473,2,0,P|344:216|376:152,1,93.7500035762788,2|0,0:0|0:0,0:0:0:0:
172,248,41953,2,0,P|216:216|248:152,1,93.7500035762788,2|0,0:0|0:0,0:0:0:0:
60,236,42433,2,0,P|104:204|136:140,1,93.7500035762788,2|0,0:0|0:0,0:0:0:0:
208,104,42913,5,2,0:0:0:0:
336,188,43153,1,0,0:0:0:0:
184,256,43393,2,0,P|264:288|292:320,1,125,6|2,0:0|0:0,0:0:0:0:
388,232,44113,1,0,0:0:0:0:
292,120,44353,1,2,0:0:0:0:
268,256,44593,1,0,0:0:0:0:
164,176,44833,2,0,P|120:148|124:100,2,93.7500035762788,2|0|6,0:0|0:0|0:0,0:0:0:0:
264,128,45793,5,2,0:0:0:0:
400,128,46033,1,0,0:0:0:0:
296,208,46273,1,2,0:0:0:0:
332,64,46513,1,0,0:0:0:0:
372,208,46753,1,2,0:0:0:0:
332,64,46993,1,0,0:0:0:0:
296,208,47233,2,0,B|252:256|224:260|232:184|276:216|172:288,1,149.999995422363,2|4,0:0|0:0,0:0:0:0:
188,272,47953,5,4,0:0:0:0:
116,128,48433,1,4,0:0:0:0:
232,128,48673,2,0,L|252:128,2,18.7499994277954
204,128,48913,2,0,P|160:128|184:176,1,112.499996566773,2|4,0:0|0:0,0:0:0:0:
304,192,49393,6,0,P|356:184|376:104,1,137.500004196167
228,80,49873,2,0,P|176:88|156:168,2,137.500004196167,8|2|0,0:0|0:0|0:0,0:0:0:0:
264,188,50593,2,0,P|272:240|352:260,1,137.500004196167,2|8,0:0|0:0,0:0:0:0:
212,288,51073,1,2,0:0:0:0:
128,208,51313,1,0,0:0:0:0:
296,232,51553,1,2,0:0:0:0:
240,104,51793,1,8,0:0:0:0:
72,148,52033,2,0,P|112:84|176:64,1,137.500004196167,2|4,0:0|0:0,0:0:0:0:
292,144,52513,6,0,P|356:184|376:248,1,137.500004196167,2|8,0:0|0:0,0:0:0:0:
264,284,52993,2,0,L|196:268,1,68.7500020980836,2|0,0:0|0:0,0:0:0:0:
172,260,53233,2,0,P|88:148|88:124,1,137.500004196167,0|2,0:0|0:0,0:0:0:0:
336,88,53713,2,0,P|224:172|200:172,1,137.500004196167,8|2,0:0|0:0,0:0:0:0:
344,236,54193,1,0,0:0:0:0:
192,308,54433,2,0,P|108:196|108:172,1,137.500004196167,2|8,0:0|0:0,0:0:0:0:
204,92,54913,6,0,P|224:176|276:232,1,156.25,4|0,0:0|0:0,0:0:0:0:
280,56,55393,2,0,P|300:140|352:196,1,156.25,2|8,0:0|0:0,0:0:0:0:
312,280,55873,2,0,B|228:284|224:256|272:264|120:240,1,156.25,2|0,0:0|0:0,0:0:0:0:
312,104,56353,2,0,P|368:176|320:240,1,156.25,2|8,0:0|0:0,0:0:0:0:
216,80,56833,2,0,P|164:112|92:260,1,224.999993133545,2|2,0:0|0:0,0:0:0:0:
340,312,57553,6,0,P|380:264|384:156,1,156.25,8|2,0:0|0:0,0:0:0:0:
236,304,58033,2,0,P|276:256|280:148,1,156.25,0|2,0:0|0:0,0:0:0:0:
96,72,58513,2,0,P|144:112|252:116,1,156.25,8|2,0:0|0:0,0:0:0:0:
352,80,58993,1,0,0:0:0:0:
256,204,59233,1,2,0:0:0:0:
352,80,59473,1,8,0:0:0:0:
256,204,59713,2,0,P|224:236|104:264,1,156.25,2|0,0:0|0:0,0:0:0:0:
192,100,60193,2,0,B|256:148|304:92|248:52|200:100|348:152,1,156.25,2|12,0:0|0:0,0:0:0:0:
436,200,60673,1,0,0:0:0:0:
464,144,60793,1,0,0:0:0:0:
432,92,60913,6,0,P|356:44|308:56,2,137.500004196167
396,252,61633,1,0,0:0:0:0:
248,324,61873,1,0,0:0:0:0:
100,256,62113,2,0,P|64:200|88:128,1,137.500004196167
344,200,62593,2,0,P|384:180|420:192,1,62.5
392,120,63073,2,0,P|340:128|280:180,1,100
168,248,63553,2,0,P|216:136|288:108,1,162.499992561341
404,96,64033,6,0,P|432:96|468:140,1,68.7500020980836
384,188,64273,2,0,P|332:176|304:144,1,68.7500020980836
340,64,64513,2,0,P|364:40|408:32,1,68.7500020980836
440,224,64753,5,0,0:0:0:0:
364,276,64993,1,0,0:0:0:0:
228,292,65233,2,0,P|172:272|128:200,1,137.500004196167
256,84,65713,2,0,P|328:80|368:148,1,137.500004196167
308,296,66193,1,0,0:0:0:0:
452,52,66433,2,0,P|440:96|408:144,1,87.499997329712
356,228,66913,1,0,0:0:0:0:
244,256,67153,1,0,0:0:0:0:
132,236,67393,2,0,P|76:204|44:124,2,137.500004196167
292,156,68113,5,0,0:0:0:0:
292,156,68353,2,0,P|320:124|300:92,1,68.7500020980836
232,64,68593,2,0,P|168:116|208:192,1,137.500004196167
336,240,69073,1,0,0:0:0:0:
56,284,69313,2,0,P|128:296|216:276,1,137.500004196167
360,224,69793,1,0,0:0:0:0:
460,76,70033,1,0,0:0:0:0:
384,332,70273,2,0,P|404:292|412:240,1,87.499997329712
312,100,70753,5,0,0:0:0:0:
136,132,70993,1,0,0:0:0:0:
60,296,71233,1,0,0:0:0:0:
60,296,71353,1,0,0:0:0:0:
60,296,71473,1,0,0:0:0:0:
48,84,71713,1,0,0:0:0:0:
236,264,71953,2,0,P|296:296|364:284,1,137.500004196167
104,184,72433,6,0,P|132:132|180:96,1,87.499997329712
260,72,72913,1,0,0:0:0:0:
320,84,73033,1,0,0:0:0:0:
376,108,73153,2,0,P|408:128|460:212,1,137.500004196167
459,211,73633,1,0,0:0:0:0:
324,328,73873,1,0,0:0:0:0:
468,136,74113,2,0,P|444:192|392:224,1,87.499997329712
256,272,74593,1,0,0:0:0:0:
84,232,74833,1,0,0:0:0:0:
176,48,75073,6,0,P|248:28|328:64,1,137.500004196167
124,144,75553,1,0,0:0:0:0:
328,108,75793,1,0,0:0:0:0:
104,228,76033,2,0,P|68:240|40:252,2,68.7500020980836
272,172,76513,1,0,0:0:0:0:
440,112,76753,1,0,0:0:0:0:
220,268,76993,2,0,L|296:212,1,87.499997329712
440,112,77473,1,0,0:0:0:0:
72,248,77713,1,0,0:0:0:0:
256,192,77833,12,0,78913,0:0:0:0:
172,172,79153,5,0,0:0:0:0:
336,96,79393,1,0,0:0:0:0:
192,312,79633,1,0,0:0:0:0:
368,216,79873,1,0,0:0:0:0:
288,144,87313,5,0,0:0:0:0:
416,208,87553,1,0,0:0:0:0:
140,244,87793,2,0,P|88:204|68:140,1,93.7500035762788
256,280,88273,1,0,0:0:0:0:
292,288,88513,5,0,0:0:0:0:
140,72,88753,2,0,P|152:140|168:168,1,93.7500035762788
248,248,89233,1,0,0:0:0:0:
356,304,89473,5,0,0:0:0:0:
384,184,89713,2,0,L|408:80,1,93.7500035762788
256,324,90193,1,0,0:0:0:0:
176,224,90433,6,0,P|116:224|92:192,1,93.7500035762788
248,288,90913,2,0,P|308:288|332:320,2,93.7500035762788
328,164,91633,2,0,L|404:100,1,93.7500035762788
256,100,92113,6,0,L|180:164,1,93.7500035762788
76,244,92593,1,0,0:0:0:0:
204,312,92833,1,0,0:0:0:0:
376,136,93073,6,0,P|308:156|288:200,1,118.749996829033,4|0,0:0|0:0,0:0:0:0:
148,164,93553,1,0,0:0:0:0:
148,164,93793,1,0,0:0:0:0:
152,64,94273,2,0,P|200:96|244:184,1,137.500004196167
248,184,94813,2,0,L|256:208,2,17.1875005245209,0|0|4,0:0|0:0|0:0,0:0:0:0:
312,300,95233,6,0,P|380:288|384:224,1,106.250002026558,8|0,0:0|0:0,0:0:0:0:
272,184,95713,1,0,0:0:0:0:
408,72,95953,2,0,P|340:84|336:148,1,106.250002026558,0|8,0:0|0:0,0:0:0:0:
184,240,96433,2,0,L|108:152,1,106.250002026558,2|0,0:0|0:0,0:0:0:0:
280,196,96913,2,0,L|356:284,1,106.250002026558,2|8,0:0|0:0,0:0:0:0:
328,104,97393,2,0,P|276:64|160:112,1,187.500007152558,2|2,0:0|0:0,0:0:0:0:
176,280,98113,6,0,B|240:272|228:204|168:212|176:288|284:204,1,125,2|0,0:0|0:0,0:0:0:0:
200,96,98593,1,8,0:0:0:0:
400,64,98833,1,0,0:0:0:0:
300,216,99073,1,12,0:0:0:0:
128,112,100753,6,0,L|176:152,1,53.125001013279
188,160,100993,1,2,0:0:0:0:
284,80,101233,1,0,0:0:0:0:
184,284,101473,1,0,0:0:0:0:
184,284,101713,1,8,0:0:0:0:
392,312,101953,6,0,P|328:264|224:288,1,143.750002741814,2|0,0:0|0:0,0:0:0:0:
136,112,102433,2,0,P|200:160|304:136,1,143.750002741814,6|0,0:0|0:0,0:0:0:0:
340,164,102913,2,0,P|376:120|348:84,1,106.250002026558
228,180,103393,1,0,0:0:0:0:
128,84,103633,1,2,0:0:0:0:
288,136,103873,1,0,0:0:0:0:
80,140,104113,1,2,0:0:0:0:
184,228,104353,6,0,P|148:272|176:308,1,106.250002026558,8|2,0:0|0:0,0:0:0:0:
296,216,104833,1,0,0:0:0:0:
416,288,105073,1,2,0:0:0:0:
256,272,105313,1,0,0:0:0:0:
360,172,105553,2,0,P|396:128|368:92,1,106.250002026558,2|0,0:0|0:0,0:0:0:0:
200,156,106033,6,0,L|76:156,1,106.250002026558,2|8,0:0|0:0,0:0:0:0:
200,268,106513,1,2,0:0:0:0:
356,156,106753,2,0,L|232:156,1,106.250002026558,8|2,0:0|0:0,0:0:0:0:
364,268,107233,1,8,0:0:0:0:
184,96,108193,6,0,P|224:140|152:252,1,212.500004053116,8|8,0:0|0:0,0:0:0:0:
356,304,109393,2,0,P|312:256|372:160,1,162.499992561341,2|12,0:0|0:0,0:0:0:0:
124,292,110353,2,0,P|160:268|100:124,1,237.499993658066,8|2,0:0|0:0,0:0:0:0:
256,300,111313,2,0,L|256:52,1,237.499993658066,8|2,0:0|0:0,0:0:0:0:
400,284,112273,2,0,P|328:180|408:116,1,237.499993658066,8|2,0:0|0:0,0:0:0:0:
256,200,112993,5,0,0:0:0:0:
144,92,113233,1,2,0:0:0:0:
88,256,113473,2,0,P|152:288|176:348,1,118.749996829033,2|0,0:0|0:0,0:0:0:0:
296,284,113953,1,0,0:0:0:0:
324,268,114073,1,0,0:0:0:0:
352,252,114193,6,0,P|400:208|412:152,1,118.749996829033,8|0,0:0|0:0,0:0:0:0:
412,136,114553,1,0,0:0:0:0:
412,116,114673,1,2,0:0:0:0:
192,104,114913,1,0,0:0:0:0:
116,264,115153,1,8,0:0:0:0:
320,292,115393,2,0,P|356:284|380:232,1,93.7500035762788,0|2,0:0|0:0,0:0:0:0:
372,120,115873,5,0,0:0:0:0:
344,144,115993,1,0,0:0:0:0:
312,172,116113,1,8,0:0:0:0:
288,200,116233,2,0,P|268:236|232:240,1,59.3749984145165,0|2,0:0|0:0,0:0:0:0:
232,244,116473,1,4,0:0:0:0:
88,128,116833,2,0,P|176:104|152:68,1,168.75000064373,2|0,0:0|0:0,0:0:0:0:
272,80,117313,6,0,L|392:80,1,118.749996829033,2|8,0:0|0:0,0:0:0:0:
272,196,117793,1,2,0:0:0:0:
156,308,118033,2,0,L|276:308,1,118.749996829033,8|2,0:0|0:0,0:0:0:0:
400,200,118513,1,8,0:0:0:0:
268,76,118753,2,0,L|148:76,1,118.749996829033,2|8,0:0|0:0,0:0:0:0:
268,200,119233,1,2,0:0:0:0:
404,304,119473,2,0,L|284:304,1,118.749996829033,8|2,0:0|0:0,0:0:0:0:
285,304,119953,1,8,0:0:0:0:
84,72,120193,2,0,L|208:72,1,125,2|12,0:0|0:0,0:0:0:0:
268,200,120673,1,0,0:0:0:0:
176,288,120913,1,0,0:0:0:0:
364,96,121153,6,0,B|440:96|464:168|400:192|368:232|304:152|320:236|292:272|356:304,1,281.250010728836,4|8,0:0|0:3,0:0:0:0:
412,248,122113,1,0,0:0:0:0:
452,120,122353,1,0,0:0:0:0:
288,48,122593,2,0,P|256:32|136:52,1,137.500004196167
412,248,123073,6,0,B|368:288|332:280|292:224|248:208|196:176|140:264,1,281.250010728836,4|0,0:0|0:0,0:0:0:0:
157,240,124033,1,0,0:0:0:0:
100,308,124273,1,0,0:0:0:0:
300,60,124513,1,0,0:0:0:0:
356,80,124593,1,0,0:0:0:0:
400,120,124673,1,0,0:0:0:0:
424,176,124753,1,0,0:0:0:0:
344,308,124993,6,0,P|284:336|176:292,1,187.500007152558,4|0,0:0|0:0,0:0:0:0:
177,293,125713,2,0,P|144:232|136:152,1,118.749996829033
256,48,126193,1,0,0:0:0:0:
412,144,126433,1,0,0:0:0:0:
135,183,126673,1,0,0:0:0:0:
412,144,126913,6,0,P|424:192|384:264,1,118.749996829033
208,304,127393,1,0,0:0:0:0:
114,130,127633,1,0,0:0:0:0:
397,253,127873,1,0,0:0:0:0:
114,130,128113,1,0,0:0:0:0:
355,308,128353,1,0,0:0:0:0:
200,320,128593,1,0,0:0:0:0:
200,320,128833,6,0,P|288:344|328:320,1,118.749996829033
412,220,129313,1,0,0:0:0:0:
252,188,129553,1,0,0:0:0:0:
412,144,129793,1,0,0:0:0:0:
100,220,130033,1,0,0:0:0:0:
100,144,130273,1,0,0:0:0:0:
256,44,130513,1,0,0:0:0:0:
256,336,130753,6,0,B|332:320|328:296|300:272|172:280|176:144|152:144|224:88|244:80,1,356.249990487099
396,100,131713,2,0,P|424:112|428:148,1,59.3749984145165
384,200,131953,1,0,0:0:0:0:
168,280,132193,1,0,0:0:0:0:
132,212,132313,1,0,0:0:0:0:
180,152,132433,1,0,0:0:0:0:
108,64,132553,1,0,0:0:0:0:
244,48,132673,6,0,P|296:48|448:152,1,237.499993658066
436,224,133393,1,0,0:0:0:0:
300,300,133633,1,0,0:0:0:0:
436,224,133873,1,0,0:0:0:0:
236,120,134113,1,0,0:0:0:0:
436,220,134353,1,0,0:0:0:0:
132,252,134593,2,0,B|68:248|76:184|128:160|172:168|208:208|208:240|196:292,1,237.499993658066
52,316,135313,2,0,P|19:283|19:255,1,59.3749984145165
40,132,135553,2,0,P|104:80|188:100,1,118.749996829033
292,84,136033,1,0,0:0:0:0:
292,84,136153,1,0,0:0:0:0:
292,84,136273,1,0,0:0:0:0:
180,308,136513,6,0,P|220:328|272:292,1,93.7500035762788,4|0,0:0|0:0,0:0:0:0:
232,156,136993,2,0,P|204:120|168:128,1,59.3749984145165
56,188,137233,1,0,0:0:0:0:
148,260,137473,1,0,0:0:0:0:
296,212,137713,1,0,0:0:0:0:
356,164,137833,1,0,0:0:0:0:
404,104,137953,1,0,0:0:0:0:
220,48,138193,1,0,0:0:0:0:
376,296,138433,1,0,0:0:0:0:
220,296,138673,5,4,0:0:0:0:
132,168,138913,1,4,0:0:0:0:
260,80,139153,1,4,0:0:0:0:
284,232,139393,1,4,0:0:0:0:
152,36,139633,1,4,0:0:0:0:
28,256,139873,1,4,0:0:0:0:
64,292,139953,1,4,3:0:0:0:
112,312,140033,1,4,3:0:0:0:
176,316,140113,1,4,0:3:0:0:
392,144,140353,6,0,P|336:84|104:72,1,299.999990844727,4|0,0:0|0:0,0:0:0:0:
24,168,141073,1,0,0:0:0:0:
352,236,141313,2,0,P|280:160|96:188,1,299.999990844727
312,124,142033,1,0,0:0:0:0:
56,308,142273,2,0,B|40:300|52:296|64:304|76:312|56:328|8:328|4:296|16:280|20:256|60:252,1,125,4|0,0:0|0:0,0:0:0:0:
164,200,142753,1,0,0:0:0:0:
312,124,142993,1,0,0:0:0:0:
260,304,143233,2,0,P|276:324|424:292,1,149.999995422363,4|0,0:0|0:0,0:0:0:0:
390,333,143713,1,0,0:0:0:0:
312,124,143953,6,0,P|248:84|192:84,1,74.9999977111817
76,152,144193,2,0,P|120:192|352:200,1,299.999990844727
452,92,144913,1,0,0:0:0:0:
368,300,145153,2,0,P|328:320|232:268,1,149.999995422363
164,112,145633,1,0,0:0:0:0:
320,196,145873,1,0,0:0:0:0:
56,308,146113,6,0,B|40:300|52:296|64:304|76:312|56:328|8:328|4:296|16:280|20:256|60:252,1,125,4|0,0:0|0:0,0:0:0:0:
168,216,146593,1,0,0:0:0:0:
44,76,146833,1,0,0:0:0:0:
352,180,147073,1,4,0:0:0:0:
352,180,147193,1,0,0:0:0:0:
352,180,147313,1,0,0:0:0:0:
288,288,147553,5,0,0:0:0:0:
288,288,147793,1,0,0:0:0:0:
112,224,148033,2,0,B|164:208|180:184|184:160|176:128|148:112|116:132|96:128|68:120|56:104|56:68|80:44|104:16|128:32|140:32,1,299.999990844727
284,48,148753,1,0,0:0:0:0:
112,224,148993,1,0,0:0:0:0:
72,272,149113,1,0,0:0:0:0:
104,324,149233,1,0,0:0:0:0:
104,324,149473,1,0,0:0:0:0:
32,132,149713,1,0,0:0:0:0:
328,296,149953,2,4,B|268:264|248:236|276:164|328:160|400:160,1,250
200,288,150673,6,0,P|124:260|128:192,1,149.999995422363
136,180,151033,1,0,0:0:0:0:
156,164,151153,1,4,0:0:0:0:
392,92,151393,5,2,0:0:0:0:
280,316,151633,1,8,0:0:0:0:
124,72,151873,2,0,P|164:188|228:120,1,224.999993133545,2|2,0:0|0:0,0:0:0:0:
392,304,152593,2,0,P|372:212|348:216,1,149.999995422363,8|2,0:0|0:0,0:0:0:0:
292,124,152953,2,0,P|240:172|240:212,1,74.9999977111817
272,296,153313,1,2,0:0:0:0:
136,120,153553,1,8,0:0:0:0:
332,60,153793,6,0,P|428:132|460:252,1,187.500007152558,4|0,0:0|0:0,0:0:0:0:
96,52,154273,2,0,P|192:124|224:244,1,187.500007152558,4|0,0:0|0:0,0:0:0:0:
332,316,154753,2,0,P|368:228|360:200,1,93.7500035762788,2|0,0:0|0:0,0:0:0:0:
368,233,154993,1,2,0:0:0:0:
184,256,155233,6,0,P|120:296|80:296,1,74.9999977111817
328,216,155473,2,0,P|368:280|368:320,1,74.9999977111817
228,120,155713,2,0,P|292:80|332:80,1,74.9999977111817
316,76,155953,6,0,P|396:120|408:196,1,149.999995422363,8|0,0:0|0:0,0:0:0:0:
352,312,156433,2,0,P|264:308|216:280,1,74.9999977111817
136,268,156673,2,0,P|160:180|188:132,1,74.9999977111817
160,176,156913,2,0,P|192:96|280:80,1,149.999995422363,8|0,0:0|0:0,0:0:0:0:
272,312,157393,5,0,0:0:0:0:
248,312,157633,1,2,0:0:0:0:
104,80,157873,1,0,0:0:0:0:
441,80,158113,1,2,0:0:0:0:
104,80,158353,1,0,0:0:0:0:
368,312,158593,2,0,P|408:284|412:248,2,62.5,2|0|4,0:0|0:0|0:0,0:0:0:0:
132,232,159313,5,8,0:0:0:0:
408,72,159553,1,2,0:0:0:0:
408,72,159673,1,0,0:0:0:0:
408,72,159793,1,0,0:0:0:0:
344,304,160033,1,2,0:0:0:0:
140,68,160273,1,8,0:0:0:0:
448,224,160513,1,2,0:0:0:0:
448,224,160633,1,0,0:0:0:0:
448,224,160753,1,0,0:0:0:0:
184,316,160993,6,0,P|108:280|136:164,1,149.999995422363,2|8,0:0|0:0,0:0:0:0:
364,48,161473,1,2,0:0:0:0:
192,112,161713,1,0,0:0:0:0:
424,212,161953,1,2,0:0:0:0:
72,156,162193,1,8,0:0:0:0:
452,332,162433,1,2,0:0:0:0:
452,332,162553,1,0,0:0:0:0:
452,332,162673,1,0,0:0:0:0:
180,112,162913,6,0,P|180:208|232:280,1,149.999995422363,2|8,0:0|0:0,0:0:0:0:
408,328,163393,2,0,P|408:232|356:160,2,149.999995422363,2|0|0,0:0|0:0|0:0,0:0:0:0:
200,80,164113,1,8,0:0:0:0:
328,320,164353,1,2,0:0:0:0:
88,84,164593,1,0,0:0:0:0:
408,320,164833,2,0,P|408:224|356:152,1,149.999995422363,2|8,0:0|0:0,0:0:0:0:
84,180,165313,5,4,0:0:0:0:
104,160,165553,1,0,0:0:0:0:
436,60,165793,1,2,0:0:0:0:
312,180,166033,1,8,0:0:0:0:
76,332,166273,2,0,P|196:296|276:216,1,187.500007152558,2|4,0:0|0:0,0:0:0:0:
152,72,166753,5,2,0:0:0:0:
344,312,166993,2,0,P|272:212|224:176,1,149.999995422363,8|0,0:0|0:0,0:0:0:0:
152,72,167473,1,4,0:0:0:0:
456,312,167713,1,2,0:0:0:0:
72,196,167953,1,8,0:0:0:0:
400,52,168193,1,2,0:0:0:0:
152,336,168433,1,0,0:0:0:0:
468,196,168673,1,2,0:0:0:0:
68,52,168913,1,8,0:0:0:0:
196,112,169153,6,0,P|280:144|352:64,1,149.999995422363,4|0,0:0|0:0,0:0:0:0:
332,120,169633,1,0,0:0:0:0:
120,304,169873,2,0,B|280:280|264:200|180:212|184:296|364:256,1,299.999990844727,8|4,0:0|0:0,0:0:0:0:
92,48,170593,2,0,L|92:160,1,74.9999977111817
160,272,170833,2,0,L|160:184,1,74.9999977111817
224,48,171073,2,0,L|220:128,1,74.9999977111817
220,148,171313,6,0,P|220:260|232:312,1,162.499992561341,4|0,0:0|0:0,0:0:0:0:
400,44,171793,1,8,0:0:0:0:
412,340,172033,2,0,P|412:228|400:176,1,162.499992561341
108,80,172513,1,0,0:0:0:0:
112,344,172753,2,0,P|112:232|124:180,2,162.499992561341,8|0|0,0:0|0:0|0:0,0:0:0:0:
256,64,173473,1,0,0:0:0:0:
432,320,173713,2,0,P|320:320|264:304,1,162.499992561341,8|0,0:0|0:0,0:0:0:0:
256,300,174073,2,0,P|176:268|136:232,1,81.2499962806703
80,64,174433,5,0,0:0:0:0:
448,72,174673,2,0,P|336:72|284:84,2,162.499992561341,8|0|0,0:0|0:0|0:0,0:0:0:0:
448,332,175393,1,0,0:0:0:0:
48,332,175633,2,0,P|160:332|212:320,2,162.499992561341,8|0|0,0:0|0:0|0:0,0:0:0:0:
96,72,176353,6,0,B|196:112|144:176|68:128|124:68|176:248,1,162.499992561341,0|8,0:0|0:0,0:0:0:0:
424,308,176833,2,0,B|360:292|376:220|440:240|420:308|372:172,1,125,4|0,0:0|0:0,0:0:0:0:
200,80,177313,1,0,0:0:0:0:
328,284,177553,1,8,0:0:0:0:
144,184,177793,2,0,L|64:228,2,81.2499962806703,0|0|4,0:0|0:0|0:0,0:0:0:0:
320,80,178273,6,0,P|392:152|448:172,1,162.499992561341,0|8,0:0|0:0,0:0:0:0:
192,144,178753,1,0,0:0:0:0:
380,328,178993,2,0,P|308:256|252:236,2,162.499992561341
116,72,179713,1,2,0:0:0:0:
116,72,180193,1,2,0:0:0:0:
116,72,180673,1,0,0:0:0:0:
436,132,181153,5,0,0:0:0:0:
148,316,181393,1,0,0:0:0:0:
280,40,181633,2,0,B|300:212|300:212|332:208|348:220|376:264|364:288|460:244,1,324.999985122681
272,228,182353,1,0,0:0:0:0:
436,260,182593,1,0,0:0:0:0:
80,200,182833,6,0,B|128:120|128:120|168:228,1,162.499992561341
220,332,183313,1,0,0:0:0:0:
292,112,183553,2,0,B|328:24|328:24|380:140,1,162.499992561341,4|0,0:0|0:0,0:0:0:0:
408,328,184033,1,0,0:0:0:0:
500,196,184273,1,4,0:0:0:0:
256,192,184393,12,0,187153,0:0:0:0:
256,80,187393,6,0,P|304:92|352:200,1,118.749996829033
156,244,187873,1,0,0:0:0:0:
108,168,188113,1,0,0:0:0:0:
404,304,188353,2,0,B|420:316|440:304|420:260|400:252|360:244|328:296,1,118.749996829033
