osu file format v12

[General]
AudioFilename: Outer Science.mp3
AudioLeadIn: 0
PreviewTime: 60343
Countdown: 0
SampleSet: Normal
StackLeniency: 0.8
Mode: 0
LetterboxInBreaks: 0
WidescreenStoryboard: 0

[Editor]
DistanceSpacing: 1.5
BeatDivisor: 4
GridSize: 4
TimelineZoom: 1

[Metadata]
Title:Outer Science
TitleUnicode:アウターサイエンス
Artist:Jin
ArtistUnicode:じん
Creator:tutuhaha
Version:Insane
Source:
Tags:Vocaloid IA Shizen no Teki P
BeatmapID:313025
BeatmapSetID:122376

[Difficulty]
HPDrainRate:7
CircleSize:4
OverallDifficulty:8
ApproachRate:9
SliderMultiplier:2
SliderTickRate:1

[Events]
//Background and Video events
0,0,"d24c8d2980adaabc65fbf15ff4b9ae41_2013101312263.jpg",0,0
Video,-125,"IA - Outer Science.flv"
//Break Periods
2,80390,86974
2,160497,168051
//Storyboard Layer 0 (Background)
//Storyboard Layer 1 (Fail)
//Storyboard Layer 2 (Pass)
//Storyboard Layer 3 (Foreground)
//Storyboard Sound Samples
//Background Colour Transformations
3,100,163,162,255

[TimingPoints]
190,307.692307692308,4,1,1,70,1,0
10036,-100,4,1,2,50,0,0
10651,-100,4,1,1,50,0,0
11266,-100,4,1,1,70,0,0
21113,-83.3333333333333,4,1,1,70,0,0
25420,-100,4,1,1,30,0,0
25728,-100,4,1,1,70,0,0
26036,-83.3333333333333,4,1,1,70,0,0
30497,-100,4,1,1,30,0,0
30959,-133.333333333333,4,1,2,50,0,0
40036,-100,4,1,1,50,0,0
40343,-100,4,1,0,40,0,0
40805,-133.333333333333,4,1,2,50,0,0
50190,-133.333333333333,4,1,0,40,0,0
53113,-133.333333333333,4,2,1,40,0,0
53190,-133.333333333333,4,2,1,50,0,0
55574,-133.333333333333,4,2,1,30,0,0
55651,-133.333333333333,4,1,1,50,0,0
60190,-133.333333333333,4,1,1,30,0,0
60497,-100,4,1,1,70,0,1
80190,-100,4,1,1,50,0,0
90036,-133.333333333333,4,1,2,50,0,0
98651,-100,4,1,2,50,0,0
99420,-100,4,1,0,40,0,0
99882,-133.333333333333,4,1,2,50,0,0
109266,-133.333333333333,4,1,0,40,0,0
109728,-133.333333333333,4,1,1,50,0,0
119266,-133.333333333333,4,1,1,30,0,0
119574,-100,4,1,1,70,0,1
139266,-100,4,2,1,30,0,0
139343,-100,4,1,2,30,0,0
141728,-100,4,2,1,30,0,0
143574,-200,4,1,2,30,0,0
144190,-200,4,2,1,30,0,0
146036,-100,4,1,2,30,0,0
146651,-100,4,2,1,30,0,0
147728,-100,4,2,1,50,0,0
148805,-100,4,1,2,70,0,0
153420,-200,4,1,1,70,0,0
154036,-100,4,1,2,70,0,0
159113,-100,4,1,2,40,0,0
160190,-100,4,2,2,70,0,0
168651,-100,4,2,1,70,0,0
170036,-100,4,1,1,70,0,1
191113,-100,4,1,1,40,0,0
191882,-100,4,1,1,50,0,0
192190,-100,4,1,1,70,0,0

[Colours]
Combo1 : 255,192,0
Combo2 : 0,0,160
Combo3 : 221,0,0
Combo4 : 208,55,189

[HitObjects]
256,192,10036,5,8,0:0:0:0:
256,192,10343,1,8,0:0:0:0:
252,280,10651,2,0,L|132:280,1,100,0|2,0:0|0:0,0:0:0:0:
260,104,10959,2,0,B|352:104|352:104|372:84|360:32,1,150
241,37,11266,6,0,P|200:64|192:112,1,100
136,232,11574,1,2,0:0:0:0:
0,88,11728,2,0,B|80:88|80:88|112:112|112:112|192:112,1,200,0|0,0:0|0:0,0:0:0:0:
244,300,12190,1,2,0:0:0:0:
396,164,12343,6,0,B|316:164|316:164|284:188|284:188|192:188,1,200,0|0,0:0|0:0,0:0:0:0:
392,264,12805,2,0,B|424:264|424:264|456:248|456:248|492:248,1,100,2|0,0:0|0:0,0:0:0:0:
360,56,13113,2,0,B|328:56|328:56|296:72|296:72|260:72,1,100
164,168,13420,2,0,P|184:140|92:88,1,150,2|0,0:0|0:0,0:0:0:0:
164,168,13728,6,0,L|208:264,1,100
344,316,14036,1,2,0:0:0:0:
120,288,14190,2,0,B|80:208|80:208|84:172|84:172|48:96,1,200,0|0,0:0|0:0,0:0:0:0:
232,24,14651,1,2,0:0:0:0:
244,192,14805,6,0,B|275:259|275:259|271:295|271:295|311:375,1,200
344,156,15266,2,0,L|288:60,1,100,2|0,0:0|0:0,0:0:0:0:
168,156,15574,2,0,L|224:60,1,100
156,28,15805,1,0,0:0:0:0:
156,28,15882,2,0,P|112:68|48:20,1,150,2|2,0:0|0:0,0:0:0:0:
232,24,16190,6,0,L|340:24,1,100,0|0,0:0|0:0,0:0:0:0:
416,124,16497,1,2,0:0:0:0:
208,104,16651,2,0,B|140:104|140:104|104:80|104:80|4:80,1,200
120,224,17113,1,2,0:0:0:0:
284,148,17266,6,0,B|352:148|352:148|388:124|388:124|488:124,1,200
448,252,17728,1,2,0:0:0:0:
344,328,17882,2,0,P|320:284|340:228,1,100
168,56,18190,2,0,P|192:100|172:156,1,100,0|2,0:0|0:0,0:0:0:0:
32,288,18497,5,0,0:0:0:0:
32,288,18574,1,0,0:0:0:0:
32,288,18651,2,0,B|92:288|92:288|128:256,1,100
91,119,18959,2,0,B|151:119|151:119|187:151,1,100,2|0,0:0|0:0,0:0:0:0:
256,288,19266,2,0,B|316:288|316:288|352:256,1,100
315,119,19574,2,0,B|375:119|375:119|411:151,1,100,2|0,0:0|0:0,0:0:0:0:
405,329,19882,6,0,P|362:307|346:260,1,100
106,54,20190,2,0,P|149:76|165:123,1,100,2|0,0:0|0:0,0:0:0:0:
256,352,20497,2,0,P|252:312|260:240,1,100
256,172,20728,1,0,0:0:0:0:
256,172,20805,2,0,P|260:132|252:60,1,100,2|0,0:0|0:0,0:0:0:0:
144,152,21113,6,0,L|200:264,1,119.999996337891,0|2,0:0|0:0,0:0:0:0:
368,152,21420,2,0,L|312:264,1,119.999996337891,8|0,0:0|0:0,0:0:0:0:
32,236,21728,2,0,L|136:320,1,119.999996337891,0|2,0:0|0:0,0:0:0:0:
480,236,22036,2,0,L|376:320,1,119.999996337891,8|0,0:0|0:0,0:0:0:0:
144,196,22343,6,0,L|200:84,1,119.999996337891,0|2,0:0|0:0,0:0:0:0:
368,196,22651,2,0,L|312:84,1,119.999996337891,8|0,0:0|0:0,0:0:0:0:
32,112,22959,2,0,L|136:28,1,119.999996337891,0|2,0:0|0:0,0:0:0:0:
480,112,23266,2,0,L|376:28,1,119.999996337891,8|0,0:0|0:0,0:0:0:0:
144,152,23574,6,0,L|200:264,1,119.999996337891,0|2,0:0|0:0,0:0:0:0:
368,152,23882,2,0,L|312:264,1,119.999996337891,8|0,0:0|0:0,0:0:0:0:
32,236,24190,2,0,L|136:320,1,119.999996337891,0|2,0:0|0:0,0:0:0:0:
480,236,24497,2,0,L|376:320,1,119.999996337891,8|0,0:0|0:0,0:0:0:0:
256,52,24805,5,0,0:0:0:0:
240,132,24959,1,0,0:0:0:0:
256,212,25113,1,0,0:0:0:0:
244,292,25266,1,0,0:0:0:0:
256,372,25420,6,0,L|292:356,7,25,0|0|0|0|0|0|0|0,0:0|0:0|0:0|0:0|0:0|0:0|0:0|0:0,0:0:0:0:
256,372,25728,2,0,P|208:364|164:276,1,150
180,200,26036,6,0,B|188:160|128:140|168:76,1,119.999996337891,0|2,0:0|0:0,0:0:0:0:
332,200,26343,2,0,B|324:160|384:140|344:76,1,119.999996337891,8|0,0:0|0:0,0:0:0:0:
112,236,26651,2,0,B|98:197|36:210|39:134,1,119.999996337891,0|2,0:0|0:0,0:0:0:0:
400,236,26959,2,0,B|413:197|475:210|472:134,1,119.999996337891,8|0,0:0|0:0,0:0:0:0:
180,108,27266,6,0,B|188:148|128:168|168:232,1,119.999996337891,0|2,0:0|0:0,0:0:0:0:
332,108,27574,2,0,B|324:148|384:168|344:232,1,119.999996337891,8|0,0:0|0:0,0:0:0:0:
112,72,27882,2,0,B|98:111|36:98|39:174,1,119.999996337891,0|2,0:0|0:0,0:0:0:0:
400,72,28190,2,0,B|413:111|475:98|472:174,1,119.999996337891,8|0,0:0|0:0,0:0:0:0:
180,200,28497,6,0,B|188:160|128:140|168:76,1,119.999996337891,0|2,0:0|0:0,0:0:0:0:
332,200,28805,2,0,B|324:160|384:140|344:76,1,119.999996337891,8|0,0:0|0:0,0:0:0:0:
112,236,29113,2,0,B|98:197|36:210|39:134,1,119.999996337891,0|2,0:0|0:0,0:0:0:0:
400,236,29420,2,0,B|413:197|475:210|472:134,1,119.999996337891,8|0,0:0|0:0,0:0:0:0:
244,292,29728,5,0,0:0:0:0:
256,212,29882,1,0,0:0:0:0:
240,132,30036,1,0,0:0:0:0:
256,52,30190,1,0,0:0:0:0:
256,368,30497,6,0,L|292:352,4,25
60,44,30959,6,0,L|60:124,1,75.0000028610231,0|0,0:0|0:0,0:0:0:0:
64,200,31266,1,8,0:0:0:0:
88,280,31420,1,8,0:0:0:0:
168,304,31574,2,0,P|216:288|236:264,1,75.0000028610231,0|0,0:0|0:0,0:0:0:0:
292,160,31882,2,0,P|244:176|224:200,1,75.0000028610231,8|8,0:0|0:0,0:0:0:0:
352,212,32190,5,0,0:0:0:0:
368,132,32343,1,0,0:0:0:0:
308,76,32497,1,8,0:0:0:0:
224,72,32651,2,0,L|144:32,1,75.0000028610231,8|0,0:0|0:0,0:0:0:0:
204,152,32959,2,0,L|271:185,1,75.0000028610231,0|8,0:0|0:0,0:0:0:0:
288,268,33266,1,8,0:0:0:0:
140,192,33420,6,0,P|128:148|140:112,1,75.0000028610231,0|0,0:0|0:0,0:0:0:0:
180,48,33728,1,8,0:0:0:0:
256,20,33882,1,8,0:0:0:0:
336,32,34036,2,0,L|420:56,1,75.0000028610231,0|0,0:0|0:0,0:0:0:0:
296,104,34343,2,0,L|216:120,1,75.0000028610231,8|8,0:0|0:0,0:0:0:0:
332,240,34651,5,0,0:0:0:0:
356,160,34805,1,0,0:0:0:0:
276,176,34959,1,8,0:0:0:0:
292,304,35113,2,0,P|332:316|372:300,1,75.0000028610231,8|0,0:0|0:0,0:0:0:0:
464,172,35420,1,0,0:0:0:0:
464,172,35497,1,0,0:0:0:0:
464,172,35574,2,0,P|428:180|436:267,1,112.500004291535,8|0,0:0|0:0,0:0:0:0:
433,368,35882,6,0,L|464:300,1,75.0000028610231,8|8,0:0|0:0,0:0:0:0:
364,128,36190,2,0,L|333:196,1,75.0000028610231,8|8,0:0|0:0,0:0:0:0:
136,272,36497,1,8,0:0:0:0:
216,272,36651,1,8,0:0:0:0:
296,272,36805,1,8,0:0:0:0:
376,272,36959,1,8,0:0:0:0:
240,192,37113,6,0,P|212:166|195:133,1,75.0000028610231,8|8,0:0|0:0,0:0:0:0:
328,24,37420,2,0,P|360:56|376:104,1,75.0000028610231,8|8,0:0|0:0,0:0:0:0:
240,192,37728,1,8,0:0:0:0:
160,192,37882,1,8,0:0:0:0:
80,192,38036,1,8,0:0:0:0:
0,192,38190,1,8,0:0:0:0:
256,56,38343,5,10,0:0:0:0:
336,120,38497,1,8,0:0:0:0:
400,272,38651,1,10,0:0:0:0:
320,208,38805,1,8,0:0:0:0:
320,64,38959,5,10,0:0:0:0:
357,159,39113,1,8,0:0:0:0:
336,323,39266,1,10,0:0:0:0:
299,227,39420,1,8,0:0:0:0:
384,80,39574,5,0,0:0:0:0:
256,160,39728,1,2,0:0:0:0:
256,16,39882,1,0,0:0:0:0:
224,224,40036,2,0,P|184:168|264:88,1,200,0|8,0:0|0:0,0:0:0:0:
328,176,40497,1,8,0:0:0:0:
192,292,40651,1,8,0:0:0:0:
400,168,40805,6,0,P|392:216|360:240,1,75.0000028610231
272,304,41113,2,0,L|352:304,1,75.0000028610231,8|8,0:0|0:0,0:0:0:0:
168,216,41420,1,0,0:0:0:0:
248,232,41574,1,0,0:0:0:0:
112,272,41728,1,8,0:0:0:0:
96,192,41882,1,8,0:0:0:0:
192,292,42036,6,0,P|176:332|144:348,1,75.0000028610231
96,192,42343,1,8,0:0:0:0:
36,272,42497,2,0,L|112:272,1,75.0000028610231,8|0,0:0|0:0,0:0:0:0:
192,112,42805,2,0,L|104:112,2,75.0000028610231,0|8|8,0:0|0:0|0:0,0:0:0:0:
192,292,43266,5,0,0:0:0:0:
256,336,43420,1,0,0:0:0:0:
172,208,43574,1,8,0:0:0:0:
96,192,43728,1,8,0:0:0:0:
160,40,43882,2,0,P|204:32|240:52,1,75.0000028610231
232,184,44190,2,0,P|188:192|152:172,1,75.0000028610231,8|8,0:0|0:0,0:0:0:0:
40,36,44497,5,0,0:0:0:0:
84,108,44651,1,0,0:0:0:0:
56,184,44805,1,8,0:0:0:0:
48,268,44959,1,8,0:0:0:0:
88,340,45113,1,0,0:0:0:0:
104,348,45190,1,0,0:0:0:0:
120,356,45266,1,0,0:0:0:0:
152,280,45420,2,0,P|148:224|196:184,1,112.500004291535,8|0,0:0|0:0,0:0:0:0:
288,272,45728,6,0,L|217:251,1,75.0000028610231
180,120,46036,2,0,L|108:98,1,75.0000028610231,8|8,0:0|0:0,0:0:0:0:
120,356,46343,1,0,0:0:0:0:
152,280,46497,1,0,0:0:0:0:
224,196,46651,1,8,0:0:0:0:
140,200,46805,1,8,0:0:0:0:
176,40,46959,6,0,P|224:48|248:80,2,75.0000028610231,0|0|8,0:0|0:0|0:0,0:0:0:0:
96,132,47420,1,8,0:0:0:0:
96,132,47497,1,0,0:0:0:0:
96,132,47574,2,0,P|64:168|60:196,1,75.0000028610231,0|0,0:0|0:0,0:0:0:0:
120,356,47882,2,0,L|120:264,1,75.0000028610231,8|8,0:0|0:0,0:0:0:0:
336,312,48190,5,0,0:0:0:0:
264,272,48343,1,0,0:0:0:0:
192,232,48497,1,8,0:0:0:0:
332,224,48651,1,8,0:0:0:0:
332,224,48728,1,0,0:0:0:0:
332,224,48805,2,0,L|252:184,1,75.0000028610231
248,52,49113,2,0,L|168:12,1,75.0000028610231,8|8,0:0|0:0,0:0:0:0:
40,152,49420,6,0,P|84:148|120:108,1,75.0000028610231
188,116,49728,1,8,0:0:0:0:
144,316,49882,2,0,P|180:272|160:188,1,150.000005722046,8|8,0:0|0:0,0:0:0:0:
344,120,50343,1,8,0:0:0:0:
256,308,50497,1,8,0:0:0:0:
256,192,50651,5,4,0:0:0:0:
256,192,53113,5,4,0:0:0:0:
280,300,54343,6,0,L|360:300,1,75.0000028610231,2|0,0:0|0:0,0:0:0:0:
232,84,54651,2,0,L|152:84,1,75.0000028610231,2|0,0:0|0:0,0:0:0:0:
144,296,54959,1,2,0:0:0:0:
196,224,55113,1,0,0:0:0:0:
108,216,55266,1,2,0:0:0:0:
312,228,55420,2,0,P|320:188|304:148,1,75.0000028610231,0|4,0:0|0:0,0:0:0:0:
104,68,58190,6,0,L|112:156,1,75.0000028610231,0|8,0:0|0:0,0:0:0:0:
408,316,58651,2,0,L|400:228,1,75.0000028610231,0|8,0:0|0:0,0:0:0:0:
32,292,59113,2,0,L|120:276,1,75.0000028610231,0|8,0:0|0:0,0:0:0:0:
480,92,59574,2,0,L|392:108,1,75.0000028610231,8|0,0:0|0:0,0:0:0:0:
288,48,59882,5,0,0:0:0:0:
248,120,60036,1,0,0:0:0:0:
248,208,60190,2,0,L|220:224,4,18.7500007152558
380,287,60497,6,0,P|382:238|352:200,1,100,6|0,0:0|0:0,0:0:0:0:
220,32,60805,2,0,P|218:81|248:119,1,100,8|0,0:0|0:0,0:0:0:0:
232,284,61113,2,0,P|184:252|172:204,1,100,2|0,0:0|0:0,0:0:0:0:
176,188,61343,1,0,0:0:0:0:
188,164,61420,1,8,0:0:0:0:
320,200,61574,6,0,L|436:200,1,100,0|2,0:0|0:0,0:0:0:0:
220,32,61882,2,0,L|108:32,1,100,0|8,0:0|0:0,0:0:0:0:
36,204,62190,1,0,0:0:0:0:
32,68,62343,1,2,0:0:0:0:
64,68,62420,1,0,0:0:0:0:
96,68,62497,2,0,L|200:68,1,100,0|8,0:0|0:0,0:0:0:0:
316,68,62805,1,0,0:0:0:0:
276,260,62959,6,0,P|364:244|376:160,1,150,2|0,0:0|0:0,0:0:0:0:
240,196,63266,2,0,P|208:232|208:288,2,100,8|0|2,0:0|0:0|0:0,0:0:0:0:
144,124,63728,2,0,L|144:8,1,100,0|8,0:0|0:0,0:0:0:0:
384,84,64036,6,0,L|384:184,1,100,0|2,0:0|0:0,0:0:0:0:
112,304,64343,2,0,L|112:200,1,100,0|8,0:0|0:0,0:0:0:0:
36,108,64651,1,0,0:0:0:0:
188,208,64805,2,0,L|188:316,1,100,2|0,0:0|0:0,0:0:0:0:
252,348,65036,1,0,0:0:0:0:
252,348,65113,2,0,P|272:304|340:296,1,100,8|0,0:0|0:0,0:0:0:0:
468,124,65420,5,2,0:0:0:0:
368,140,65574,1,0,0:0:0:0:
400,236,65728,1,8,0:0:0:0:
500,220,65882,1,0,0:0:0:0:
316,216,66036,2,0,P|288:228|252:296,1,100,2|0,0:0|0:0,0:0:0:0:
180,308,66266,1,0,0:0:0:0:
180,308,66343,2,0,P|124:332|68:316,1,100,8|0,0:0|0:0,0:0:0:0:
52,152,66651,5,2,0:0:0:0:
120,224,66805,1,0,0:0:0:0:
20,244,66959,1,8,0:0:0:0:
40,64,67113,2,0,P|96:72|132:112,2,100,0|2|0,0:0|0:0|0:0,0:0:0:0:
288,168,67574,2,0,L|172:168,1,100,8|0,0:0|0:0,0:0:0:0:
344,76,67882,6,0,P|400:96|464:24,1,150,2|0,0:0|0:0,0:0:0:0:
344,76,68190,2,0,P|348:132|392:168,1,100,8|0,0:0|0:0,0:0:0:0:
392,272,68497,1,2,0:0:0:0:
312,348,68651,1,0,0:0:0:0:
288,240,68805,1,8,0:0:0:0:
480,200,68959,6,0,B|460:232|476:288|476:288|460:344|396:360,1,200,2|0,0:0|0:0,0:0:0:0:
224,312,69420,1,8,0:0:0:0:
224,312,69574,1,8,0:0:0:0:
48,216,69728,2,0,L|164:216,1,100,2|0,0:0|0:0,0:0:0:0:
188,152,69959,1,0,0:0:0:0:
188,152,70036,2,0,L|304:152,1,100,8|8,0:0|0:0,0:0:0:0:
340,96,70266,5,0,0:0:0:0:
340,96,70343,2,0,P|400:96|444:16,1,150,6|0,0:0|0:0,0:0:0:0:
308,24,70651,2,0,L|180:24,1,100,8|0,0:0|0:0,0:0:0:0:
48,216,70959,2,0,L|168:216,1,100,2|0,0:0|0:0,0:0:0:0:
268,304,71266,1,8,0:0:0:0:
120,132,71420,6,0,P|100:72|120:32,1,100,0|2,0:0|0:0,0:0:0:0:
256,228,71728,2,0,P|276:168|256:128,1,100,0|8,0:0|0:0,0:0:0:0:
380,44,72036,1,0,0:0:0:0:
200,180,72190,2,0,L|144:272,1,100,2|0,0:0|0:0,0:0:0:0:
104,328,72420,1,0,0:0:0:0:
104,328,72497,2,0,P|72:280|112:192,1,150,8|0,0:0|0:0,0:0:0:0:
184,328,72805,6,0,L|304:328,2,100,2|0|8,0:0|0:0|0:0,0:0:0:0:
200,180,73266,1,0,0:0:0:0:
348,248,73420,2,0,L|232:248,2,100,2|0|8,0:0|0:0|0:0,0:0:0:0:
348,96,73882,6,0,L|460:96,1,100,0|2,0:0|0:0,0:0:0:0:
320,288,74190,2,0,L|208:288,1,100,0|8,0:0|0:0,0:0:0:0:
324,52,74497,2,0,L|432:52,1,100,0|2,0:0|0:0,0:0:0:0:
272,168,74805,1,0,0:0:0:0:
272,168,74882,1,0,0:0:0:0:
272,168,74959,2,0,P|232:128|224:80,1,100,8|0,0:0|0:0,0:0:0:0:
32,48,75266,5,2,0:0:0:0:
124,104,75420,1,0,0:0:0:0:
180,200,75574,1,8,0:0:0:0:
204,308,75728,1,0,0:0:0:0:
72,248,75882,2,0,P|56:196|80:148,1,100,2|0,0:0|0:0,0:0:0:0:
124,104,76113,1,0,0:0:0:0:
124,104,76190,2,0,L|240:104,1,100,8|0,0:0|0:0,0:0:0:0:
304,332,76497,5,2,0:0:0:0:
385,257,76651,1,0,0:0:0:0:
440,160,76805,1,8,0:0:0:0:
443,53,76959,1,0,0:0:0:0:
272,136,77113,2,0,P|292:192|336:212,1,100,2|0,0:0|0:0,0:0:0:0:
385,257,77343,1,0,0:0:0:0:
385,257,77420,2,0,L|384:368,1,100,8|0,0:0|0:0,0:0:0:0:
76,256,77728,6,0,B|119:256|119:256|139:260|139:260|175:260,1,100,2|0,0:0|0:0,0:0:0:0:
287,260,78036,1,8,0:0:0:0:
99,156,78190,6,0,B|141:167|141:167|159:176|159:176|194:185,1,100,2|0,0:0|0:0,0:0:0:0:
301,214,78498,1,8,0:0:0:0:
156,68,78651,5,2,0:0:0:0:
327,168,78805,1,0,0:0:0:0:
244,24,78959,1,8,0:0:0:0:
80,72,79113,6,0,L|188:72,1,100,2|0,0:0|0:0,0:0:0:0:
316,284,79420,2,0,L|216:284,1,100,8|0,0:0|0:0,0:0:0:0:
28,164,79728,1,2,0:0:0:0:
144,312,79882,1,8,0:0:0:0:
136,272,79959,1,0,0:0:0:0:
148,236,80036,1,0,0:0:0:0:
180,212,80113,1,0,0:0:0:0:
220,204,80190,5,4,0:0:0:0:
256,192,87574,12,0,89728,0:0:0:0:
456,60,90036,6,0,L|456:140,1,75.0000028610231,0|0,0:0|0:0,0:0:0:0:
456,216,90343,1,8,0:0:0:0:
456,216,90497,1,8,0:0:0:0:
376,108,90651,2,0,P|372:64|336:32,1,75.0000028610231
158,41,90959,2,0,P|137:71|136:108,1,75.0000028610231,8|0,0:0|0:0,0:0:0:0:
56,216,91266,5,0,0:0:0:0:
56,216,91420,1,0,0:0:0:0:
56,135,91574,2,0,L|56:60,1,75.0000028610231,8|8,0:0|0:0,0:0:0:0:
132,184,91882,2,0,L|132:272,1,75.0000028610231
60,300,92190,1,8,0:0:0:0:
208,232,92343,1,8,0:0:0:0:
136,340,92497,6,0,P|180:344|220:328,1,75.0000028610231,0|0,0:0|0:0,0:0:0:0:
344,280,92805,2,0,P|300:276|260:292,2,75.0000028610231,0|8|0,0:0|0:0|0:0,0:0:0:0:
424,304,93266,1,0,0:0:0:0:
284,200,93420,2,0,P|264:168|216:148,1,75.0000028610231,0|8,0:0|0:0,0:0:0:0:
376,24,93728,5,0,0:0:0:0:
320,84,93882,1,0,0:0:0:0:
164,96,94036,1,8,0:0:0:0:
240,68,94190,1,8,0:0:0:0:
140,176,94343,2,0,P|104:160|80:108,1,75.0000028610231
64,96,94574,1,0,0:0:0:0:
48,56,94651,2,0,P|32:136|32:140,1,75.0000028610231,8|8,0:0|0:0,0:0:0:0:
40,304,94959,5,8,0:0:0:0:
124,304,95113,1,8,0:0:0:0:
208,304,95266,1,8,0:0:0:0:
292,304,95420,1,8,0:0:0:0:
468,192,95574,1,8,0:0:0:0:
384,192,95728,1,8,0:0:0:0:
300,192,95882,1,8,0:0:0:0:
216,192,96036,1,8,0:0:0:0:
376,304,96190,6,0,L|468:304,2,75.0000028610231,8|8|8,0:0|0:0|0:0,0:0:0:0:
224,96,96651,2,0,L|136:96,2,75.0000028610231,8|8|8,0:0|0:0|0:0,0:0:0:0:
381,120,97113,2,0,P|392:155|384:192,1,75.0000028610231,8|8,0:0|0:0,0:0:0:0:
256,328,97420,5,10,0:0:0:0:
176,264,97574,1,8,0:0:0:0:
112,112,97728,1,10,0:0:0:0:
192,176,97882,1,8,0:0:0:0:
192,320,98036,5,10,0:0:0:0:
155,225,98190,1,8,0:0:0:0:
176,61,98343,1,10,0:0:0:0:
213,157,98497,1,8,0:0:0:0:
64,176,98651,6,0,P|36:140|36:76,1,100,0|2,0:0|0:0,0:0:0:0:
176,61,98959,1,0,0:0:0:0:
80,256,99113,2,0,P|124:296|236:232,1,200,0|8,0:0|0:0,0:0:0:0:
272,88,99574,1,8,0:0:0:0:
155,225,99728,1,8,0:0:0:0:
284,324,99882,6,8,L|380:344,1,75.0000028610231
436,312,100190,1,8,0:0:0:0:
404,236,100343,1,8,0:0:0:0:
340,128,100497,1,0,0:0:0:0:
320,208,100651,1,0,0:0:0:0:
420,136,100805,1,8,0:0:0:0:
388,60,100959,1,8,0:0:0:0:
260,148,101113,6,0,P|236:188|240:232,2,75.0000028610231,0|0|8,0:0|0:0|0:0,0:0:0:0:
256,296,101574,1,8,0:0:0:0:
256,296,101651,1,0,0:0:0:0:
256,296,101728,2,0,P|224:328|188:336,1,75.0000028610231
36,244,102036,2,0,P|68:212|104:204,1,75.0000028610231,8|8,0:0|0:0,0:0:0:0:
235,215,102343,5,0,0:0:0:0:
168,164,102497,1,0,0:0:0:0:
140,44,102651,1,8,0:0:0:0:
212,88,102805,1,0,0:0:0:0:
92,116,102959,1,8,0:0:0:0:
60,40,103113,1,8,0:0:0:0:
272,32,103266,2,0,P|292:84|284:116,1,75.0000028610231,8|8,0:0|0:0,0:0:0:0:
144,244,103574,5,0,0:0:0:0:
168,164,103728,1,0,0:0:0:0:
248,176,103882,1,8,0:0:0:0:
228,256,104036,2,0,P|216:296|176:320,1,75.0000028610231,8|0,0:0|0:0,0:0:0:0:
92,184,104343,1,0,0:0:0:0:
92,184,104420,1,0,0:0:0:0:
92,184,104497,2,0,P|68:152|60:112,1,75.0000028610231,8|8,0:0|0:0,0:0:0:0:
88,48,104728,5,0,0:0:0:0:
88,48,104805,2,0,L|188:48,1,75.0000028610231
323,176,105113,2,0,L|248:176,1,75.0000028610231,8|8,0:0|0:0,0:0:0:0:
428,24,105420,1,0,0:0:0:0:
384,92,105574,1,0,0:0:0:0:
388,252,105728,1,8,0:0:0:0:
412,172,105882,1,8,0:0:0:0:
304,264,106036,6,0,P|280:292|276:344,2,75.0000028610231,0|0|8,0:0|0:0|0:0,0:0:0:0:
196,360,106497,1,8,0:0:0:0:
196,360,106574,1,0,0:0:0:0:
196,360,106651,2,0,P|156:352|128:308,1,75.0000028610231
88,268,106882,1,0,0:0:0:0:
88,268,106959,2,0,P|76:224|88:176,1,75.0000028610231,8|8,0:0|0:0,0:0:0:0:
280,44,107266,6,0,P|292:88|280:136,1,75.0000028610231
284,136,107497,1,0,0:0:0:0:
276,152,107574,2,0,P|244:180|200:184,1,75.0000028610231,8|8,0:0|0:0,0:0:0:0:
68,36,107882,2,0,P|112:24|160:36,1,75.0000028610231
160,32,108113,1,0,0:0:0:0:
176,40,108190,2,0,P|204:72|208:116,1,75.0000028610231,8|8,0:0|0:0,0:0:0:0:
136,300,108497,5,0,0:0:0:0:
212,264,108651,1,0,0:0:0:0:
144,216,108805,1,8,0:0:0:0:
204,348,108959,2,0,P|256:352|328:276,1,150.000005722046,8|8,0:0|0:0,0:0:0:0:
256,60,109420,1,8,0:0:0:0:
380,220,109574,1,8,0:0:0:0:
256,192,109728,6,0,B|204:136|120:140,1,150.000005722046
48,348,110343,1,0,0:0:0:0:
100,284,110497,2,0,L|184:284,1,75.0000028610231
260,280,110805,1,0,0:0:0:0:
344,112,110959,5,0,0:0:0:0:
304,196,111113,2,0,L|216:196,1,75.0000028610231
200,80,111420,1,0,0:0:0:0:
200,80,111574,2,0,P|184:128|148:148,1,75.0000028610231
36,224,111882,2,0,L|128:224,1,75.0000028610231
68,20,112190,6,0,P|48:72|88:152,1,150.000005722046
208,232,112651,2,0,L|180:272,2,37.5000014305115
256,164,112959,1,0,0:0:0:0:
324,116,113113,1,0,0:0:0:0:
404,100,113266,1,0,0:0:0:0:
416,180,113420,6,0,P|404:220|376:252,1,75.0000028610231
260,356,113728,1,0,0:0:0:0:
300,284,113882,1,0,0:0:0:0:
220,140,114036,2,0,P|256:120|299:117,1,75.0000028610231
454,126,114343,1,0,0:0:0:0:
375,149,114497,1,0,0:0:0:0:
168,216,114651,6,0,P|132:156|152:68,1,150.000005722046
400,32,115266,1,0,0:0:0:0:
332,76,115420,2,0,L|248:76,2,75.0000028610231
221,240,115882,6,0,L|296:240,2,75.0000028610231
172,308,116343,2,0,P|116:284|28:316,1,150.000005722046
16,228,116805,2,0,L|12:176,2,37.5000014305115
408,316,117266,6,0,L|400:228,1,75.0000028610231,0|8,0:0|0:0,0:0:0:0:
104,68,117728,2,0,L|112:156,1,75.0000028610231,0|8,0:0|0:0,0:0:0:0:
480,92,118190,2,0,L|392:108,1,75.0000028610231,0|8,0:0|0:0,0:0:0:0:
32,292,118651,2,0,L|120:276,1,75.0000028610231,8|0,0:0|0:0,0:0:0:0:
224,336,118959,5,0,0:0:0:0:
264,264,119113,1,0,0:0:0:0:
264,176,119266,2,0,L|292:160,4,18.7500007152558
132,97,119574,6,0,P|130:146|160:184,1,100,6|0,0:0|0:0,0:0:0:0:
292,352,119882,2,0,P|294:303|264:265,1,100,8|0,0:0|0:0,0:0:0:0:
236,76,120190,1,2,0:0:0:0:
260,84,120266,1,0,0:0:0:0:
280,100,120343,2,0,P|322:124|340:170,1,100,0|8,0:0|0:0,0:0:0:0:
92,184,120651,6,0,L|192:184,1,100,0|2,0:0|0:0,0:0:0:0:
392,352,120959,2,0,L|292:352,1,100,0|8,0:0|0:0,0:0:0:0:
476,180,121266,1,0,0:0:0:0:
480,316,121420,1,2,0:0:0:0:
448,316,121497,1,0,0:0:0:0:
416,316,121574,2,0,L|312:316,1,100,0|8,0:0|0:0,0:0:0:0:
196,316,121882,1,0,0:0:0:0:
236,124,122036,6,0,P|148:140|136:224,1,150,2|0,0:0|0:0,0:0:0:0:
272,188,122343,2,0,P|304:152|304:96,2,100,8|0|2,0:0|0:0|0:0,0:0:0:0:
368,260,122805,2,0,L|368:376,1,100,0|8,0:0|0:0,0:0:0:0:
128,200,123113,6,0,L|128:300,1,100,0|2,0:0|0:0,0:0:0:0:
400,180,123420,2,0,L|400:80,1,100,0|8,0:0|0:0,0:0:0:0:
476,276,123728,1,0,0:0:0:0:
324,176,123882,2,0,L|324:68,1,100,2|0,0:0|0:0,0:0:0:0:
260,36,124113,1,0,0:0:0:0:
260,36,124190,2,0,P|240:80|172:88,1,100,8|0,0:0|0:0,0:0:0:0:
44,260,124497,5,2,0:0:0:0:
12,164,124651,1,0,0:0:0:0:
112,148,124805,1,8,0:0:0:0:
144,244,124959,1,0,0:0:0:0:
196,168,125113,2,0,P|224:156|260:88,1,100,2|0,0:0|0:0,0:0:0:0:
332,76,125343,1,0,0:0:0:0:
332,76,125420,2,0,P|388:52|444:68,1,100,8|0,0:0|0:0,0:0:0:0:
460,232,125728,5,2,0:0:0:0:
492,140,125882,1,0,0:0:0:0:
392,160,126036,1,8,0:0:0:0:
472,320,126190,2,0,P|416:312|380:272,2,100,0|2|0,0:0|0:0|0:0,0:0:0:0:
224,216,126651,2,0,L|340:216,1,100,8|0,0:0|0:0,0:0:0:0:
168,308,126959,6,0,P|112:288|48:360,1,150,2|0,0:0|0:0,0:0:0:0:
168,308,127266,2,0,P|164:252|120:216,1,100,8|0,0:0|0:0,0:0:0:0:
120,112,127574,1,2,0:0:0:0:
200,36,127728,1,0,0:0:0:0:
224,144,127882,1,8,0:0:0:0:
32,184,128036,6,0,B|52:152|36:96|36:96|52:40|116:24,1,200,2|0,0:0|0:0,0:0:0:0:
288,72,128497,1,8,0:0:0:0:
288,72,128651,1,8,0:0:0:0:
464,168,128805,2,0,L|348:168,1,100,2|0,0:0|0:0,0:0:0:0:
324,232,129036,1,0,0:0:0:0:
324,232,129113,2,0,L|208:232,1,100,8|8,0:0|0:0,0:0:0:0:
172,288,129343,5,0,0:0:0:0:
172,288,129420,2,0,P|112:288|68:368,1,150,6|0,0:0|0:0,0:0:0:0:
204,360,129728,2,0,L|332:360,1,100,8|0,0:0|0:0,0:0:0:0:
464,168,130036,2,0,L|344:168,1,100,2|0,0:0|0:0,0:0:0:0:
244,80,130343,1,8,0:0:0:0:
392,252,130497,6,0,P|412:312|392:352,1,100
256,156,130805,2,0,P|236:216|256:256,1,100,0|8,0:0|0:0,0:0:0:0:
132,340,131113,1,0,0:0:0:0:
312,204,131266,2,0,L|368:112,1,100,2|0,0:0|0:0,0:0:0:0:
408,56,131497,1,0,0:0:0:0:
408,56,131574,2,0,P|440:104|400:192,1,150,8|0,0:0|0:0,0:0:0:0:
328,56,131882,6,0,L|208:56,2,100,0|0|8,0:0|0:0|0:0,0:0:0:0:
312,204,132343,1,0,0:0:0:0:
164,136,132497,2,0,L|280:136,2,100,2|0|8,0:0|0:0|0:0,0:0:0:0:
64,288,132959,6,0,L|164:288,1,100,0|2,0:0|0:0,0:0:0:0:
292,96,133266,2,0,L|192:96,1,100,0|8,0:0|0:0,0:0:0:0:
88,332,133574,2,0,L|188:332,1,100,0|2,0:0|0:0,0:0:0:0:
232,168,133882,1,0,0:0:0:0:
236,192,133959,1,0,0:0:0:0:
240,216,134036,2,0,P|280:256|288:304,1,100,8|0,0:0|0:0,0:0:0:0:
480,336,134343,5,2,0:0:0:0:
388,280,134497,1,0,0:0:0:0:
332,184,134651,1,8,0:0:0:0:
308,76,134805,1,0,0:0:0:0:
440,136,134959,2,0,P|456:188|432:236,1,100,2|0,0:0|0:0,0:0:0:0:
388,280,135190,1,0,0:0:0:0:
388,280,135266,2,0,L|272:280,1,100,8|0,0:0|0:0,0:0:0:0:
208,52,135574,5,2,0:0:0:0:
127,127,135728,1,0,0:0:0:0:
72,224,135882,1,8,0:0:0:0:
69,331,136036,1,0,0:0:0:0:
240,248,136190,2,0,P|220:192|176:172,1,100,2|0,0:0|0:0,0:0:0:0:
127,127,136420,1,0,0:0:0:0:
127,127,136497,2,0,L|128:16,1,100,8|0,0:0|0:0,0:0:0:0:
436,128,136805,6,0,B|392:128|392:128|372:124|372:124|336:124,1,100,2|0,0:0|0:0,0:0:0:0:
225,124,137113,1,8,0:0:0:0:
413,228,137267,6,0,B|370:216|370:216|352:207|352:207|317:198,1,100,2|0,0:0|0:0,0:0:0:0:
211,170,137575,1,8,0:0:0:0:
356,316,137728,5,2,0:0:0:0:
185,216,137882,1,0,0:0:0:0:
268,360,138036,1,8,0:0:0:0:
432,312,138190,6,0,L|324:312,1,100,2|0,0:0|0:0,0:0:0:0:
196,100,138497,2,0,L|296:100,1,100,8|0,0:0|0:0,0:0:0:0:
460,192,138805,1,2,0:0:0:0:
352,80,138959,2,0,P|312:132|408:240,1,200,2|4,0:0|0:0,0:0:0:0:
160,272,141113,6,0,P|96:264|92:128,2,200,2|2|4,0:0|0:0|0:0,0:0:0:0:
472,96,143574,6,0,B|456:88|456:88|440:96|440:96|424:88|424:88|408:96|408:96|392:88|392:88|376:96|376:96|356:88|356:88|336:96|336:96|276:80,1,200,0|4,0:0|0:0,0:0:0:0:
160,112,146036,6,0,P|96:120|92:256,2,200,2|2|4,0:0|0:0|0:0,0:0:0:0:
440,348,147728,6,0,L|440:132,1,200,2|0,0:0|0:0,0:0:0:0:
188,40,148190,2,0,L|188:144,1,100,2|0,0:0|0:0,0:0:0:0:
360,352,148497,2,0,P|352:276|264:256,1,150,4|0,0:0|0:0,0:0:0:0:
140,324,148805,2,0,L|300:324,1,150,4|0,0:0|0:0,0:0:0:0:
200,244,149113,6,0,L|92:244,1,100
44,148,149420,1,0,0:0:0:0:
84,44,149574,1,0,0:0:0:0:
188,80,149728,2,0,P|232:72|272:24,1,100
296,32,149959,1,0,0:0:0:0:
320,32,150036,1,0,0:0:0:0:
264,164,150190,6,0,L|144:164,1,100
92,328,150497,2,0,L|208:328,1,100
324,228,150805,1,0,0:0:0:0:
324,228,150882,1,0,0:0:0:0:
324,228,150959,2,0,P|280:184|300:100,1,150,2|0,0:0|0:0,0:0:0:0:
452,156,151266,2,0,L|330:156,1,100,2|0,0:0|0:0,0:0:0:0:
192,352,151574,6,0,L|316:352,1,100
248,248,151882,1,0,0:0:0:0:
208,144,152036,1,0,0:0:0:0:
208,144,152113,1,0,0:0:0:0:
208,144,152190,2,0,L|104:144,2,100
280,64,152651,1,0,0:0:0:0:
280,64,152805,5,0,0:0:0:0:
396,180,152959,1,0,0:0:0:0:
396,180,153113,1,0,0:0:0:0:
440,20,153266,1,0,0:0:0:0:
456,40,153343,1,0,0:0:0:0:
464,60,153420,6,0,B|472:96|448:112|448:112|448:128|464:148|464:148|484:176|452:236,1,175,4|0,0:0|0:0,0:0:0:0:
468,296,154036,6,0,P|420:288|388:228,1,100
188,84,154343,2,0,L|312:84,1,100
152,260,154651,2,0,L|40:260,1,100
28,260,154882,1,0,0:0:0:0:
4,260,154959,1,0,0:0:0:0:
176,176,155113,6,0,L|296:176,1,100
356,344,155420,2,0,L|468:344,1,100
180,336,155728,1,0,0:0:0:0:
180,336,155805,1,0,0:0:0:0:
180,336,155882,2,0,P|120:324|96:236,1,150,2|0,0:0|0:0,0:0:0:0:
164,164,156190,2,0,L|164:264,1,100,2|0,0:0|0:0,0:0:0:0:
460,64,156497,5,0,0:0:0:0:
444,172,156651,1,0,0:0:0:0:
312,268,156805,1,0,0:0:0:0:
332,160,156959,1,0,0:0:0:0:
512,120,157113,6,0,L|468:212,1,100
360,356,157420,2,0,L|311:269,1,100
140,44,157728,1,4,0:0:0:0:
164,152,157882,1,0,0:0:0:0:
228,304,158036,1,0,0:0:0:0:
272,204,158190,1,0,0:0:0:0:
68,280,158343,6,0,L|95:321,1,50
100,280,158497,6,0,L|107:329,1,50
132,288,158651,6,0,L|117:335,1,50
160,308,158805,6,0,L|126:345,1,50
180,332,158959,6,0,P|248:320|284:288,1,100
420,156,159266,1,0,0:0:0:0:
400,200,159343,1,0,0:0:0:0:
360,228,159420,1,0,0:0:0:0:
160,180,159574,1,0,0:0:0:0:
116,160,159651,1,0,0:0:0:0:
88,120,159728,1,0,0:0:0:0:
360,40,160190,5,4,0:0:0:0:
92,88,168651,6,0,P|152:48|288:48,1,200,2|0,0:0|0:0,0:0:0:0:
156,152,169113,2,0,P|212:140|276:156,1,100,2|0,0:0|0:0,0:0:0:0:
292,332,169420,1,2,0:0:0:0:
356,144,169574,1,0,0:0:0:0:
352,120,169651,1,0,0:0:0:0:
343,101,169728,2,0,P|310:64|264:48,1,100,2|0,0:0|0:0,0:0:0:0:
72,304,170036,6,0,P|140:304|176:224,1,150,6|0,0:0|0:0,0:0:0:0:
55,152,170343,2,0,L|104:240,1,100,8|0,0:0|0:0,0:0:0:0:
152,168,170574,1,0,0:0:0:0:
152,168,170651,2,0,L|103:80,2,100,2|0|8,0:0|0:0|0:0,0:0:0:0:
340,248,171113,6,0,L|388:335,2,100,0|2|0,0:0|0:0|0:0,0:0:0:0:
204,104,171574,2,0,L|155:16,1,100,8|0,0:0|0:0,0:0:0:0:
84,204,171882,2,0,P|120:240|180:240,1,100,2|0,0:0|0:0,0:0:0:0:
224,196,172113,1,0,0:0:0:0:
224,196,172190,2,0,P|272:152|360:192,1,150,8|0,0:0|0:0,0:0:0:0:
256,264,172497,6,0,P|312:272|352:240,1,100,2|0,0:0|0:0,0:0:0:0:
464,80,172805,2,0,L|352:80,1,100,8|0,0:0|0:0,0:0:0:0:
184,44,173113,1,2,0:0:0:0:
280,112,173266,1,0,0:0:0:0:
380,176,173420,1,8,0:0:0:0:
172,176,173574,6,0,L|48:176,1,100,0|2,0:0|0:0,0:0:0:0:
256,328,173882,2,0,L|368:328,1,100,0|8,0:0|0:0,0:0:0:0:
192,260,174190,1,0,0:0:0:0:
192,260,174266,1,0,0:0:0:0:
192,260,174343,2,0,P|136:256|96:212,1,100,2|0,0:0|0:0,0:0:0:0:
220,28,174651,1,8,0:0:0:0:
240,148,174805,1,0,0:0:0:0:
32,108,174959,6,0,P|56:56|104:32,2,100,2|0|8,0:0|0:0|0:0,0:0:0:0:
140,284,175420,1,0,0:0:0:0:
80,204,175574,2,0,P|133:184|184:201,2,100,2|0|8,0:0|0:0|0:0,0:0:0:0:
52,364,176036,1,0,0:0:0:0:
301,355,176190,6,0,P|273:314|227:295,1,100,2|0,0:0|0:0,0:0:0:0:
244,224,176420,1,0,0:0:0:0:
244,224,176497,2,0,L|364:224,1,100,8|0,0:0|0:0,0:0:0:0:
248,64,176805,2,0,L|128:64,1,100,2|0,0:0|0:0,0:0:0:0:
332,256,177113,2,0,L|444:256,1,100,8|0,0:0|0:0,0:0:0:0:
296,32,177420,6,0,P|208:40|188:108,1,150,2|0,0:0|0:0,0:0:0:0:
124,200,177728,2,0,L|228:152,1,100,8|0,0:0|0:0,0:0:0:0:
292,160,177959,1,0,0:0:0:0:
292,160,178036,2,0,P|340:144|360:80,1,100,2|0,0:0|0:0,0:0:0:0:
464,24,178343,1,8,0:0:0:0:
380,216,178497,6,0,L|380:328,1,100,0|2,0:0|0:0,0:0:0:0:
156,144,178805,2,0,L|156:256,1,100,0|8,0:0|0:0,0:0:0:0:
412,44,179113,6,0,L|412:156,1,100,8|2,0:0|0:0,0:0:0:0:
100,340,179420,2,0,L|100:288,1,50
52,232,179574,2,0,L|52:124,1,100,8|8,0:0|0:0,0:0:0:0:
92,68,179805,5,0,0:0:0:0:
92,68,179882,2,0,P|160:100|224:52,1,150,6|0,0:0|0:0,0:0:0:0:
336,28,180190,2,8,P|300:52|292:112,1,100
452,244,180497,2,0,L|336:244,1,100,2|0,0:0|0:0,0:0:0:0:
328,244,180728,1,0,0:0:0:0:
304,244,180805,1,8,0:0:0:0:
140,140,180959,6,0,P|125:186|141:233,1,100,0|2,0:0|0:0,0:0:0:0:
408,144,181266,2,0,P|424:92|400:40,1,100,0|8,0:0|0:0,0:0:0:0:
200,188,181574,1,0,0:0:0:0:
352,96,181728,2,0,L|248:96,1,100,2|0,0:0|0:0,0:0:0:0:
200,44,181959,1,0,0:0:0:0:
200,44,182036,2,0,P|144:16|68:88,1,150,8|0,0:0|0:0,0:0:0:0:
88,168,182343,6,0,P|132:136|140:76,1,100,2|0,0:0|0:0,0:0:0:0:
12,172,182651,2,0,L|12:288,1,100,8|0,0:0|0:0,0:0:0:0:
64,328,182882,1,0,0:0:0:0:
64,328,182959,2,0,P|116:292|172:300,2,100,2|0|8,0:0|0:0|0:0,0:0:0:0:
336,340,183420,6,0,L|212:340,1,100,0|2,0:0|0:0,0:0:0:0:
440,144,183728,2,0,L|320:144,1,100,0|8,0:0|0:0,0:0:0:0:
72,220,184036,2,0,P|140:192|140:96,1,150,0|2,0:0|0:0,0:0:0:0:
56,48,184343,2,0,L|88:164,1,100,0|8,0:0|0:0,0:0:0:0:
136,48,184651,1,0,0:0:0:0:
196,252,184805,5,2,0:0:0:0:
252,156,184959,1,0,0:0:0:0:
344,96,185113,1,8,0:0:0:0:
452,84,185266,1,0,0:0:0:0:
252,156,185420,2,0,L|136:156,1,100,2|0,0:0|0:0,0:0:0:0:
100,212,185651,1,0,0:0:0:0:
100,212,185728,2,0,P|80:264|100:320,1,100,8|0,0:0|0:0,0:0:0:0:
303,367,186036,5,2,0:0:0:0:
332,260,186190,1,0,0:0:0:0:
309,152,186343,1,8,0:0:0:0:
241,68,186497,1,0,0:0:0:0:
237,283,186651,2,0,P|287:281|332:260,1,100,2|0,0:0|0:0,0:0:0:0:
360,52,186959,1,8,0:0:0:0:
309,152,187113,1,0,0:0:0:0:
200,200,187266,6,0,L|80:200,1,100,2|0,0:0|0:0,0:0:0:0:
28,116,187574,1,8,0:0:0:0:
260,52,187728,2,0,L|380:52,1,100,2|0,0:0|0:0,0:0:0:0:
432,136,188036,1,8,0:0:0:0:
352,276,188190,1,8,0:0:0:0:
456,152,188343,1,0,0:0:0:0:
248,224,188497,6,0,L|128:224,1,100,2|0,0:0|0:0,0:0:0:0:
76,308,188805,1,8,0:0:0:0:
324,348,188959,2,0,L|444:348,1,100,2|0,0:0|0:0,0:0:0:0:
496,264,189266,1,8,0:0:0:0:
364,168,189420,1,8,0:0:0:0:
508,240,189574,1,0,0:0:0:0:
304,76,189728,6,0,L|184:76,2,100,2|0|8,0:0|0:0|0:0,0:0:0:0:
52,272,190190,2,0,L|152:272,2,100,2|0|8,0:0|0:0|0:0,0:0:0:0:
60,56,190651,1,8,0:0:0:0:
160,160,190805,1,0,0:0:0:0:
208,24,190959,1,0,0:0:0:0:
124,232,191113,6,0,P|184:236|220:108,1,200,0|0,0:0|0:0,0:0:0:0:
60,56,191728,2,0,L|12:40,2,50,0|0|8,0:0|0:0|0:0,0:0:0:0:
124,232,192036,1,0,0:0:0:0:
256,96,192190,5,4,0:0:0:0:
