osu file format v12

[General]
AudioFilename: Outer Science.mp3
AudioLeadIn: 0
PreviewTime: 59453
Countdown: 1
SampleSet: Normal
StackLeniency: 0.7
Mode: 0
LetterboxInBreaks: 1

[Editor]
Bookmarks: 377,5300,10223,20069,29915,39761,49607,59453,69300,79146,88992,98838,108684,118530,128377,138223,148069,159146,168992,178838,191146,200992,210838
DistanceSpacing: 1.1
BeatDivisor: 4
GridSize: 4

[Metadata]
Title:Outer Science
TitleUnicode:アウターサイエンス
Artist:Jin
ArtistUnicode:じん
Creator:_Asagi_
Version:Unexpected
Source:
Tags:asagi mira-san shanaai ia jin outer science vocaloid topecnz
BeatmapID:272448
BeatmapSetID:103013

[Difficulty]
HPDrainRate:6
CircleSize:4
OverallDifficulty:8
ApproachRate:10
SliderMultiplier:2
SliderTickRate:2

[Events]
//Background and Video events
0,0,"IA.jpg",0,0
//Break Periods
//Storyboard Layer 0 (Background)
//Storyboard Layer 1 (Fail)
//Storyboard Layer 2 (Pass)
//Storyboard Layer 3 (Foreground)
//Storyboard Sound Samples
//Background Colour Transformations
3,100,163,162,255

[TimingPoints]
377,307.692307692308,4,1,0,60,1,0
5300,-133.333333333333,4,1,0,60,0,0
10223,-66.6666666666667,4,1,0,60,0,1
10838,-100,4,1,0,60,0,0
12683,-66.6666666666667,4,1,0,60,0,0
13453,-90.9090909090909,4,1,0,60,0,0
14069,-83.3333333333333,4,1,0,60,0,0
14684,-100,4,1,0,60,0,0
15146,-66.6666666666667,4,1,0,60,0,0
15761,-133.333333333333,4,1,0,60,0,0
16684,-100,4,1,0,60,0,0
17607,-66.6666666666667,4,1,0,60,0,0
18223,-133.333333333333,4,1,0,60,0,0
19146,-100,4,1,0,60,0,0
19377,-83.3333333333333,4,1,0,60,0,0
20069,-100,4,1,0,60,0,0
20377,-66.6666666666667,4,1,0,60,0,0
20684,-100,4,1,0,60,0,0
21607,-66.6666666666667,4,1,0,60,0,0
21761,-100,4,1,0,60,0,0
23453,-66.6666666666667,4,1,0,60,0,0
23607,-100,4,1,0,60,0,0
25915,-66.6666666666667,4,1,0,60,0,0
26069,-100,4,1,0,60,0,0
27146,-66.6666666666667,4,1,0,60,0,0
27300,-100,4,1,0,60,0,0
29453,-83.3333333333333,4,1,0,60,0,0
29838,-100,4,1,0,60,0,0
29915,-76.9230769230769,4,1,0,60,0,0
30300,-100,4,1,0,60,0,0
31607,-66.6666666666667,4,1,0,60,0,0
31915,-100,4,1,0,60,0,0
32069,-100,4,1,0,60,0,0
32838,-66.6666666666667,4,1,0,60,0,0
32992,-100,4,1,0,60,0,0
33761,-83.3333333333333,4,1,0,60,0,0
33992,-100,4,1,0,60,0,0
35915,-66.6666666666667,4,1,0,60,0,0
36069,-100,4,1,0,60,0,0
36530,-76.9230769230769,4,1,0,60,0,0
36838,-100,4,1,0,60,0,0
38684,-76.9230769230769,4,1,0,60,0,0
39146,-100,4,1,0,60,0,0
39761,-76.9230769230769,4,1,0,60,0,0
40838,-100,4,1,0,60,0,0
41453,-66.6666666666667,4,1,0,60,0,0
41761,-76.9230769230769,4,1,0,60,0,0
42223,-100,4,1,0,60,0,0
43146,-66.6666666666667,4,1,0,60,0,0
43300,-100,4,1,0,60,0,0
43915,-83.3333333333333,4,1,0,60,0,0
44223,-100,4,1,0,60,0,0
45300,-66.6666666666667,4,1,0,60,0,0
45453,-100,4,1,0,60,0,0
48377,-66.6666666666667,4,1,0,60,0,0
48684,-133.333333333333,4,1,0,60,0,0
48992,-100,4,1,0,60,0,0
49607,-200,4,2,0,30,0,0
56530,-66.6666666666667,4,1,0,60,0,0
56992,-100,4,1,0,60,0,0
59146,-66.6666666666667,4,1,0,60,0,0
59377,-100,4,1,0,60,0,1
60377,-66.6666666666667,4,1,0,60,0,1
61069,-100,4,1,0,60,0,1
61915,-66.6666666666667,4,1,0,60,0,1
62684,-100,4,1,0,60,0,1
62992,-66.6666666666667,4,1,0,60,0,1
64223,-100,4,1,0,60,0,1
64838,-66.6666666666667,4,1,0,60,0,1
65453,-100,4,1,0,60,0,1
66069,-66.6666666666667,4,1,0,60,0,1
67453,-100,4,1,0,60,0,1
67915,-66.6666666666667,4,1,0,60,0,1
68377,-100,4,1,0,60,0,1
69223,-100,4,1,0,60,0,0
69300,-66.6666666666667,4,1,0,60,0,1
70992,-100,4,1,0,60,0,1
71300,-66.6666666666667,4,1,0,60,0,1
72530,-100,4,1,0,60,0,1
72838,-66.6666666666667,4,1,0,60,0,1
74069,-100,4,1,0,60,0,1
74684,-66.6666666666667,4,1,0,60,0,1
75300,-100,4,1,0,60,0,1
75915,-66.6666666666667,4,1,0,60,0,1
79146,-100,4,1,0,60,0,0
80992,-66.6666666666667,4,1,0,60,0,0
81607,-100,4,1,0,60,0,0
83453,-58.8235294117647,4,1,0,60,0,0
84069,-100,4,1,0,60,0,0
85915,-66.6666666666667,4,1,0,60,0,0
86377,-100,4,1,0,60,0,0
88223,-200,4,1,0,60,0,0
88684,-100,4,1,0,60,0,0
88992,-66.6666666666667,4,1,0,60,0,0
89300,-100,4,1,0,60,0,0
90684,-66.6666666666667,4,1,0,60,0,0
91607,-100,4,1,0,60,0,0
91915,-66.6666666666667,4,1,0,60,0,0
92146,-100,4,1,0,60,0,0
92838,-66.6666666666667,4,1,0,60,0,0
93607,-100,4,1,0,60,0,0
94992,-66.6666666666667,4,1,0,60,0,0
95300,-100,4,1,0,60,0,0
95607,-66.6666666666667,4,1,0,60,0,0
96607,-100,4,1,0,60,0,0
97761,-76.9230769230769,4,1,0,60,0,0
98838,-66.6666666666667,4,1,0,60,0,0
99915,-66.6666666666667,4,1,0,60,0,0
100223,-100,4,1,0,60,0,0
100530,-66.6666666666667,4,1,0,60,0,0
100838,-100,4,1,0,60,0,0
102223,-66.6666666666667,4,1,0,60,0,0
102530,-100,4,1,0,60,0,0
104377,-66.6666666666667,4,1,0,60,0,0
104992,-100,4,1,0,60,0,0
107453,-66.6666666666667,4,1,0,60,0,0
107761,-133.333333333333,4,1,0,60,0,0
108684,-133.333333333333,4,2,0,40,0,0
115607,-66.6666666666667,4,1,0,60,0,0
116069,-100,4,1,0,60,0,0
118530,-100,4,1,0,60,0,1
118838,-66.6666666666667,4,1,0,60,0,1
120684,-100,4,1,0,60,0,1
120992,-66.6666666666667,4,1,0,60,0,1
121761,-100,4,1,0,60,0,1
122069,-66.6666666666667,4,1,0,60,0,1
123300,-100,4,1,0,60,0,1
123915,-66.6666666666667,4,1,0,60,0,1
124530,-100,4,1,0,60,0,1
125146,-66.6666666666667,4,1,0,60,0,1
126530,-100,4,1,0,60,0,1
126992,-66.6666666666667,4,1,0,60,0,1
127453,-100,4,1,0,60,0,1
128300,-100,4,1,0,60,0,0
128377,-66.6666666666667,4,1,0,60,0,1
130069,-100,4,1,0,60,0,1
130377,-66.6666666666667,4,1,0,60,0,1
131607,-100,4,1,0,60,0,1
131915,-66.6666666666667,4,1,0,60,0,1
133146,-100,4,1,0,60,0,1
133761,-66.6666666666667,4,1,0,60,0,1
134377,-100,4,1,0,60,0,1
134992,-66.6666666666667,4,1,0,60,0,1
138223,-133.333333333333,4,2,0,40,0,0
140069,-200,4,2,0,40,0,0
140838,-133.333333333333,4,2,0,40,0,0
142530,-100,4,2,0,40,0,0
143146,-133.333333333333,4,2,0,40,0,0
144992,-200,4,2,0,40,0,0
145607,-133.333333333333,4,2,0,40,0,0
146684,-58.8235294117647,4,1,0,60,0,0
148069,-100,4,1,0,60,0,0
149915,-66.6666666666667,4,1,0,60,0,0
150223,-58.8235294117647,4,1,0,60,0,0
150530,-100,4,1,0,60,0,0
152377,-58.8235294117647,4,1,0,60,0,0
152838,-100,4,1,0,60,0,0
154838,-66.6666666666667,4,1,0,60,0,0
155146,-58.8235294117647,4,1,0,60,0,0
155761,-100,4,1,0,60,0,0
159146,-133.333333333333,4,1,0,60,0,0
164069,-100,4,1,0,60,0,0
164530,-100,4,1,0,60,0,0
165146,-100,4,1,0,60,0,0
166377,-133.333333333333,4,1,0,60,0,0
166838,-100,4,1,0,60,0,0
167915,-76.9230769230769,4,1,0,60,0,0
168223,-62.5,4,1,0,60,0,0
168530,-52.6315789473684,4,1,0,60,0,0
168992,-100,4,1,0,60,0,1
169300,-66.6666666666667,4,1,0,60,0,1
171146,-100,4,1,0,60,0,1
171453,-58.8235294117647,4,1,0,60,0,1
172223,-100,4,1,0,60,0,1
172530,-58.8235294117647,4,1,0,60,0,1
173761,-100,4,1,0,60,0,1
174377,-58.8235294117647,4,1,0,60,0,1
174992,-100,4,1,0,60,0,1
175607,-58.8235294117647,4,1,0,60,0,1
176992,-100,4,1,0,60,0,1
177453,-66.6666666666667,4,1,0,60,0,1
177915,-100,4,1,0,60,0,1
178761,-66.6666666666667,4,1,0,60,0,0
178838,-58.8235294117647,4,1,0,60,0,1
180530,-100,4,1,0,60,0,1
180838,-58.8235294117647,4,1,0,60,0,1
182069,-100,4,1,0,60,0,1
182377,-58.8235294117647,4,1,0,60,0,1
183607,-100,4,1,0,60,0,1
184223,-58.8235294117647,4,1,0,60,0,1
184838,-100,4,1,0,60,0,1
185453,-58.8235294117647,4,1,0,60,0,1
191146,-83.3333333333333,4,1,0,40,0,0
192992,-66.6666666666667,4,1,0,40,0,0
193607,-83.3333333333333,4,1,0,40,0,0
195453,-58.8235294117647,4,1,0,40,0,0
196377,-83.3333333333333,4,1,0,40,0,0
197915,-66.6666666666667,4,1,0,40,0,0
198992,-83.3333333333333,4,1,0,40,0,0
200992,-71.4285714285714,4,1,0,40,0,0
202838,-62.5,4,1,0,40,0,0
203453,-71.4285714285714,4,1,0,40,0,0
205300,-50,4,1,0,40,0,0
206069,-71.4285714285714,4,1,0,40,0,0
207607,-62.5,4,1,0,40,0,0
208530,-71.4285714285714,4,1,0,40,0,0
210069,-100,4,2,0,40,0,0

[Colours]
Combo1 : 255,0,128
Combo2 : 0,255,255
Combo3 : 255,255,0
Combo4 : 255,128,0
Combo5 : 128,0,255

[HitObjects]
256,192,2838,12,0,5146,0:0:0:0:
84,140,5300,6,0,B|84:64|148:48|148:48|192:80,1,150.000005722046
344,264,5761,1,0,0:0:0:0:
200,184,5915,2,0,B|224:196|224:196|264:132|334:151,1,150.000005722046
512,268,6377,5,0,0:0:0:0:
336,384,6530,1,0,0:0:0:0:
292,184,6684,1,0,0:0:0:0:
440,64,6838,2,0,B|424:4|340:20|340:20|308:-4,1,150.000005722046
120,56,7300,5,0,0:0:0:0:
188,232,7453,2,0,B|132:268|76:244|76:244|48:260,1,150.000005722046
184,108,7915,1,0,0:0:0:0:
48,260,8069,1,0,0:0:0:0:
160,384,8223,1,0,0:0:0:0:
324,264,8377,2,0,B|400:192|476:232|476:232|512:184,1,225.000008583069
432,60,8992,5,8,0:0:0:0:
296,352,9300,1,8,0:0:0:0:
432,60,9607,1,8,0:0:0:0:
100,0,9915,1,4,0:0:0:0:
96,152,10223,6,0,B|120:132|120:132|180:164|264:104|264:104|328:104|360:188,1,300.000011444092,0|8,0:0|0:0,0:0:0:0:
444,312,10684,1,0,0:0:0:0:
272,380,10838,2,0,B|214:390|214:390|148:364|112:288,1,200,0|8,0:0|0:0,0:0:0:0:
52,132,11300,5,0,0:0:0:0:
176,4,11453,1,0,0:0:0:0:
312,120,11607,1,0,0:0:0:0:
476,104,11761,2,0,B|488:64|457:27|457:27|500:-8,1,100,8|0,0:0|0:0,0:0:0:0:
296,224,12069,2,0,B|328:240|328:240|319:273|336:315,1,100
512,344,12377,1,8,0:0:0:0:
372,184,12530,1,0,0:0:0:0:
256,332,12684,6,0,B|232:307|232:307|104:300|128:176|128:176|176:160|176:112,1,300.000011444092,0|8,0:0|0:0,0:0:0:0:
56,20,13146,1,0,0:0:0:0:
0,192,13300,1,0,0:0:0:0:
160,300,13453,2,0,B|188:248|188:248|108:160|224:92,1,220.000006713867
380,204,13915,5,0,0:0:0:0:
464,48,14069,2,0,B|444:4|396:0|396:0|372:20,1,119.999996337891,0|8,0:0|0:0,0:0:0:0:
184,156,14377,2,0,B|222:185|224:220|224:220|284:220,1,119.999996337891
432,356,14684,2,0,B|473:371|500:340|500:340|504:284,2,100,0|8|0,0:0|0:0|0:0,0:0:0:0:
232,320,15146,6,0,B|192:300|192:300|52:336|45:192|45:192|104:124,1,300.000011444092,0|8,0:0|0:0,0:0:0:0:
272,200,15607,1,0,0:0:0:0:
212,24,15761,2,0,B|260:16|260:16|296:88|352:100,1,150.000005722046,0|8,0:0|0:0,0:0:0:0:
388,0,16223,5,0,0:0:0:0:
512,196,16376,1,0,0:0:0:0:
388,0,16530,1,0,0:0:0:0:
324,172,16684,2,0,B|316:216|348:248|348:248|392:252,1,100,8|0,0:0|0:0,0:0:0:0:
184,376,16992,2,0,B|173:343|183:316|183:316|147:300,1,100
384,336,17300,1,8,0:0:0:0:
164,240,17453,1,0,0:0:0:0:
64,88,17607,6,0,B|124:32|156:52|156:52|180:112|282:112|282:112|290:140|328:172,1,300.000011444092,0|8,0:0|0:0,0:0:0:0:
268,0,18068,1,0,0:0:0:0:
172,160,18223,2,0,B|220:188|284:180|284:180|320:128,1,150.000005722046,0|8,0:0|0:0,0:0:0:0:
432,32,18684,5,0,0:0:0:0:
452,260,18837,1,0,0:0:0:0:
304,152,18991,1,0,0:0:0:0:
204,344,19146,2,0,B|216:300|184:272|184:272|196:248,1,100,8|0,0:0|0:0,0:0:0:0:
320,72,19453,2,0,B|356:104|360:157|360:157|348:180,1,119.999996337891
172,152,19761,1,8,0:0:0:0:
100,316,19915,1,0,0:0:0:0:
0,208,20069,6,0,P|28:221|72:224,1,50
60,136,20223,2,0,P|80:112|112:100,1,50
128,192,20377,2,0,P|135:257|44:300,1,150.000005722046,10|0,0:0|0:0,0:0:0:0:
368,288,20684,6,0,P|400:256|404:208,1,50
324,216,20838,2,0,P|340:196|380:164,1,50
284,296,20992,2,0,P|306:350|356:364,1,100,10|0,0:0|0:0,0:0:0:0:
456,68,21300,6,0,P|484:76|516:124,1,50
428,200,21453,2,0,L|448:124,1,50
384,16,21607,2,0,B|344:68|368:116|368:116|356:160,1,150.000005722046,10|0,0:0|0:0,0:0:0:0:
280,372,21915,5,0,0:0:0:0:
240,336,21992,1,0,0:0:0:0:
220,284,22069,1,0,0:0:0:0:
240,232,22146,1,0,0:0:0:0:
248,176,22223,2,0,B|254:132|231:101|231:101|196:96,1,100,10|0,0:0|0:0,0:0:0:0:
88,292,22530,6,0,P|59:300|8:292,1,50
0,224,22684,2,0,P|28:216|56:224,1,50
132,200,22838,2,0,P|114:167|42:139,1,100,10|0,0:0|0:0,0:0:0:0:
204,24,23146,6,0,P|224:40|268:40,1,50
280,120,23300,2,0,P|242:123|220:116,1,50
204,24,23453,2,0,P|257:22|352:80,1,150.000005722046,10|0,0:0|0:0,0:0:0:0:
436,252,23761,6,0,P|438:275|419:299,1,50
512,220,23915,2,0,P|498:197|472:176,1,50
400,176,24069,1,8,0:0:0:0:
212,200,24223,1,0,0:0:0:0:
228,384,24377,2,2,B|181:380|181:380|200:388|176:388|176:388|192:396|192:396|168:396|168:396|180:396|180:396|68:388|68:260,1,300,2|6,0:0|0:0,0:0:0:0:
332,152,24992,6,0,L|276:120,1,50
328,56,25146,2,0,P|296:48|248:56,1,50
208,112,25300,2,0,B|212:156|233:175|233:175|216:212,1,100,10|0,0:0|0:0,0:0:0:0:
40,264,25607,6,0,L|96:296,1,50
160,272,25761,2,0,P|150:243|132:228,1,50
132,356,25915,2,0,B|192:372|236:336|236:336|308:344,1,150.000005722046,10|0,0:0|0:0,0:0:0:0:
496,236,26223,6,0,P|468:236|428:208,1,50
488,104,26377,2,0,L|480:164,1,50
376,264,26530,2,0,P|364:213|392:164,1,100,10|0,0:0|0:0,0:0:0:0:
200,148,26838,6,0,P|224:154|256:172,1,50
200,232,26992,2,0,P|216:252|243:261,1,50
128,192,27146,2,0,B|100:136|140:84|140:84|188:72,1,150.000005722046,10|0,0:0|0:0,0:0:0:0:
336,28,27453,5,0,0:0:0:0:
512,8,27607,1,0,0:0:0:0:
512,200,27761,2,0,P|463:217|412:200,1,100,10|0,0:0|0:0,0:0:0:0:
268,68,28069,6,0,L|221:48,1,50
141,92,28223,2,0,L|217:124,1,50
257,136,28377,2,0,P|235:172|155:166,1,100,10|0,0:0|0:0,0:0:0:0:
136,44,28684,5,8,0:0:0:0:
64,316,28838,1,0,0:0:0:0:
256,168,28992,1,8,0:0:0:0:
0,172,29146,1,0,0:0:0:0:
368,328,29453,6,2,B|388:318|388:318|396:308|396:308|404:324|404:324|408:300|408:300|416:316|416:316|420:293|420:293|426:297|426:297|461:272|486:202|444:148,1,239.999992675781,2|6,0:0|0:0,0:0:0:0:
392,60,29915,6,0,B|352:-16|212:28|212:28|180:96,1,259.999988098145,0|8,0:0|0:0,0:0:0:0:
340,152,30377,1,0,0:0:0:0:
508,200,30530,1,0,0:0:0:0:
492,340,30684,2,0,B|461:377|424:388|424:388|384:368,1,100,0|8,0:0|0:0,0:0:0:0:
328,192,30992,5,0,0:0:0:0:
240,368,31146,1,0,0:0:0:0:
132,256,31300,2,0,B|96:228|108:192|108:192|156:172,1,100,0|8,0:0|0:0,0:0:0:0:
224,84,31607,2,0,B|224:124|224:124|160:132|128:200,1,150.000005722046
272,248,31915,2,0,B|305:217|340:216|340:216|332:156|339:113|339:113|360:96,1,200
512,56,32377,5,0,0:0:0:0:
464,252,32530,2,0,P|488:242|528:252,1,50
460,320,32684,2,0,P|432:312|412:300,1,50,8|0,0:0|0:0,0:0:0:0:
388,224,32838,2,0,B|408:160|352:120|352:120|328:144,1,150.000005722046
264,304,33146,5,0,0:0:0:0:
116,384,33300,1,8,0:0:0:0:
28,256,33453,2,0,B|52:196|92:192|92:192|120:176,1,100
140,108,33761,2,0,B|100:120|100:120|140:176|64:216,1,119.999996337891,0|8,0:0|0:0,0:0:0:0:
200,296,34069,2,0,B|256:272|276:248|284:184|284:184|352:136,1,200
452,32,34530,6,0,L|520:80,1,50,8|0,0:0|0:0,0:0:0:0:
512,144,34684,2,0,P|481:149|444:124,1,50
400,88,34838,2,0,B|364:58|364:58|284:104|200:24,1,200,0|8,0:0|0:0,0:0:0:0:
100,188,35300,1,0,0:0:0:0:
300,20,35453,1,0,0:0:0:0:
218,157,35607,6,0,B|264:144|300:168|300:168|280:216,1,100,0|8,0:0|0:0,0:0:0:0:
188,344,35915,2,0,B|126:353|90:329|90:329|110:281,1,150.000005722046
220,156,36223,2,0,P|242:178|252:208,1,50
200,268,36377,2,0,B|177:241|177:241|168:208,1,50,8|0,0:0|0:0,0:0:0:0:
140,148,36530,2,0,B|140:96|168:32|236:32|236:32|252:84|308:100,1,259.999988098145
484,20,36992,5,8,0:0:0:0:
296,96,37146,1,0,0:0:0:0:
120,0,37300,1,0,0:0:0:0:
16,152,37453,1,0,0:0:0:0:
68,316,37607,2,8,B|91:350|91:350|160:384|272:320,1,200,8|0,0:0|0:0,0:0:0:0:
456,204,38069,6,0,P|428:176|340:168,1,100,0|8,0:0|0:0,0:0:0:0:
56,180,38377,2,0,P|84:208|172:216,1,100
344,176,38684,6,0,P|316:148|268:144,1,64.9999970245363,2|0,0:0|0:0,0:0:0:0:
200,116,38838,2,0,P|192:136|204:180,1,64.9999970245363,2|0,0:0|0:0,0:0:0:0:
216,260,38992,2,0,P|245:255|269:231,1,64.9999970245363,2|0,0:0|0:0,0:0:0:0:
420,12,39300,5,8,0:0:0:0:
500,228,39453,1,8,0:0:0:0:
280,172,39607,1,8,0:0:0:0:
160,52,39761,6,0,B|128:32|128:32|36:36|48:136|48:136|-12:200,1,259.999988098145,4|8,0:0|0:0,0:0:0:0:
120,336,40223,1,0,0:0:0:0:
132,124,40377,1,0,0:0:0:0:
264,288,40530,2,0,B|285:299|285:299|344:256|316:156,1,129.999994049073,0|8,0:0|0:0,0:0:0:0:
228,68,40838,2,0,B|208:56|208:56|174:82|152:152,1,100
324,208,41146,6,0,P|356:206|392:178,1,50
320,124,41300,2,0,P|288:128|240:160,1,50,8|0,0:0|0:0,0:0:0:0:
236,212,41453,2,0,B|196:200|144:232|144:232|88:164,1,150.000005722046
8,60,41761,2,0,B|8:36|8:36|52:-2|128:4,1,129.999994049073,0|8,0:0|0:0,0:0:0:0:
280,32,42069,5,0,0:0:0:0:
432,84,42223,2,0,B|467:111|480:160|480:160|460:184,1,100
280,288,42530,2,0,B|304:288|304:288|317:249|360:236,1,100,8|0,0:0|0:0,0:0:0:0:
428,372,42838,5,0,0:0:0:0:
496,212,42992,1,0,0:0:0:0:
396,60,43146,2,0,B|368:24|368:24|304:8|252:56,1,150.000005722046,8|0,0:0|0:0,0:0:0:0:
178,151,43453,6,0,L|156:196,1,50
176,340,43607,2,0,L|203:298,1,50
284,244,43761,2,0,L|239:221,1,50,8|0,0:0|0:0,0:0:0:0:
124,272,43915,2,0,B|93:248|68:240|68:240|80:160|112:112|112:112|88:72,1,239.999992675781
267,81,44377,6,0,P|256:72|244:40,1,50,8|0,0:0|0:0,0:0:0:0:
324,24,44530,2,0,P|352:56|352:80,1,50
328,148,44684,2,0,B|288:168|251:159|251:159|228:192,1,100
116,376,44992,5,8,0:0:0:0:
36,172,45146,1,0,0:0:0:0:
232,236,45300,2,0,B|275:250|320:236|320:236|368:288,1,150.000005722046
488,384,45607,5,8,0:0:0:0:
432,208,45761,1,0,0:0:0:0:
340,104,45915,2,0,P|332:79|308:60,1,50
240,12,46069,2,0,P|230:36|228:60,1,50
256,144,46223,2,0,P|219:147|180:136,1,50,8|0,0:0|0:0,0:0:0:0:
128,164,46377,2,0,P|128:114|154:72,2,100
160,344,46838,5,8,0:0:0:0:
128,164,46992,1,0,0:0:0:0:
268,200,47146,2,0,P|236:211|220:248,1,50
256,304,47300,2,0,P|285:288|312:260,1,50
352,224,47453,2,0,B|375:184|375:184|364:100|260:76,1,200,8|0,0:0|0:0,0:0:0:0:
164,0,47915,5,0,0:0:0:0:
44,184,48069,1,8,0:0:0:0:
164,0,48223,1,0,0:0:0:0:
44,184,48377,2,0,B|48:228|48:228|88:264|160:248,1,150.000005722046
232,88,48684,2,2,B|272:80|272:80|352:100|320:190,1,150.000005722046,8|0,0:0|0:0,0:0:0:0:
224,344,49146,5,8,0:0:0:0:
328,160,49300,1,8,0:0:0:0:
460,292,49453,1,8,0:0:0:0:
208,184,49607,6,0,B|173:172|173:172|144:240|76:228|76:228|56:236|40:264,1,200
56,88,50377,1,0,0:0:0:0:
224,4,50530,1,0,0:0:0:0:
376,52,50684,2,0,P|398:60|432:88,1,50
432,264,50992,2,0,B|448:232|448:232|481:229|510:202,1,100
304,112,51453,5,0,0:0:0:0:
200,260,51607,2,0,B|196:292|196:292|242:315|211:359,1,100
60,176,52069,2,0,B|72:140|72:140|108:136|136:104|136:104|108:80,1,150
288,16,52684,6,0,P|316:28|336:64,1,50,0|0,0:0|0:0,0:0:0:0:
500,180,52992,2,0,P|476:160|472:124,1,50
336,264,53300,5,8,0:0:0:0:
196,88,53453,1,0,0:0:0:0:
112,288,53607,1,0,0:0:0:0:
316,136,53761,1,0,0:0:0:0:
96,176,53915,1,8,0:0:0:0:
248,344,54069,1,0,0:0:0:0:
388,192,54223,1,0,0:0:0:0:
200,168,54377,1,0,0:0:0:0:
76,36,54530,6,0,B|124:28|124:28|172:52|240:16,1,150,8|0,0:0|0:0,0:0:0:0:
408,132,55146,2,0,P|389:121|372:99,1,50
444,276,55453,1,0,0:0:0:0:
288,372,55607,1,0,0:0:0:0:
120,336,55761,2,0,B|88:324|88:324|75:311|60:268|60:268|48:276,2,100
256,224,56530,2,2,B|316:76|184:24|184:24|120:140|-16:168,1,450.000017166138,2|2,0:0|0:0,0:0:0:0:
256,36,57146,5,12,0:0:0:0:
480,36,57300,1,0,0:0:0:0:
32,192,57607,5,8,0:0:0:0:
256,188,57761,1,0,0:0:0:0:
484,352,58069,5,8,0:0:0:0:
256,348,58223,1,0,0:0:0:0:
256,188,58530,5,12,0:0:0:0:
52,328,58838,6,2,P|60:300|84:268,1,50,0|0,0:0|0:0,0:0:0:0:
156,340,58992,2,0,P|186:337|212:316,1,50
156,252,59146,2,2,B|148:208|148:208|216:224|260:172,1,150.000005722046
504,236,59453,6,0,P|507:209|496:184,1,50,4|0,0:0|0:0,0:0:0:0:
408,280,59607,2,0,P|403:253|415:230,1,50
424,144,59761,2,0,B|440:104|476:92|476:92|460:60,1,100,8|0,0:0|0:0,0:0:0:0:
176,56,60069,5,0,0:0:0:0:
404,0,60223,1,0,0:0:0:0:
288,168,60377,2,0,B|206:181|206:181|250:257|134:321|134:321|102:253,1,300.000011444092,8|0,0:0|0:0,0:0:0:0:
32,68,60838,2,0,B|44:32|44:32|128:-16|220:44|220:44|320:32,1,300.000011444092
492,12,61300,5,0,0:0:0:0:
256,148,61453,1,0,0:0:0:0:
512,128,61607,2,0,P|497:149|464:168,1,50,8|0,0:0|0:0,0:0:0:0:
380,160,61761,2,0,P|390:187|416:208,1,50
488,248,61915,2,0,B|456:272|456:272|400:384|308:320|308:320|340:244,1,300.000011444092,0|8,0:0|0:0,0:0:0:0:
384,40,62377,5,0,0:0:0:0:
144,152,62530,1,0,0:0:0:0:
344,252,62684,6,0,P|368:260|382:283,1,50
376,360,62838,2,0,P|348:355|324:334,1,50,8|0,0:0|0:0,0:0:0:0:
256,288,62992,2,0,B|212:280|212:280|164:228|212:156,1,150.000005722046
368,44,63300,2,0,B|428:26|468:74|468:74|476:114,1,150.000005722046,0|8,0:0|0:0,0:0:0:0:
500,304,63607,2,0,B|469:339|469:339|412:300|328:352,1,150.000005722046
160,364,63915,5,0,0:0:0:0:
24,176,64069,1,8,0:0:0:0:
244,224,64223,2,0,P|267:209|292:172,1,50
212,104,64377,2,0,P|236:84|292:84,1,50
372,144,64530,2,0,P|386:115|388:72,1,50
324,16,64684,2,0,P|352:4|408:8,1,50,8|0,0:0|0:0,0:0:0:0:
464,48,64838,2,0,B|492:68|492:68|524:128|428:232,1,150.000005722046
352,368,65146,5,0,0:0:0:0:
472,176,65300,1,8,0:0:0:0:
272,244,65453,2,0,P|249:229|224:192,1,50
320,124,65607,2,0,P|296:104|240:104,1,50
168,136,65760,2,0,P|154:107|152:64,1,50
228,16,65914,2,0,P|200:4|144:8,1,50,8|0,0:0|0:0,0:0:0:0:
72,40,66069,2,0,B|44:60|44:60|36:136|100:168|100:168|128:216|60:296,1,300.000011444092
208,384,66530,5,8,0:0:0:0:
20,220,66684,1,0,0:0:0:0:
232,264,66838,2,0,B|251:232|251:232|316:244|340:168,1,150.000005722046
376,24,67146,2,0,B|387:6|387:6|444:-4|487:24|487:24|508:68,1,150.000005722046,8|0,0:0|0:0,0:0:0:0:
440,176,67453,6,0,P|429:206|404:240,1,50
324,224,67607,2,0,P|333:254|364:292,1,50
404,332,67761,2,0,P|377:352|328:372,1,50,8|0,0:0|0:0,0:0:0:0:
268,356,67915,2,0,B|216:328|199:265|199:265|136:300,1,150.000005722046
0,328,68223,1,0,0:0:0:0:
168,280,68377,6,0,P|181:311|224:344,1,50,8|0,0:0|0:0,0:0:0:0:
356,348,68530,2,0,P|336:364|272:396,1,50,8|0,0:0|0:0,0:0:0:0:
280,272,68684,1,4,0:0:0:0:
384,128,68838,6,0,P|370:155|332:164,1,50,8|8,0:0|0:0,0:0:0:0:
188,96,68992,2,0,P|202:123|232:136,1,50,8|8,0:0|0:0,0:0:0:0:
332,32,69146,2,0,P|321:58|284:72,1,50,8|8,0:0|0:0,0:0:0:0:
204,4,69300,2,0,B|168:4|168:4|76:52|88:140|88:140|148:180|100:268,1,300.000011444092,12|8,0:0|0:0,0:0:0:0:
280,272,69761,5,0,0:0:0:0:
4,212,69915,1,0,0:0:0:0:
156,372,70069,2,0,B|157:323|217:299|217:299|220:236,1,150.000005722046,0|8,0:0|0:0,0:0:0:0:
112,56,70377,6,0,B|128:20|128:20|176:-4|308:28,1,150.000005722046
424,136,70684,2,0,B|433:172|433:172|385:204|405:272,1,150.000005722046,0|8,0:0|0:0,0:0:0:0:
184,280,70992,2,0,P|167:256|160:224,1,50
224,188,71146,2,0,P|239:208|247:232,1,50
136,168,71300,2,0,B|108:124|108:124|200:60|292:140|292:140|360:152,1,300.000011444092
424,0,71761,6,0,B|480:12|480:12|560:104|472:196|472:196|488:284,1,300.000011444092,0|8,0:0|0:0,0:0:0:0:
328,368,72223,1,0,0:0:0:0:
108,320,72377,1,0,0:0:0:0:
304,256,72530,6,0,P|328:264|342:287,1,50
324,368,72684,2,0,P|296:363|272:342,1,50,8|0,0:0|0:0,0:0:0:0:
208,304,72838,2,0,B|172:288|172:288|156:232|212:184,1,150.000005722046
312,76,73146,2,0,B|304:38|304:38|264:-9|204:8,1,150.000005722046,0|8,0:0|0:0,0:0:0:0:
16,172,73453,2,0,B|5:233|61:265|61:265|109:217,1,150.000005722046
280,40,73761,5,0,0:0:0:0:
72,96,73915,1,8,0:0:0:0:
240,128,74069,2,0,P|264:133|292:172,1,50
272,256,74223,2,0,P|256:248|236:224,1,50
168,160,74377,2,0,P|152:184|164:208,1,50
344,196,74530,2,0,P|359:169|352:120,1,50,8|0,0:0|0:0,0:0:0:0:
332,72,74684,2,0,B|308:28|308:28|248:8|176:60,1,150.000005722046
16,240,74992,5,0,0:0:0:0:
184,112,75146,1,8,0:0:0:0:
164,340,75300,2,0,P|191:345|240:332,1,50
204,248,75453,2,0,P|205:222|224:184,1,50
320,232,75607,2,0,P|328:254|324:282,1,50
304,368,75761,2,0,P|325:377|353:365,1,50,8|0,0:0|0:0,0:0:0:0:
444,288,75915,2,0,B|420:244|420:244|488:196|420:124,1,150.000005722046
196,32,76223,6,0,B|239:47|239:47|279:22|344:48,1,150.000005722046,0|8,0:0|0:0,0:0:0:0:
176,204,76530,2,0,B|184:164|184:164|132:136|41:158,1,150.000005722046
336,204,76838,2,0,B|328:244|328:244|380:272|470:249,1,150.000005722046,0|8,0:0|0:0,0:0:0:0:
188,360,77146,2,0,B|152:358|116:344|99:302|99:302|88:320|88:320|12:312,2,150.000005722046
448,328,77607,5,8,0:0:0:0:
248,216,77761,1,0,0:0:0:0:
428,72,77915,2,0,B|394:50|394:50|332:88|252:52,1,150.000005722046
88,56,78223,2,0,B|56:76|56:76|32:128|80:204,1,150.000005722046,0|8,0:0|0:0,0:0:0:0:
248,296,78684,1,8,0:0:0:0:
12,336,78838,1,8,0:0:0:0:
212,56,79146,1,4,0:0:0:0:
48,288,79453,5,0,0:0:0:0:
232,376,79607,2,0,B|256:380|256:380|272:336|340:324,1,100,0|8,0:0|0:0,0:0:0:0:
476,200,79915,1,0,0:0:0:0:
96,236,80223,5,0,0:0:0:0:
352,4,80530,1,0,0:0:0:0:
368,280,80838,1,0,0:0:0:0:
352,108,80993,2,0,B|324:76|324:76|260:60|152:108,1,150.000005722046,8|0,0:0|0:0,0:0:0:0:
152,320,81300,2,0,B|180:352|180:352|244:368|352:320,1,150.000005722046
484,224,81607,5,0,0:0:0:0:
284,176,81761,2,0,B|267:180|267:180|249:222|197:225,1,100
100,72,82069,2,0,B|80:28|52:16|52:16|8:60,2,100,0|8|0,0:0|0:0|0:0,0:0:0:0:
68,340,82684,5,0,0:0:0:0:
424,340,82992,1,0,0:0:0:0:
276,168,83146,1,0,0:0:0:0:
240,340,83300,1,0,0:0:0:0:
372,200,83454,2,2,B|412:188|412:188|396:168|396:168|424:184|424:184|408:160|408:160|436:180|436:180|420:156|420:156|448:172|448:172|440:100|396:56|316:36|316:36|240:104,1,510.000009727478,8|4,0:0|0:0,0:0:0:0:
160,152,84069,1,0,0:0:0:0:
16,352,84377,5,0,0:0:0:0:
248,368,84531,2,0,B|280:368|280:368|301:336|360:304,1,100,0|8,0:0|0:0,0:0:0:0:
480,200,84839,1,0,0:0:0:0:
176,24,85147,5,0,0:0:0:0:
36,288,85454,1,0,0:0:0:0:
332,264,85762,1,0,0:0:0:0:
248,88,85917,2,0,B|224:68|224:68|144:64|84:136,1,150.000005722046,8|0,0:0|0:0,0:0:0:0:
112,320,86224,2,0,B|121:349|121:349|200:352|260:288,1,150.000005722046
372,240,86530,1,0,0:0:0:0:
424,0,86838,5,0,0:0:0:0:
480,152,86992,2,0,B|495:171|495:171|452:204|472:248,1,100,8|0,0:0|0:0,0:0:0:0:
312,332,87300,2,0,B|284:356|284:356|198:367|144:264,1,200,0|8,0:0|0:0,0:0:0:0:
88,64,87915,6,8,B|112:48|112:48|148:36|216:72,1,100,0|0,0:0|0:0,0:0:0:0:
136,268,88223,2,0,B|168:260|168:260|184:288|236:288,1,100,0|0,0:0|0:0,0:0:0:0:
424,212,88684,6,2,P|453:194|460:176,1,50
452,100,88838,2,2,P|432:76|400:60,1,50
348,116,88992,2,0,B|378:142|378:142|316:188|356:256|356:256|312:316|224:304,1,300.000011444092,0|8,0:0|0:0,0:0:0:0:
44,216,89453,5,0,0:0:0:0:
248,140,89606,1,0,0:0:0:0:
136,328,89760,2,0,B|105:365|68:376|68:376|28:356,1,100,0|8,0:0|0:0,0:0:0:0:
4,184,90068,5,0,0:0:0:0:
172,56,90222,1,0,0:0:0:0:
292,256,90376,2,0,B|256:228|268:192|268:192|316:172,1,100,0|8,0:0|0:0,0:0:0:0:
256,32,90684,2,0,B|256:72|256:72|192:80|160:148,1,150.000005722046
256,328,90991,2,0,B|312:338|360:328|360:328|424:268|376:196|376:196|356:84,1,300.000011444092
216,124,91453,5,0,0:0:0:0:
86,293,91607,2,0,P|104:304|132:312,1,50
184,220,91760,2,0,P|160:218|136:228,1,50,8|0,0:0|0:0,0:0:0:0:
56,220,91915,2,0,B|36:156|92:116|92:116|136:120,1,150.000005722046
352,192,92222,5,0,0:0:0:0:
152,280,92376,1,8,0:0:0:0:
264,152,92529,2,0,B|308:112|288:76|288:76|236:52,1,100
100,56,92838,2,0,B|60:68|60:68|84:144|24:164,1,150.000005722046,0|8,0:0|0:0,0:0:0:0:
136,344,93146,2,0,B|176:360|176:360|260:332|244:248|244:248|340:192,1,300.000011444092
448,28,93607,6,0,L|516:76,1,50,8|0,0:0|0:0,0:0:0:0:
512,136,93760,2,0,P|481:141|436:112,1,50
392,96,93915,2,0,B|356:66|356:66|276:112|340:228,1,200,0|8,0:0|0:0,0:0:0:0:
408,384,94376,1,0,0:0:0:0:
500,224,94529,1,0,0:0:0:0:
344,88,94683,6,0,B|328:56|297:46|297:46|251:59,1,100,0|8,0:0|0:0,0:0:0:0:
260,240,94991,2,0,B|288:276|288:276|277:308|236:328,1,100
68,276,95300,2,0,P|53:256|45:232,1,50
120,172,95453,2,0,B|140:196|134:218,1,50,8|0,0:0|0:0,0:0:0:0:
40,152,95607,2,0,B|40:100|68:36|68:36|148:12|204:64|204:64|212:120,1,300.000011444092
228,268,96068,5,8,0:0:0:0:
208,100,96222,1,0,0:0:0:0:
376,24,96376,1,0,0:0:0:0:
504,140,96529,1,0,0:0:0:0:
432,304,96683,2,0,B|356:393|296:372|296:372|264:325,1,200,8|0,0:0|0:0,0:0:0:0:
404,112,97145,6,0,P|376:84|288:76,1,100,0|8,0:0|0:0,0:0:0:0:
128,292,97453,2,0,P|156:320|244:328,1,100
300,136,97761,6,2,P|323:142|351:170,1,64.9999970245363
276,236,97914,2,2,P|252:260|223:265,1,64.9999970245363,8|0,0:0|0:0,0:0:0:0:
200,160,98068,2,2,P|190:119|198:99,1,64.9999970245363
104,192,98376,5,8,0:0:0:0:
264,16,98529,1,8,0:0:0:0:
360,224,98683,1,8,0:0:0:0:
60,256,98838,6,0,B|12:207|24:120|108:116|108:116|156:80|144:16,1,300.000011444092,0|8,0:0|0:0,0:0:0:0:
220,212,99300,1,0,0:0:0:0:
144,20,99454,1,0,0:0:0:0:
312,40,99607,2,0,B|345:41|345:41|404:84|376:184,1,150.000005722046,0|8,0:0|0:0,0:0:0:0:
236,312,99915,2,0,B|188:308|188:308|156:276|224:200,1,150.000005722046
359,29,100223,6,0,P|344:22|312:20,1,50
263,89,100377,2,0,P|280:96|312:100,1,50,8|0,0:0|0:0,0:0:0:0:
392,104,100530,2,0,B|424:92|432:76|432:76|472:130|472:204,1,150.000005722046
436,344,100838,2,0,B|436:368|436:368|384:392|340:380,1,100,0|8,0:0|0:0,0:0:0:0:
168,280,101146,5,0,0:0:0:0:
280,92,101300,2,0,B|315:119|328:168|328:168|308:192,1,100
96,216,101607,2,0,B|120:216|120:216|133:177|176:164,1,100,8|0,0:0|0:0,0:0:0:0:
336,304,101915,5,0,0:0:0:0:
112,344,102069,1,0,0:0:0:0:
60,132,102223,2,0,B|79:97|79:97|144:84|188:120,1,150,8|0,0:0|0:0,0:0:0:0:
336,176,102530,6,0,L|358:221,1,50
344,376,102684,2,0,L|317:334,1,50
236,280,102838,2,0,L|281:257,1,50,8|0,0:0|0:0,0:0:0:0:
392,300,102992,2,0,B|406:275|438:263|438:263|430:211|458:167|458:167|434:127,1,200
212,72,103454,6,0,P|201:63|189:31,1,50,8|0,0:0|0:0,0:0:0:0:
268,24,103607,2,0,P|296:56|296:80,1,50
264,136,103761,2,0,B|224:156|187:147|187:147|164:180,1,100
164,348,104069,5,8,0:0:0:0:
56,172,104223,1,0,0:0:0:0:
272,232,104377,2,0,B|315:246|360:232|360:232|380:144,1,150
416,24,104684,5,8,0:0:0:0:
484,176,104838,1,0,0:0:0:0:
352,288,104992,2,0,P|344:313|320:332,1,50
256,376,105146,2,0,P|246:352|244:328,1,50
268,240,105300,2,0,P|231:237|192:248,1,50,8|0,0:0|0:0,0:0:0:0:
132,224,105454,2,0,B|112:256|112:256|108:288|158:316,2,100
232,64,105915,5,8,0:0:0:0:
132,224,106069,1,0,0:0:0:0:
44,76,106223,2,0,P|12:87|-4:124,1,50
64,152,106377,2,0,P|93:136|120:108,1,50
120,48,106530,2,0,B|168:60|205:124|205:124|172:160|179:211,1,200,8|0,0:0|0:0,0:0:0:0:
300,384,106992,5,0,0:0:0:0:
256,184,107146,1,8,0:0:0:0:
300,384,107300,1,0,0:0:0:0:
256,184,107453,2,0,B|244:140|244:140|204:104|144:118,1,150.000005722046
96,320,107761,2,2,B|60:327|60:327|-19:307|5:248,1,150.000005722046,8|0,0:0|0:0,0:0:0:0:
124,96,108223,5,8,0:0:0:0:
344,104,108377,1,8,0:0:0:0:
288,320,108530,1,8,0:0:0:0:
140,224,108684,6,0,B|144:156|177:141|177:141|245:153|274:85|274:85|309:122|352:104,1,300.000011444092
472,32,109454,1,0,0:0:0:0:
436,232,109607,1,0,0:0:0:0:
264,16,109761,2,0,P|306:28|340:56,1,75.0000028610231
208,264,110069,2,0,B|216:208|216:208|257:229|332:172,1,150.000005722046
240,64,110530,5,0,0:0:0:0:
208,264,110684,2,0,B|204:296|204:296|250:319|304:304|304:304|304:332,1,150.000005722046
56,352,111146,2,0,B|4:308|4:308|-4:236|80:179,1,225.000008583069
220,16,111761,6,0,P|248:28|268:84,1,75.0000028610231,0|0,0:0|0:0,0:0:0:0:
132,224,112069,2,0,P|80:188|76:152,1,75.0000028610231
344,148,112377,5,8,0:0:0:0:
140,80,112530,1,0,0:0:0:0:
184,292,112684,1,0,0:0:0:0:
268,76,112838,5,0,0:0:0:0:
100,184,112992,1,8,0:0:0:0:
296,256,113146,1,0,0:0:0:0:
268,76,113300,1,0,0:0:0:0:
100,184,113454,1,0,0:0:0:0:
200,324,113607,6,0,B|224:360|224:360|304:392|392:304,1,225.000008583069,8|0,0:0|0:0,0:0:0:0:
440,116,114223,2,0,B|428:88|428:88|392:94|364:68,1,75.0000028610231
388,308,114530,1,0,0:0:0:0:
200,324,114684,1,0,0:0:0:0:
180,104,114838,2,0,B|120:80|72:88|72:88|56:28,2,150.000005722046
408,36,115607,2,2,B|466:181|334:233|334:233|270:117|181:102,1,450.000017166138
36,36,116223,5,12,0:0:0:0:
256,192,116377,1,0,0:0:0:0:
476,352,116684,5,8,0:0:0:0:
256,192,116838,1,0,0:0:0:0:
36,352,117146,5,8,0:0:0:0:
256,192,117300,1,0,0:0:0:0:
476,32,117607,5,12,0:0:0:0:
200,44,117915,6,2,P|189:61|181:89,1,50,0|0,0:0|0:0,0:0:0:0:
184,180,118069,2,0,P|214:177|240:156,1,50
268,96,118223,2,2,B|292:80|292:80|328:80|376:132,1,100
336,336,118530,6,0,P|344:356|341:383,1,50,4|0,0:0|0:0,0:0:0:0:
252,352,118684,2,0,P|247:325|259:302,1,50
332,260,118838,2,0,B|336:224|268:208|268:208|212:236,1,150.000005722046,8|0,0:0|0:0,0:0:0:0:
16,312,119146,5,0,0:0:0:0:
0,120,119300,1,0,0:0:0:0:
164,248,119454,2,0,B|204:288|204:288|328:272|288:196|288:196|448:176,1,300.000011444092,8|0,0:0|0:0,0:0:0:0:
504,56,119915,2,0,B|492:20|492:20|408:-28|316:32|316:32|216:20,1,300.000011444092
24,180,120377,5,0,0:0:0:0:
168,28,120530,1,0,0:0:0:0:
335,123,120684,2,0,P|347:143|340:168,1,50,8|0,0:0|0:0,0:0:0:0:
252,204,120838,2,0,P|262:231|288:252,1,50
372,252,120992,2,0,B|404:340|308:400|220:348|220:348|188:252,1,300.000011444092,0|8,0:0|0:0,0:0:0:0:
72,88,121454,5,0,0:0:0:0:
52,292,121607,1,0,0:0:0:0:
268,120,121761,6,0,P|292:128|306:151,1,50
216,192,121915,2,0,P|188:180|168:156,1,50,8|0,0:0|0:0,0:0:0:0:
192,80,122069,2,0,B|156:44|156:44|112:44|60:96,1,150.000005722046
16,304,122377,2,0,B|23:341|23:341|63:389|123:371,1,150.000005722046,0|8,0:0|0:0,0:0:0:0:
348,264,122684,2,0,B|376:224|424:220|424:220|408:152,1,150.000005722046
284,12,122992,5,0,0:0:0:0:
472,152,123146,1,8,0:0:0:0:
244,168,123300,2,0,P|221:183|206:199,1,50
220,292,123454,2,0,P|238:287|262:267,1,50
344,232,123607,2,0,B|344:233|348:252|344:281,1,50
284,352,123761,2,0,P|256:364|236:366,1,50,8|0,0:0|0:0,0:0:0:0:
136,356,123915,2,0,B|104:344|104:344|80:279|112:220,1,150.000005722046
140,52,124223,5,0,0:0:0:0:
392,72,124377,1,8,0:0:0:0:
244,256,124530,2,0,P|227:251|203:231,1,50
248,144,124684,2,0,P|271:159|285:175,1,50
328,244,124837,2,0,P|342:273|345:290,1,50
300,360,124991,2,0,P|328:372|347:374,1,50,8|0,0:0|0:0,0:0:0:0:
440,344,125146,2,0,B|468:324|468:324|476:248|412:216|412:216|384:168|446:94,1,300.000011444092
244,24,125607,5,8,0:0:0:0:
96,168,125761,1,0,0:0:0:0:
272,244,125915,2,0,B|254:303|189:311|189:311|170:343,1,150.000005722046
436,340,126223,2,0,B|484:300|484:300|476:240|396:196,1,150.000005722046,8|0,0:0|0:0,0:0:0:0:
248,86,126530,6,0,P|252:64|268:42,1,50
332,96,126684,2,0,P|320:120|300:148,1,50
232,172,126838,2,0,P|196:164|164:132,1,50,8|0,0:0|0:0,0:0:0:0:
156,80,126992,2,0,B|108:76|91:13|91:13|28:48,1,150.000005722046
64,232,127300,1,0,0:0:0:0:
260,296,127454,6,0,P|293:297|341:272,1,50,8|0,0:0|0:0,0:0:0:0:
408,184,127607,2,0,P|414:208|416:280,1,50,8|0,0:0|0:0,0:0:0:0:
316,216,127761,1,4,0:0:0:0:
143,280,127915,6,8,P|174:279|198:249,1,50
196,93,128069,2,8,P|214:117|213:150,1,50,8|0,0:0|0:0,0:0:0:0:
78,193,128223,2,8,P|107:194|135:166,1,50
107,74,128377,2,0,B|123:41|123:41|205:-21|280:26|280:26|291:97|391:91,1,300.000011444092,8|8,0:0|0:0,0:0:0:0:
276,300,128838,5,0,0:0:0:0:
488,220,128992,1,0,0:0:0:0:
204,320,129146,2,0,B|189:263|248:228|248:228|252:176,1,150.000005722046,0|8,0:0|0:0,0:0:0:0:
92,60,129454,6,0,B|108:24|108:24|156:0|288:32,1,150.000005722046
400,136,129761,2,0,B|409:172|409:172|361:204|381:272,1,150.000005722046,0|8,0:0|0:0,0:0:0:0:
140,344,130069,2,0,P|123:320|116:288,1,50
168,240,130223,2,0,P|183:260|191:284,1,50
92,236,130377,2,0,B|64:192|64:192|144:168|168:104|168:104|236:68|296:160,1,300.000011444092
380,336,130838,6,0,B|436:324|436:324|516:232|428:140|428:140|434:105,1,300.000011444092,0|8,0:0|0:0,0:0:0:0:
360,248,131300,1,0,0:0:0:0:
348,32,131454,1,0,0:0:0:0:
180,204,131607,6,0,P|152:199|134:186,1,50
152,92,131761,2,0,P|176:100|189:119,1,50,8|0,0:0|0:0,0:0:0:0:
80,136,131915,2,0,B|44:120|44:120|28:64|96:28,1,150.000005722046
284,44,132223,2,0,B|342:39|382:86|382:86|390:124,1,150.000005722046,0|8,0:0|0:0,0:0:0:0:
232,324,132530,2,0,B|204:351|204:351|148:319|159:258,1,150.000005722046
164,72,132838,5,0,0:0:0:0:
372,60,132992,1,8,0:0:0:0:
296,276,133146,2,0,P|280:268|260:244,1,50
328,200,133300,2,0,P|352:205|371:221,1,50
368,304,133454,2,0,P|352:336|300:344,1,50
240,344,133607,2,0,P|211:309|204:260,1,50,8|0,0:0|0:0,0:0:0:0:
188,232,133761,2,0,B|164:188|164:188|104:168|32:220,1,150.000005722046
164,320,134069,5,0,0:0:0:0:
48,168,134223,1,8,0:0:0:0:
168,52,134377,2,0,P|195:47|244:60,1,50
216,136,134530,2,0,P|217:162|236:200,1,50
320,148,134684,2,0,P|328:126|324:98,1,50
300,28,134838,2,0,P|321:19|349:31,1,50,8|0,0:0|0:0,0:0:0:0:
432,108,134992,2,0,B|475:146|407:194|407:194|431:238,1,150.000005722046
288,348,135300,6,0,B|275:319|275:319|208:288|136:320,1,150.000005722046,0|8,0:0|0:0,0:0:0:0:
40,148,135607,2,0,B|32:108|32:108|84:80|138:95,1,150.000005722046
404,180,135915,2,0,B|412:220|412:220|360:248|270:225,1,150.000005722046,0|8,0:0|0:0,0:0:0:0:
224,68,136223,2,0,B|188:66|152:52|135:10|135:10|124:28|124:28|48:20,2,150.000005722046
440,128,136684,5,8,0:0:0:0:
424,292,136838,1,0,0:0:0:0:
232,328,136992,2,0,B|198:306|198:306|136:344|56:308,1,150.000005722046
48,136,137300,2,0,B|11:80|35:28|35:28|67:8,1,150.000005722046,8|8,0:0|0:0,0:0:0:0:
248,88,137761,5,8,0:0:0:0:
152,244,137915,1,8,0:0:0:0:
472,332,138223,1,12,0:0:0:0:
100,236,138530,5,0,0:0:0:0:
232,364,138684,2,0,B|248:369|248:369|288:348|288:300,1,75.0000028610231,0|8,0:0|0:0,0:0:0:0:
344,156,138992,1,0,0:0:0:0:
48,112,139300,5,0,0:0:0:0:
352,16,139607,1,0,0:0:0:0:
352,264,139915,1,0,0:0:0:0:
348,116,140070,2,0,P|332:100|288:96,1,50,8|0,0:0|0:0,0:0:0:0:
208,256,140377,2,0,P|231:276|252:280,1,50
432,128,140684,5,0,0:0:0:0:
388,296,140838,2,0,B|371:300|371:300|353:342|316:344,1,75.0000028610231
192,224,141146,2,0,B|152:204|100:248,2,75.0000028610231,0|8|0,0:0|0:0|0:0,0:0:0:0:
8,384,141761,5,0,0:0:0:0:
136,88,142069,1,0,0:0:0:0:
344,200,142223,1,0,0:0:0:0:
160,288,142377,1,0,0:0:0:0:
292,252,142531,2,2,B|292:280|292:280|296:252|296:252|296:280|296:280|300:252|300:252|300:280|300:280|304:252|304:252|304:280|304:280|308:252|308:252|308:280|308:280|312:252|312:252|312:280,1,300,10|2,0:0|0:0,0:0:0:0:
424,136,143146,1,0,0:0:0:0:
200,16,143454,5,0,0:0:0:0:
80,120,143608,2,0,B|51:133|51:133|52:163|32:192,1,75.0000028610231,0|8,0:0|0:0,0:0:0:0:
136,308,143916,1,0,0:0:0:0:
328,32,144224,5,0,0:0:0:0:
456,304,144531,1,0,0:0:0:0:
176,200,144839,1,0,0:0:0:0:
248,88,144994,2,0,B|224:68|192:84,1,50,8|0,0:0|0:0,0:0:0:0:
128,296,145301,2,0,P|149:302|177:299,1,50
340,188,145607,1,0,0:0:0:0:
64,32,145915,5,0,0:0:0:0:
244,124,146069,2,0,P|256:155|244:196,1,75.0000028610231,0|8,0:0|0:0,0:0:0:0:
140,336,146377,2,0,P|180:359|209:360,1,75.0000028610231
452,224,146684,6,2,B|440:200|440:200|408:216|408:216|436:188|436:188|400:200|400:200|388:128|388:128|338:88|196:116,1,340.000006484985,0|8,0:0|0:0,0:0:0:0:
260,268,147146,1,0,0:0:0:0:
72,208,147300,2,2,B|47:254|47:254|99:290|83:358,2,170.000003242493
264,92,147761,1,8,0:0:0:0:
12,16,148069,1,4,0:0:0:0:
324,184,148377,5,8,0:0:0:0:
236,352,148531,2,0,B|196:357|176:388|176:388|124:336,1,100
32,212,148839,1,0,0:0:0:0:
236,4,149147,5,0,0:0:0:0:
248,280,149454,1,0,0:0:0:0:
484,84,149762,1,0,0:0:0:0:
436,244,149917,2,0,B|408:276|408:276|344:292|236:244,1,150.000005722046
176,68,150224,2,0,B|203:37|203:37|267:21|350:65,1,170.000003242493,8|0,0:0|0:0,0:0:0:0:
432,244,150531,5,0,0:0:0:0:
228,288,150684,2,0,B|204:308|204:308|221:354|169:357,1,100,0|8,0:0|0:0,0:0:0:0:
18,113,150993,2,0,B|36:96|36:96|64:108|84:152,2,100
240,352,151608,5,0,0:0:0:0:
428,104,151916,1,0,0:0:0:0:
276,164,152070,1,8,0:0:0:0:
112,212,152224,1,0,0:0:0:0:
40,80,152378,2,2,B|80:68|80:68|64:48|64:48|92:64|92:64|76:40|76:40|104:60|104:60|88:36|88:36|240:4|216:104|216:104|372:152,1,510.000009727478,2|6,0:0|0:0,0:0:0:0:
476,176,152993,1,0,0:0:0:0:
112,200,153301,5,8,0:0:0:0:
260,368,153455,2,0,B|292:368|292:368|313:336|372:304,1,100
452,192,153763,1,0,0:0:0:0:
188,56,154071,5,0,0:0:0:0:
56,316,154378,1,0,0:0:0:0:
388,260,154686,1,0,0:0:0:0:
400,80,154841,2,0,B|376:60|376:60|296:56|236:128,1,150.000005722046
216,316,155148,2,0,B|225:345|225:345|304:348|388:272,1,170.000003242493,8|0,0:0|0:0,0:0:0:0:
452,188,155454,1,0,0:0:0:0:
208,60,155762,5,8,0:0:0:0:
44,148,155916,2,0,B|59:167|59:167|16:200|36:244,1,100
272,288,156224,2,0,B|244:312|244:312|196:328|152:296,1,100
32,232,156530,1,0,0:0:0:0:
116,24,156839,6,0,B|140:8|140:8|176:-4|244:32,1,100,8|0,0:0|0:0,0:0:0:0:
264,224,157147,2,0,B|222:240|186:224|186:224|174:192,1,100,8|8,0:0|0:0,0:0:0:0:
352,160,157453,6,8,L|416:128,1,50
440,204,157608,2,8,P|469:186|476:168,1,50
460,88,157762,2,8,P|440:64|408:48,1,50
328,48,157915,1,8,0:0:0:0:
248,192,158069,6,0,P|222:210|164:228,1,50
128,184,158223,2,0,P|98:172|72:140,1,50,8|0,0:0|0:0,0:0:0:0:
192,116,158377,2,0,P|164:99|146:95,1,50
68,72,158530,2,0,P|38:75|12:88,1,50,8|0,0:0|0:0,0:0:0:0:
8,168,158684,2,2,B|10:186|10:186|0:180|0:180|8:200|8:200|24:180|24:180|32:192|32:192|24:240|48:268|48:268|96:280,1,200
392,284,159146,6,0,B|376:248|380:224|380:224|360:220,1,75.0000028610231,4|0,0:0|0:0,0:0:0:0:
224,336,159453,1,0,0:0:0:0:
84,244,159607,2,0,B|52:208|80:168|80:168|104:160,1,75.0000028610231
204,80,159915,6,0,B|213:59|213:59|204:24|160:8,1,75.0000028610231
8,176,160223,2,0,B|20:197|20:197|35:207|88:204,1,75.0000028610231
240,224,160530,2,0,B|264:204|264:204|308:200|324:168,1,75.0000028610231
324,24,160838,2,0,B|392:24|392:24|492:68|464:172|464:172|520:224,1,300.000011444092
432,356,161607,1,0,0:0:0:0:
320,200,161761,1,0,0:0:0:0:
244,360,161915,1,0,0:0:0:0:
208,192,162069,6,0,P|163:176|124:180,1,75.0000028610231,0|0,0:0|0:0,0:0:0:0:
20,296,162377,2,0,P|39:324|84:344,1,75.0000028610231
280,264,162684,2,0,P|313:252|340:224,1,75.0000028610231
112,80,162992,2,0,P|90:104|82:148,1,75.0000028610231
352,60,163300,2,0,B|344:8|344:8|288:-16|228:16,1,150.000005722046
84,180,163761,6,0,P|103:213|164:228,1,75.0000028610231
288,328,164069,2,0,P|317:337|364:320,1,50
324,256,164223,2,0,P|352:257|388:272,1,50
428,336,164377,2,0,P|456:308|468:276,1,50
444,200,164530,2,0,P|404:180|324:180,1,100
168,332,164838,6,0,B|144:337|144:337|108:316|80:252,1,100
180,172,165146,2,0,P|203:155|232:116,1,50
196,68,165300,2,0,P|224:56|264:68,1,50
288,124,165453,2,0,P|308:116|340:88,1,50
316,24,165607,2,0,P|360:30|420:60,1,100
480,200,165915,5,0,0:0:0:0:
280,248,166069,1,0,0:0:0:0:
404,384,166223,1,0,0:0:0:0:
204,330,166377,2,0,B|152:312|152:312|136:272|172:224,1,150.000005722046
252,32,166838,2,0,P|278:26|316:40,1,50
272,112,166992,2,0,P|238:113|200:96,1,50
168,48,167146,2,0,P|148:68|136:104,1,50
108,168,167300,2,0,B|48:132|52:100|52:100|68:72,1,100
460,52,167607,6,2,B|436:36|436:36|414:71|340:80,1,100
76,136,167915,2,2,B|84:168|84:168|106:205|204:224,1,129.999994049073
464,176,168223,2,2,B|469:211|469:211|456:264|392:276|392:276|384:340,1,160
40,308,168530,2,2,B|72:312|72:312|88:372|140:380|140:380|176:340|248:340,1,189.999994926453
256,160,168838,1,0,0:0:0:0:
480,96,168992,6,0,P|488:116|485:143,1,50,4|0,0:0|0:0,0:0:0:0:
368,200,169146,2,0,P|363:173|375:150,1,50
380,40,169300,2,0,B|384:4|316:-12|316:-12|260:16,1,150.000005722046,8|0,0:0|0:0,0:0:0:0:
24,248,169608,5,0,0:0:0:0:
144,0,169762,1,0,0:0:0:0:
252,176,169916,2,0,B|300:216|300:216|416:200|467:136|467:136|452:72,1,300.000011444092,8|0,0:0|0:0,0:0:0:0:
176,16,170377,2,0,B|105:3|105:3|13:63|8:132|8:132|60:200,1,300.000011444092
340,368,170839,5,0,0:0:0:0:
12,300,170992,1,0,0:0:0:0:
308,168,171146,2,0,P|303:143|291:123,1,50,8|0,0:0|0:0,0:0:0:0:
180,124,171300,2,0,P|184:148|204:176,1,50
264,256,171454,2,0,B|316:268|348:256|370:363|370:363|466:303|444:212,1,340.000006484985,0|8,0:0|0:0,0:0:0:0:
396,0,171916,5,0,0:0:0:0:
80,28,172069,1,0,0:0:0:0:
108,244,172223,6,0,P|120:260|146:275,1,50
196,188,172377,2,0,P|184:160|148:152,1,50,8|0,0:0|0:0,0:0:0:0:
64,148,172531,2,0,B|20:160|20:160|-36:216|24:292,1,170.000003242493
280,384,172839,2,0,B|340:380|340:380|400:348|400:260,1,170.000003242493,0|8,0:0|0:0,0:0:0:0:
376,52,173146,2,0,B|404:12|452:8|452:8|520:72,1,170.000003242493
444,352,173454,5,0,0:0:0:0:
508,64,173608,1,8,0:0:0:0:
268,160,173762,2,0,P|245:175|230:191,1,50
316,276,173916,2,0,P|292:296|274:301,1,50
144,296,174069,2,0,P|110:269|96:236,1,50
228,192,174223,2,0,P|204:164|172:164,1,50,8|0,0:0|0:0,0:0:0:0:
56,168,174377,2,0,B|32:151|32:151|36:76|116:44,1,170.000003242493
404,16,174685,5,0,0:0:0:0:
368,256,174839,1,8,0:0:0:0:
186,69,174992,2,0,P|187:96|183:117,1,50
56,104,175146,2,0,P|54:135|60:151,1,50
180,216,175299,2,0,P|165:244|153:257,1,50
16,252,175453,2,0,P|23:281|33:297,1,50,8|0,0:0|0:0,0:0:0:0:
148,352,175608,2,0,B|180:362|180:362|260:328|264:264|264:264|220:148|352:128,1,340.000006484985
512,384,176069,5,8,0:0:0:0:
408,92,176223,1,0,0:0:0:0:
360,316,176377,2,0,B|288:344|225:339|225:339|206:371,1,170.000003242493
36,184,176684,2,0,B|-12:144|-12:144|-4:84|92:36,1,170.000003242493,8|0,0:0|0:0,0:0:0:0:
292,88,176992,6,0,P|292:116|279:135,1,50
196,64,177146,2,0,P|200:42|216:20,1,50
344,12,177300,2,0,P|365:27|377:47,1,50,8|0,0:0|0:0,0:0:0:0:
380,148,177454,2,0,B|380:192|380:192|356:236|240:232,1,150.000005722046
0,100,177762,1,0,0:0:0:0:
144,268,177916,6,0,P|157:299|167:311,1,50,8|0,0:0|0:0,0:0:0:0:
352,368,178069,2,0,P|373:355|393:339,1,50,8|0,0:0|0:0,0:0:0:0:
288,256,178223,1,4,0:0:0:0:
128,148,178377,6,8,P|142:175|158:183,1,50
296,136,178531,2,8,P|312:126|326:99,1,50
140,56,178685,2,8,P|123:45|112:19,1,50
300,8,178839,2,0,B|336:8|336:8|428:56|416:144|416:144|344:208|420:296,1,340.000006484985,8|8,0:0|0:0,0:0:0:0:
244,324,179300,5,0,0:0:0:0:
512,208,179454,1,0,0:0:0:0:
160,336,179608,2,0,B|161:287|221:263|221:263|224:188,1,170.000003242493,0|8,0:0|0:0,0:0:0:0:
404,60,179916,6,0,B|388:24|388:24|340:0|200:32,1,170.000003242493
72,208,180223,2,0,B|24:276|24:276|40:336|148:320,1,170.000003242493,0|8,0:0|0:0,0:0:0:0:
392,288,180531,2,0,P|409:264|416:232,1,50
320,228,180685,2,0,P|320:212|344:188,1,50
408,136,180839,2,0,B|357:57|289:93|289:93|268:160|196:160|196:160|260:256,1,340.000006484985
68,372,181300,6,0,B|12:360|12:360|-68:268|20:176|20:176|0:92,1,340.000006484985,0|8,0:0|0:0,0:0:0:0:
208,256,181761,1,0,0:0:0:0:
104,0,181916,1,0,0:0:0:0:
264,164,182069,6,0,P|292:159|310:146,1,50
288,32,182223,2,0,P|264:40|251:59,1,50,8|0,0:0|0:0,0:0:0:0:
380,72,182377,2,0,B|439:101|427:161|427:161|376:224,1,170.000003242493
128,72,182685,2,0,B|176:0|240:24|240:24|266:112,1,170.000003242493,0|8,0:0|0:0,0:0:0:0:
112,304,182992,2,0,B|72:319|72:319|0:292|32:200,1,170.000003242493
192,24,183300,5,0,0:0:0:0:
460,88,183454,1,8,0:0:0:0:
284,312,183608,6,0,P|268:304|248:280,1,50
328,224,183762,2,0,P|352:229|371:245,1,50
444,316,183916,2,0,P|455:308|471:276,1,50
420,176,184069,2,0,P|396:152|344:140,1,50,8|0,0:0|0:0,0:0:0:0:
320,88,184223,2,0,B|276:64|276:64|252:8|144:16,1,170.000003242493
0,172,184531,5,0,0:0:0:0:
156,384,184685,1,8,0:0:0:0:
0,172,184839,2,0,P|32:172|80:152,1,50
148,156,184992,2,0,P|149:130|168:92,1,50
256,128,185146,2,0,P|276:132|320:132,1,50
324,56,185300,2,0,P|328:36|300:-20,1,50,8|0,0:0|0:0,0:0:0:0:
232,36,185454,2,0,B|176:8|176:8|108:12|48:96,1,170.000003242493
200,368,185762,6,0,B|248:391|315:360|315:360|340:304,1,170.000003242493,0|8,0:0|0:0,0:0:0:0:
464,80,186069,2,0,B|472:40|472:40|420:12|328:32,1,170.000003242493
16,172,186377,2,0,B|8:212|8:212|60:240|180:200,1,170.000003242493,0|8,0:0|0:0,0:0:0:0:
364,376,186685,2,0,B|424:380|424:380|448:324|524:324,2,170.000003242493,0|8|0,0:0|0:0|0:0,0:0:0:0:
64,268,187146,6,0,B|20:272|20:272|-28:232|4:148,1,170.000003242493
240,48,187453,2,0,B|229:8|229:8|153:44|109:4,1,170.000003242493,8|0,0:0|0:0,0:0:0:0:
512,88,187761,2,0,B|460:56|392:92|392:92|380:136,1,170.000003242493,0|8,0:0|0:0,0:0:0:0:
132,304,188069,2,0,B|136:340|93:383|93:383|-4:384,2,170.000003242493,0|8|0,0:0|0:0|0:0,0:0:0:0:
324,24,188530,6,0,B|274:10|274:10|204:24|192:112,1,170.000003242493
376,296,188838,2,0,B|404:352|404:352|460:376|580:336,1,170.000003242493,0|8,0:0|0:0,0:0:0:0:
0,212,189146,2,0,B|16:156|16:156|64:212|192:192,1,170.000003242493
488,72,189453,2,0,B|460:60|460:60|405:112|333:60,3,170.000003242493,8|0|0|8,0:0|0:0|0:0|0:0,0:0:0:0:
92,348,190069,6,0,B|172:332|184:264|184:264|268:260,1,170.000003242493
420,112,190377,6,0,B|340:128|328:196|328:196|291:197,1,170.000003242493
420,348,190684,1,0,0:0:0:0:
92,108,190838,6,0,B|172:124|184:192|184:192|220:193,1,170.000003242493
260,4,191146,1,4,0:0:0:0:
0,348,191453,5,8,0:0:0:0:
144,80,191607,2,0,B|160:75|160:75|184:120|280:140,1,119.999996337891
504,132,191915,1,0,0:0:0:0:
184,384,192223,5,0,0:0:0:0:
0,48,192530,1,0,0:0:0:0:
352,152,192838,1,0,0:0:0:0:
72,68,192993,2,0,B|100:36|100:36|164:20|272:68,1,150.000005722046
224,300,193300,2,0,B|252:332|252:332|316:348|424:300,1,150.000005722046,8|0,0:0|0:0,0:0:0:0:
512,180,193607,5,0,0:0:0:0:
340,40,193761,2,0,B|307:12|307:12|240:4|188:60,1,119.999996337891,0|8,0:0|0:0,0:0:0:0:
260,308,194069,2,0,B|224:332|184:332|184:332|144:300,2,119.999996337891
512,80,194684,5,0,0:0:0:0:
152,0,194992,1,0,0:0:0:0:
0,152,195146,1,8,0:0:0:0:
84,328,195300,1,0,0:0:0:0:
296,360,195454,2,2,B|336:348|336:348|320:328|320:328|348:344|348:344|332:320|332:320|360:340|360:340|344:316|344:316|372:332|372:332|272:280|264:184|264:184|368:128,1,510.000009727478,2|2,0:0|0:0,0:0:0:0:
488,56,196069,1,4,0:0:0:0:
512,368,196377,5,8,0:0:0:0:
264,352,196531,2,0,B|231:357|184:356|184:356|152:284,1,119.999996337891
96,80,196839,1,0,0:0:0:0:
436,0,197147,5,0,0:0:0:0:
392,364,197454,1,0,0:0:0:0:
36,264,197762,1,0,0:0:0:0:
24,56,197917,2,0,B|53:14|133:18|133:18|157:38,1,150.000005722046
320,284,198224,2,0,B|376:284|376:284|428:228|376:140,1,150.000005722046,8|0,0:0|0:0,0:0:0:0:
296,0,198530,1,0,0:0:0:0:
0,160,198838,5,8,0:0:0:0:
232,320,198992,2,0,B|220:356|220:356|180:380|88:364,1,119.999996337891
88,100,199300,2,0,B|80:48|124:16|124:16|180:32,1,119.999996337891,0|8,0:0|0:0,0:0:0:0:
420,160,199607,2,0,B|388:180|376:216|376:216|324:204,1,119.999996337891
88,104,199915,2,0,B|54:84|54:84|18:96|-4:164,1,119.999996337891,0|8,0:0|0:0,0:0:0:0:
180,352,200223,2,0,B|204:376|204:376|236:380|296:344,1,119.999996337891,8|0,0:0|0:0,0:0:0:0:
392,256,200530,6,8,P|366:219|364:184,1,59.9999981689454
476,192,200684,2,8,P|505:174|512:156,1,50
424,104,200838,2,8,P|404:80|372:64,1,50
284,36,200992,2,0,B|246:23|246:23|208:45|140:28,1,139.999995727539,8|0,0:0|0:0,0:0:0:0:
0,212,201300,5,8,0:0:0:0:
248,372,201454,2,0,B|276:381|276:381|300:336|360:304,1,139.999995727539
512,140,201762,1,0,0:0:0:0:
64,200,202070,5,0,0:0:0:0:
368,4,202377,1,0,0:0:0:0:
400,384,202685,1,0,0:0:0:0:
372,108,202840,2,0,B|344:76|344:76|280:60|160:120,1,160
28,344,203147,2,0,B|56:376|56:376|120:392|232:336,1,160,8|0,0:0|0:0,0:0:0:0:
408,116,203454,5,0,0:0:0:0:
280,340,203608,2,0,B|228:324|196:376|196:376|140:364,1,139.999995727539,0|8,0:0|0:0,0:0:0:0:
80,96,203916,2,0,B|72:28|32:20|32:20|-12:64,2,139.999995727539
16,384,204531,5,0,0:0:0:0:
440,240,204839,1,0,0:0:0:0:
188,56,204993,1,8,0:0:0:0:
184,280,205147,1,0,0:0:0:0:
360,200,205301,2,2,B|400:188|400:188|384:168|384:168|412:184|412:184|396:160|396:160|424:180|424:180|408:156|408:156|436:172|436:172|420:152|420:152|440:160|440:160|440:148|440:148|436:140|436:140|428:100|324:112|308:16|308:16|220:56|212:152,1,600
184,280,205916,1,4,0:0:0:0:
0,4,206223,5,8,0:0:0:0:
60,232,206378,2,0,B|92:252|92:252|144:248|212:164,1,139.999995727539
340,32,206686,1,0,0:0:0:0:
512,384,206994,5,0,0:0:0:0:
256,4,207301,1,0,0:0:0:0:
0,384,207609,1,0,0:0:0:0:
192,116,207764,2,0,B|168:96|168:96|88:92|28:164,1,150.000005722046
176,344,208071,2,0,B|185:373|185:373|264:376|324:312,1,150.000005722046,8|0,0:0|0:0,0:0:0:0:
464,224,208377,1,0,0:0:0:0:
512,0,208685,5,8,0:0:0:0:
264,20,208839,2,0,B|220:32|220:32|208:92|256:116,1,139.999995727539
432,320,209147,2,0,B|420:368|420:368|320:396|292:344,1,139.999995727539
88,384,209453,6,0,B|39:368|39:368|-8:320|-4:268,1,139.999995727539
40,48,209762,2,0,B|68:16|68:16|124:8|208:76,1,139.999995727539,0|8,0:0|0:0,0:0:0:0:
172,288,210069,6,0,P|192:300|252:312,1,50,8|0,0:0|0:0,0:0:0:0:
268,200,210223,2,0,P|296:200|344:240,1,50,8|0,0:0|0:0,0:0:0:0:
356,316,210377,2,0,P|387:311|436:292,1,50,8|0,0:0|0:0,0:0:0:0:
436,192,210531,2,0,P|465:174|472:156,1,50,8|0,0:0|0:0,0:0:0:0:
404,76,210685,2,0,P|384:52|352:36,1,50,8|0,0:0|0:0,0:0:0:0:
