osu file format v12

[General]
AudioFilename: Outer Science.mp3
AudioLeadIn: 0
PreviewTime: 59453
Countdown: 0
SampleSet: Normal
StackLeniency: 0.7
Mode: 0
LetterboxInBreaks: 1

[Editor]
Bookmarks: 377,5300,10223,20069,29915,39761,49607,59453,69300,79146,168992
DistanceSpacing: 1.5
BeatDivisor: 4
GridSize: 8

[Metadata]
Title:Outer Science
TitleUnicode:アウターサイエンス
Artist:Jin
ArtistUnicode:じん
Creator:_Asagi_
Version:Mira
Source:
Tags:asagi mira-san shanaai ia jin outer science vocaloid topecnz
BeatmapID:272447
BeatmapSetID:103013

[Difficulty]
HPDrainRate:6
CircleSize:4
OverallDifficulty:7
ApproachRate:9
SliderMultiplier:1.8
SliderTickRate:2

[Events]
//Background and Video events
0,0,"IA.jpg",0,0
//Break Periods
2,79346,88084
2,159346,167007
//Storyboard Layer 0 (Background)
//Storyboard Layer 1 (Fail)
//Storyboard Layer 2 (Pass)
//Storyboard Layer 3 (Foreground)
//Storyboard Sound Samples
//Background Colour Transformations
3,100,163,162,255

[TimingPoints]
377,307.692307692308,4,1,0,60,1,0
10223,-76.9230769230769,4,1,0,60,0,1
10261,-100,4,1,0,60,0,1
10838,-100,4,1,0,60,0,0
24377,-66.6666666666667,4,1,0,60,0,0
24992,-100,4,1,0,60,0,1
25146,-100,4,1,0,60,0,0
29915,-100,4,1,0,60,0,0
32300,-100,4,1,0,60,0,0
37241,-133.333333333333,4,1,0,60,0,0
37684,-100,4,1,0,60,0,0
46607,-100,4,1,0,60,0,0
49530,-133.333333333333,4,2,0,30,0,0
56915,-100,4,1,0,60,0,0
59146,-66.6666666666667,4,1,0,60,0,1
69223,-66.6666666666667,4,1,0,60,0,0
69300,-66.6666666666667,4,1,0,60,0,1
79146,-100,4,1,0,60,0,0
83453,-66.6666666666667,4,1,0,60,0,0
84069,-100,4,1,0,60,0,0
108684,-133.333333333333,4,2,0,30,0,0
116069,-100,4,1,0,60,0,0
117607,-133.333333333333,4,1,0,60,0,0
118530,-66.6666666666667,4,1,0,60,0,1
128300,-66.6666666666667,4,1,0,60,0,0
128377,-66.6666666666667,4,1,0,60,0,1
138453,-133.333333333333,4,2,0,30,0,0
146530,-66.6666666666667,4,2,0,60,0,0
146915,-100,4,1,0,60,0,0
148069,-80,4,1,0,60,0,0
168992,-66.6666666666667,4,1,0,60,0,1
178761,-66.6666666666667,4,1,0,60,0,0
178838,-66.6666666666667,4,1,0,60,0,1
191146,-100,4,1,0,40,0,0
195453,-66.6666666666667,4,1,0,40,0,0
196069,-100,4,1,0,40,0,0
205300,-66.6666666666667,4,1,0,40,0,0
205915,-100,4,1,0,40,0,0

[Colours]
Combo1 : 255,0,128
Combo2 : 0,255,255
Combo3 : 255,255,0
Combo4 : 255,128,0
Combo5 : 128,0,255

[HitObjects]
256,192,2838,12,0,5146,0:0:0:0:
104,60,5300,6,0,P|124:172|208:208,1,180
288,132,5761,1,0,0:0:0:0:
288,132,5838,1,0,0:0:0:0:
288,132,5915,1,0,0:0:0:0:
376,236,6069,2,0,P|400:284|368:348,1,90
260,304,6377,2,0,P|193:326|148:298,1,90
176,320,6684,1,0,0:0:0:0:
72,232,6838,5,0,0:0:0:0:
124,108,6992,1,0,0:0:0:0:
72,232,7146,1,0,0:0:0:0:
124,108,7300,2,0,P|192:68|232:80,1,90
332,92,7607,5,0,0:0:0:0:
332,92,7684,1,0,0:0:0:0:
332,92,7761,1,0,0:0:0:0:
316,228,7915,2,0,P|256:248|208:232,1,90
124,160,8223,1,0,0:0:0:0:
220,64,8377,2,0,P|300:60|344:140,1,180
312,272,8838,6,0,P|292:314|224:328,1,90,0|8,0:0|0:0,0:0:0:0:
148,248,9146,2,0,P|172:200|224:180,1,90,0|8,0:0|0:0,0:0:0:0:
336,192,9453,2,0,P|336:240|304:276,1,90,0|8,0:0|0:0,0:0:0:0:
204,184,9761,1,0,0:0:0:0:
268,68,9915,1,8,0:0:0:0:
216,304,10223,6,0,B|188:364|188:364|264:388|312:332|312:332|360:348,1,233.999989288331,4|8,0:0|0:0,0:0:0:0:
476,344,10684,2,0,P|500:284|476:232,1,90
424,144,10992,1,0,0:0:0:0:
424,144,11069,1,0,0:0:0:0:
424,144,11146,1,8,0:0:0:0:
308,72,11300,2,0,P|264:120|216:128,1,90
268,260,11607,2,0,P|312:212|360:204,1,90,0|8,0:0|0:0,0:0:0:0:
332,204,11915,1,0,0:0:0:0:
380,332,12069,1,0,0:0:0:0:
332,204,12223,1,0,0:0:0:0:
380,332,12377,6,0,P|338:349|260:332,1,90,8|0,0:0|0:0,0:0:0:0:
164,384,12684,2,0,P|160:316|188:268,1,90
68,204,12992,2,0,P|72:272|44:320,1,90,8|0,0:0|0:0,0:0:0:0:
184,152,13300,2,0,P|180:84|188:65,1,90
304,156,13607,2,0,P|311:175|307:243,1,90,8|0,0:0|0:0,0:0:0:0:
308,244,13915,1,0,0:0:0:0:
408,156,14069,1,0,0:0:0:0:
352,32,14223,1,8,0:0:0:0:
216,32,14377,1,0,0:0:0:0:
268,156,14530,1,0,0:0:0:0:
132,160,14684,2,0,P|100:228|104:272,2,90,0|8|0,0:0|0:0|0:0,0:0:0:0:
260,84,15146,6,0,P|316:104|360:96,1,90
384,232,15453,1,8,0:0:0:0:
384,232,15530,1,0,0:0:0:0:
384,232,15607,1,0,0:0:0:0:
268,300,15761,2,0,P|212:280|168:288,1,90
144,152,16068,1,8,0:0:0:0:
144,152,16145,1,0,0:0:0:0:
144,152,16222,1,0,0:0:0:0:
260,84,16377,6,0,L|352:120,1,90
212,148,16684,2,0,L|328:192,1,90,8|0,0:0|0:0,0:0:0:0:
164,212,16992,2,0,L|280:256,1,90
116,280,17300,2,0,L|232:324,1,90,8|0,0:0|0:0,0:0:0:0:
336,276,17607,6,0,P|384:240|396:188,1,90
284,132,17915,1,8,0:0:0:0:
284,132,17992,1,0,0:0:0:0:
284,132,18069,1,0,0:0:0:0:
336,276,18223,5,0,0:0:0:0:
200,264,18377,1,0,0:0:0:0:
284,132,18530,2,0,P|208:104|168:108,1,90,8|0,0:0|0:0,0:0:0:0:
200,103,18838,1,0,0:0:0:0:
268,220,18992,2,0,P|344:248|384:244,1,90,0|8,0:0|0:0,0:0:0:0:
460,168,19300,1,0,0:0:0:0:
368,72,19453,6,0,P|316:52|268:52,1,90
148,40,19761,1,8,0:0:0:0:
100,164,19915,1,0,0:0:0:0:
100,164,20069,1,0,0:0:0:0:
164,284,20223,5,0,0:0:0:0:
248,180,20377,2,0,P|268:136|304:100,1,90,10|0,0:0|0:0,0:0:0:0:
296,105,20607,1,0,0:0:0:0:
296,105,20684,1,0,0:0:0:0:
384,208,20838,2,0,P|364:252|335:282,1,90,0|10,0:0|0:0,0:0:0:0:
248,180,21146,6,0,P|228:136|192:100,1,90
199,105,21376,1,0,0:0:0:0:
199,105,21453,1,0,0:0:0:0:
112,208,21607,2,0,P|132:252|160:282,1,90,10|0,0:0|0:0,0:0:0:0:
296,288,21915,5,0,0:0:0:0:
428,256,22069,1,0,0:0:0:0:
336,156,22223,1,10,0:0:0:0:
296,284,22377,1,0,0:0:0:0:
180,216,22530,1,0,0:0:0:0:
296,288,22684,1,0,0:0:0:0:
428,256,22838,2,0,P|448:188|404:80,1,180,10|0,0:0|0:0,0:0:0:0:
412,88,23300,5,0,0:0:0:0:
276,84,23453,1,10,0:0:0:0:
156,148,23607,2,0,P|128:204|136:248,1,90
208,212,23915,2,0,P|218:273|250:304,1,90
372,296,24223,1,0,0:0:0:0:
440,140,24377,2,2,B|344:120|344:120|376:112|376:112|344:120|344:120|380:128|380:128|344:120|344:120|368:140|368:140|344:120|344:120|284:100|284:100|308:108|308:108|284:100|284:100|296:116|296:116|284:100|284:100|304:96|304:96|284:100|284:100|220:76,1,540.000020599366,2|0,0:0|0:0,0:0:0:0:
108,88,25146,1,0,0:0:0:0:
100,228,25300,1,10,0:0:0:0:
100,228,25377,1,0,0:0:0:0:
100,228,25453,1,0,0:0:0:0:
208,316,25607,6,0,L|308:316,1,90
408,236,25915,1,10,0:0:0:0:
408,236,25992,1,0,0:0:0:0:
408,236,26069,1,0,0:0:0:0:
296,156,26223,2,0,P|244:128|224:64,1,90
360,76,26530,1,10,0:0:0:0:
360,76,26607,1,0,0:0:0:0:
360,76,26684,1,0,0:0:0:0:
216,228,26838,2,0,P|268:256|288:320,1,90
152,308,27145,1,10,0:0:0:0:
152,308,27222,1,0,0:0:0:0:
152,308,27299,1,0,0:0:0:0:
84,192,27453,6,0,P|168:172|192:80,1,180,0|10,0:0|0:0,0:0:0:0:
308,164,27915,1,0,0:0:0:0:
308,164,28069,2,0,P|296:244|380:304,1,180,0|10,0:0|0:0,0:0:0:0:
448,196,28530,1,0,0:0:0:0:
376,84,28684,2,0,L|476:108,3,90
192,112,29453,2,2,B|160:118|160:118|144:108|144:108|124:123|124:123|100:112|100:112|85:131|85:131|36:196,1,180,2|0,0:0|0:0,0:0:0:0:
120,304,29915,6,0,P|184:328|228:316,1,90
203,325,30223,1,8,0:0:0:0:
316,252,30377,2,0,P|252:228|208:240,1,90
120,304,30684,1,0,0:0:0:0:
232,232,30838,2,0,P|248:180|244:120,1,90,8|0,0:0|0:0,0:0:0:0:
120,188,31146,1,0,0:0:0:0:
188,72,31300,1,0,0:0:0:0:
188,72,31377,1,0,0:0:0:0:
188,72,31453,1,8,0:0:0:0:
324,80,31607,2,0,L|432:80,1,90
396,216,31915,1,0,0:0:0:0:
260,220,32069,5,8,0:0:0:0:
260,220,32146,1,0,0:0:0:0:
260,220,32223,1,0,0:0:0:0:
124,220,32377,1,0,0:0:0:0:
260,220,32530,2,0,P|276:152|268:116,2,90,0|8|0,0:0|0:0|0:0,0:0:0:0:
192,336,32992,1,0,0:0:0:0:
192,336,33069,1,0,0:0:0:0:
192,336,33146,1,0,0:0:0:0:
328,336,33300,6,0,P|376:328|416:292,1,90,8|0,0:0|0:0,0:0:0:0:
292,236,33607,2,0,P|244:244|204:280,2,90,0|0|8,0:0|0:0|0:0,0:0:0:0:
396,148,34069,2,0,P|344:104|216:100,1,180
120,164,34530,1,8,0:0:0:0:
224,280,34684,1,0,0:0:0:0:
356,300,34838,5,0,0:0:0:0:
244,376,34992,1,0,0:0:0:0:
136,296,35146,1,8,0:0:0:0:
176,168,35300,1,0,0:0:0:0:
312,180,35453,2,0,P|344:140|348:96,1,90
212,96,35761,2,0,P|180:136|176:180,1,90,8|0,0:0|0:0,0:0:0:0:
175,173,36069,5,0,0:0:0:0:
224,280,36223,2,0,P|176:288|128:276,2,90,0|8|0,0:0|0:0|0:0,0:0:0:0:
360,276,36684,2,0,L|408:188,1,90
316,92,36992,1,8,0:0:0:0:
452,92,37146,1,0,0:0:0:0:
396,176,37300,6,0,L|252:176,1,135.000005149842,0|8,0:0|0:0,0:0:0:0:
128,208,37761,1,0,0:0:0:0:
108,340,37915,1,0,0:0:0:0:
228,280,38069,1,0,0:0:0:0:
316,384,38223,1,8,0:0:0:0:
388,308,38377,1,0,0:0:0:0:
388,308,38530,2,0,P|424:252|424:196,1,90
460,96,38838,5,8,0:0:0:0:
336,148,38992,1,8,0:0:0:0:
200,148,39146,2,0,L|108:148,3,90,0|8|8|8,0:0|0:0|0:0|0:0,0:0:0:0:
144,272,39761,6,0,P|200:300|256:272,1,90
336,216,40069,1,8,0:0:0:0:
336,216,40146,1,0,0:0:0:0:
336,216,40223,1,0,0:0:0:0:
432,124,40377,2,0,P|420:56|392:28,2,90,0|0|8,0:0|0:0|0:0,0:0:0:0:
296,120,40838,2,0,P|240:96|176:92,1,90
211,91,41146,5,0,0:0:0:0:
108,180,41300,1,8,0:0:0:0:
211,91,41453,1,0,0:0:0:0:
236,224,41607,2,0,P|204:264|156:288,1,90
108,180,41915,1,8,0:0:0:0:
211,91,42069,1,0,0:0:0:0:
320,12,42223,1,0,0:0:0:0:
444,68,42377,5,0,0:0:0:0:
412,200,42530,2,0,P|460:228|504:228,1,90,8|0,0:0|0:0,0:0:0:0:
320,252,42838,2,0,P|276:224|228:224,1,90
236,224,43146,5,8,0:0:0:0:
124,152,43300,1,0,0:0:0:0:
124,152,43377,1,0,0:0:0:0:
124,152,43453,1,0,0:0:0:0:
236,224,43607,2,0,P|188:252|136:252,1,90,0|8,0:0|0:0,0:0:0:0:
124,152,43915,1,0,0:0:0:0:
232,72,44069,2,0,P|288:60|340:80,1,90
424,152,44377,2,0,P|368:164|316:144,1,90,8|0,0:0|0:0,0:0:0:0:
240,272,44684,6,0,L|120:272,1,90
56,172,44992,2,0,P|72:112|116:68,1,90,8|0,0:0|0:0,0:0:0:0:
200,12,45300,1,0,0:0:0:0:
204,148,45453,2,0,P|248:160|308:156,1,90,0|8,0:0|0:0,0:0:0:0:
412,224,45761,5,0,0:0:0:0:
412,224,45838,1,0,0:0:0:0:
412,224,45915,1,0,0:0:0:0:
424,88,46069,2,0,P|380:52|328:48,1,90,0|8,0:0|0:0,0:0:0:0:
316,176,46377,1,0,0:0:0:0:
424,88,46530,1,0,0:0:0:0:
412,224,46684,2,0,P|372:268|312:284,1,90,0|8,0:0|0:0,0:0:0:0:
208,300,46992,1,0,0:0:0:0:
96,204,47146,5,0,0:0:0:0:
152,80,47300,1,0,0:0:0:0:
292,76,47453,1,8,0:0:0:0:
240,200,47607,1,0,0:0:0:0:
96,204,47761,2,0,P|52:168|56:116,1,90
212,152,48069,2,0,P|240:200|242:233,2,90,8|0|0,0:0|0:0|0:0,0:0:0:0:
136,40,48530,5,0,0:0:0:0:
272,52,48684,1,8,0:0:0:0:
360,152,48838,2,0,B|360:168|360:168|368:176|368:176|360:184|360:184|368:192|368:192|360:200|360:200|368:208|368:208|360:216|360:216|368:224|368:224|360:232|360:232|368:240|368:240|360:248|360:248|368:256|368:256|360:264|360:264|368:272|368:272|360:280|360:280|360:312,1,180
244,368,49300,1,8,0:0:0:0:
144,288,49453,1,0,0:0:0:0:
144,288,49607,6,0,B|144:208|144:208|116:172|116:172|156:84|240:124,1,270.000010299683
248,220,50377,1,0,0:0:0:0:
336,272,50530,1,0,0:0:0:0:
336,172,50684,1,0,0:0:0:0:
248,220,50838,1,0,0:0:0:0:
336,272,50992,1,0,0:0:0:0:
336,172,51146,6,0,B|372:128|416:124|416:124|408:64,1,135.000005149842
320,40,51607,1,0,0:0:0:0:
240,104,51761,2,0,L|180:144,1,67.5000025749208
148,236,52069,2,0,P|112:288|244:288,1,270.000010299683
392,276,52838,6,0,P|424:240|428:200,1,67.5000025749208
328,224,53146,2,0,P|296:260|292:300,2,67.5000025749208
252,156,53607,1,0,0:0:0:0:
208,248,53761,1,0,0:0:0:0:
252,156,53915,1,0,0:0:0:0:
208,248,54069,2,0,L|136:248,2,67.5000025749208
252,156,54530,2,0,B|360:104|360:104|428:144|468:220,1,270.000010299683
416,296,55300,5,0,0:0:0:0:
328,244,55453,1,0,0:0:0:0:
416,196,55607,2,0,P|364:160|388:96,1,135.000005149842
284,72,56069,1,0,0:0:0:0:
212,144,56223,2,0,L|152:204,2,67.5000025749208
284,72,56684,1,0,0:0:0:0:
184,64,56838,1,0,0:0:0:0:
192,336,57146,5,8,0:0:0:0:
336,272,57300,1,4,0:0:0:0:
336,264,57607,5,8,0:0:0:0:
192,192,57761,1,4,0:0:0:0:
192,200,58069,5,0,0:0:0:0:
336,136,58223,1,4,0:0:0:0:
256,192,58530,12,0,59146,0:0:0:0:
136,104,59453,6,0,P|256:52|384:108,1,270.000010299683,4|8,0:0|0:0,0:0:0:0:
300,292,59915,1,0,0:0:0:0:
300,292,59992,1,0,0:0:0:0:
300,292,60069,1,0,0:0:0:0:
104,244,60223,2,0,P|143:185|212:144,1,135.000005149842,0|8,0:0|0:0,0:0:0:0:
396,88,60530,2,0,P|416:168|368:240,1,135.000005149842
208,288,60838,1,0,0:0:0:0:
112,108,60992,1,8,0:0:0:0:
304,40,61146,1,0,0:0:0:0:
488,128,61300,1,0,0:0:0:0:
444,268,61453,6,0,B|380:328|380:328|312:328,2,135.000005149842,0|8|0,0:0|0:0|0:0,0:0:0:0:
252,200,61915,6,0,B|176:236|176:236|96:208|92:136|92:136|152:60,1,270.000010299683,0|8,0:0|0:0,0:0:0:0:
316,112,62377,1,0,0:0:0:0:
316,112,62453,1,0,0:0:0:0:
316,112,62530,2,0,P|372:160|392:216,1,135.000005149842
208,308,62838,1,8,0:0:0:0:
64,168,62992,1,0,0:0:0:0:
256,112,63146,1,0,0:0:0:0:
184,304,63300,1,0,0:0:0:0:
64,168,63453,2,0,P|104:76|164:48,1,135.000005149842,8|0,0:0|0:0,0:0:0:0:
268,208,63761,6,0,B|336:268|336:268|420:268,2,135.000005149842,0|0|8,0:0|0:0|0:0,0:0:0:0:
124,64,64223,1,0,0:0:0:0:
104,264,64377,1,0,0:0:0:0:
300,312,64530,2,0,P|372:296|400:240,1,135.000005149842,0|8,0:0|0:0,0:0:0:0:
208,176,64838,1,0,0:0:0:0:
300,312,64992,2,0,P|312:248|264:184,1,135.000005149842
136,176,65300,6,0,B|96:256|96:256|44:280,2,135.000005149842,8|0|0,0:0|0:0|0:0,0:0:0:0:
336,208,65761,1,0,0:0:0:0:
336,208,65838,1,0,0:0:0:0:
336,208,65915,1,8,0:0:0:0:
192,64,66069,2,0,B|228:124|192:160|192:160|228:204|228:204|196:252|232:312,1,270.000010299683
24,320,66530,1,8,0:0:0:0:
48,192,66684,2,0,P|84:108|156:64,1,135.000005149842
324,104,66992,2,0,P|288:188|216:232,2,135.000005149842,0|8|0,0:0|0:0|0:0,0:0:0:0:
184,120,67453,2,0,P|151:146|115:230,1,135.000005149842
216,352,67761,1,8,0:0:0:0:
412,204,67915,6,0,L|344:320,1,135.000005149842
380,120,68223,2,0,L|280:288,1,135.000005149842,0|8,0:0|0:0,0:0:0:0:
344,36,68530,2,0,L|260:180,1,135.000005149842
152,312,68838,1,8,0:0:0:0:
128,304,68915,1,8,0:0:0:0:
104,288,68992,1,8,0:0:0:0:
88,272,69069,1,8,0:0:0:0:
80,248,69146,1,8,0:0:0:0:
96,72,69300,6,0,B|176:32|176:32|272:64|304:176,1,270.000010299683,0|8,0:0|0:0,0:0:0:0:
360,320,69761,1,0,0:0:0:0:
360,320,69838,1,0,0:0:0:0:
360,320,69915,1,0,0:0:0:0:
472,184,70069,2,0,P|515:134|507:70,2,135.000005149842,0|8|0,0:0|0:0|0:0,0:0:0:0:
272,220,70530,2,0,P|172:232|112:228,2,135.000005149842,0|0|8,0:0|0:0|0:0,0:0:0:0:
416,120,70992,2,0,B|416:72|376:32|376:32|272:24|160:104,1,270.000010299683
88,192,71453,1,8,0:0:0:0:
272,220,71607,5,0,0:0:0:0:
272,220,71684,1,0,0:0:0:0:
272,220,71761,1,0,0:0:0:0:
92,128,71915,2,0,P|168:88|244:104,1,135.000005149842,0|8,0:0|0:0,0:0:0:0:
420,256,72223,2,0,P|344:296|268:280,2,135.000005149842
332,72,72684,1,8,0:0:0:0:
332,72,72761,1,0,0:0:0:0:
332,72,72838,1,0,0:0:0:0:
272,220,72992,2,0,P|184:256|116:236,1,135.000005149842
204,104,73300,2,0,P|292:68|360:88,1,135.000005149842,8|0,0:0|0:0,0:0:0:0:
404,260,73607,5,0,0:0:0:0:
404,260,73684,1,0,0:0:0:0:
404,260,73761,2,0,P|337:318|265:323,1,135.000005149842,0|8,0:0|0:0,0:0:0:0:
128,208,74069,1,0,0:0:0:0:
312,120,74223,2,0,P|296:196|248:244,2,135.000005149842,0|0|8,0:0|0:0|0:0,0:0:0:0:
128,208,74684,1,0,0:0:0:0:
248,44,74838,1,0,0:0:0:0:
248,44,74915,1,0,0:0:0:0:
248,44,74992,1,0,0:0:0:0:
420,152,75146,2,0,B|336:216|336:216|312:272,1,135.000005149842,8|0,0:0|0:0,0:0:0:0:
128,300,75453,5,0,0:0:0:0:
160,100,75607,1,0,0:0:0:0:
308,240,75761,1,8,0:0:0:0:
128,300,75915,1,0,0:0:0:0:
160,100,76069,2,0,P|224:72|296:96,2,135.000005149842,0|0|8,0:0|0:0|0:0,0:0:0:0:
128,300,76530,1,0,0:0:0:0:
328,328,76684,5,0,0:0:0:0:
328,328,76761,1,0,0:0:0:0:
328,328,76838,1,0,0:0:0:0:
156,220,76992,2,0,L|56:120,2,135.000005149842,8|0|0,0:0|0:0|0:0,0:0:0:0:
352,172,77453,1,0,0:0:0:0:
352,172,77530,1,0,0:0:0:0:
352,172,77607,1,8,0:0:0:0:
156,116,77761,2,0,L|260:216,2,135.000005149842,0|8|0,0:0|0:0|0:0,0:0:0:0:
356,72,78223,2,0,B|436:104|444:184|444:184|408:240|408:240|408:308,1,270.000010299683,8|0,0:0|0:0,0:0:0:0:
204,304,78684,2,8,B|132:276|132:276|116:216,1,135.000005149842
352,200,79146,1,4,0:0:0:0:
488,128,88684,5,0,0:0:0:0:
472,168,88761,1,0,0:0:0:0:
440,200,88838,1,0,0:0:0:0:
408,216,88915,1,0,0:0:0:0:
372,224,88992,2,0,P|337:208|301:172,1,90
192,256,89300,1,8,0:0:0:0:
192,256,89377,1,0,0:0:0:0:
192,256,89453,1,0,0:0:0:0:
100,156,89607,2,0,P|111:120|143:80,1,90
272,128,89915,5,8,0:0:0:0:
192,256,90069,1,0,0:0:0:0:
272,128,90223,1,0,0:0:0:0:
368,224,90377,2,0,P|344:256|296:288,2,90,0|8|0,0:0|0:0|0:0,0:0:0:0:
416,96,90838,1,0,0:0:0:0:
304,24,90992,1,0,0:0:0:0:
168,40,91146,1,8,0:0:0:0:
272,128,91300,5,0,0:0:0:0:
368,224,91453,2,0,P|357:260|325:300,1,90
192,268,91761,1,8,0:0:0:0:
68,216,91915,2,0,P|79:180|111:140,2,90
200,184,92377,2,0,P|232:144|243:108,1,90,8|0,0:0|0:0,0:0:0:0:
116,64,92684,1,0,0:0:0:0:
116,64,92761,1,0,0:0:0:0:
116,64,92838,1,0,0:0:0:0:
244,108,92992,2,0,P|275:127|306:169,1,90,8|0,0:0|0:0,0:0:0:0:
360,296,93300,5,0,0:0:0:0:
248,376,93453,1,0,0:0:0:0:
232,260,93607,1,8,0:0:0:0:
232,260,93684,1,0,0:0:0:0:
232,260,93761,1,0,0:0:0:0:
340,180,93915,2,0,P|372:140|383:104,1,90
248,96,94223,2,0,P|223:124|206:172,1,90,8|0,0:0|0:0,0:0:0:0:
296,256,94530,2,0,P|320:227|337:179,1,90
224,96,94838,1,8,0:0:0:0:
88,120,94992,1,0,0:0:0:0:
104,256,95146,6,0,B|104:312|196:320,1,90
272,232,95453,2,0,P|221:238|176:216,1,90,8|0,0:0|0:0,0:0:0:0:
144,120,95761,1,0,0:0:0:0:
264,56,95915,1,0,0:0:0:0:
380,124,96069,1,8,0:0:0:0:
392,256,96223,2,0,B|448:248|480:184,2,90
272,320,96684,5,8,0:0:0:0:
144,280,96838,1,0,0:0:0:0:
272,248,96992,1,0,0:0:0:0:
144,208,97146,1,0,0:0:0:0:
272,176,97300,1,8,0:0:0:0:
144,136,97453,1,0,0:0:0:0:
272,104,97607,1,0,0:0:0:0:
144,64,97761,1,0,0:0:0:0:
272,32,97915,6,0,B|352:32|352:32|380:72|380:72|444:72,1,180,8|0,0:0|0:0,0:0:0:0:
504,184,98377,1,8,0:0:0:0:
440,296,98530,1,8,0:0:0:0:
340,204,98684,2,0,L|208:204,1,90,8|0,0:0|0:0,0:0:0:0:
252,340,98992,1,0,0:0:0:0:
132,280,99146,2,0,B|76:248|76:248|76:184,2,90,8|0|0,0:0|0:0|0:0,0:0:0:0:
188,156,99607,1,0,0:0:0:0:
188,156,99684,1,0,0:0:0:0:
188,156,99761,1,8,0:0:0:0:
304,80,99915,5,0,0:0:0:0:
372,224,100069,2,0,L|272:152,1,90
212,272,100377,2,0,L|288:336,2,90,8|0|0,0:0|0:0|0:0,0:0:0:0:
92,212,100838,1,0,0:0:0:0:
24,96,100992,1,8,0:0:0:0:
136,24,101146,1,0,0:0:0:0:
216,128,101300,2,0,B|312:128|344:61|344:61|384:80,1,180,0|8,0:0|0:0,0:0:0:0:
456,192,101761,1,0,0:0:0:0:
320,192,101915,1,0,0:0:0:0:
388,308,102069,1,0,0:0:0:0:
252,308,102223,6,0,P|217:292|181:256,1,90,8|0,0:0|0:0,0:0:0:0:
68,184,102530,2,0,P|61:146|71:96,2,90,0|0|8,0:0|0:0|0:0,0:0:0:0:
204,192,102992,2,0,L|296:144,1,90
416,104,103300,1,0,0:0:0:0:
392,248,103453,1,8,0:0:0:0:
392,248,103607,1,0,0:0:0:0:
288,336,103761,1,0,0:0:0:0:
288,336,103915,1,0,0:0:0:0:
188,244,104069,5,8,0:0:0:0:
188,244,104223,1,0,0:0:0:0:
140,116,104377,1,0,0:0:0:0:
272,132,104530,1,0,0:0:0:0:
324,244,104684,2,0,P|358:228|394:192,1,90,8|0,0:0|0:0,0:0:0:0:
272,136,104992,1,0,0:0:0:0:
208,16,105146,1,0,0:0:0:0:
384,56,105300,5,8,0:0:0:0:
272,132,105453,2,0,L|144:132,1,90
84,224,105761,1,0,0:0:0:0:
188,312,105915,1,8,0:0:0:0:
324,312,106069,1,0,0:0:0:0:
224,224,106223,6,0,L|148:152,1,90
224,48,106530,2,0,B|240:64|240:64|256:64|256:64|256:80|256:80|272:80|272:80|272:96|272:96|288:96|288:96|288:112|288:112|304:112|304:112|304:128|304:128|320:128|320:128|320:144|320:144|336:144|336:144|336:160|336:160|352:160|352:160|352:176|352:176|368:176|368:176|368:192|368:192|384:192|384:192|384:208|384:208|400:208|400:208|400:256,1,360
84,172,107453,5,0,0:0:0:0:
192,376,107761,1,0,0:0:0:0:
240,224,107915,1,8,0:0:0:0:
416,176,108223,5,8,0:0:0:0:
352,48,108377,1,8,0:0:0:0:
200,104,108530,1,8,0:0:0:0:
84,228,108684,6,0,P|128:296|196:292,1,135.000005149842
256,240,109146,1,0,0:0:0:0:
335,300,109300,2,0,P|384:296|428:228,1,135.000005149842
432,128,109761,5,0,0:0:0:0:
376,48,109915,1,0,0:0:0:0:
304,120,110069,1,0,0:0:0:0:
360,200,110223,1,0,0:0:0:0:
256,208,110377,2,0,P|176:208|128:152,1,135.000005149842
136,64,110838,1,0,0:0:0:0:
200,144,110992,1,0,0:0:0:0:
240,252,111146,2,0,B|296:296|296:296|356:264|416:268|416:268|444:184|416:168,1,270.000010299683
344,136,111915,5,0,0:0:0:0:
384,40,112069,1,0,0:0:0:0:
280,56,112223,1,0,0:0:0:0:
344,136,112377,5,0,0:0:0:0:
280,56,112530,1,0,0:0:0:0:
240,152,112684,1,0,0:0:0:0:
344,136,112838,1,0,0:0:0:0:
312,232,112992,5,0,0:0:0:0:
208,248,113146,1,0,0:0:0:0:
240,152,113300,1,0,0:0:0:0:
136,160,113453,1,0,0:0:0:0:
164,304,113607,6,0,B|236:232|236:232|328:280|380:184,1,270.000010299683
272,128,114377,1,0,0:0:0:0:
364,84,114530,1,0,0:0:0:0:
456,124,114684,1,0,0:0:0:0:
364,84,114838,2,0,B|284:52|284:52|224:48,1,135.000005149842
144,88,115300,1,0,0:0:0:0:
96,184,115453,1,0,0:0:0:0:
96,288,115607,1,0,0:0:0:0:
192,328,115761,2,0,P|264:304|304:248,1,135.000005149842
360,136,116223,5,8,0:0:0:0:
360,136,116377,1,0,0:0:0:0:
96,184,116684,5,8,0:0:0:0:
96,184,116838,1,0,0:0:0:0:
256,324,117146,5,8,0:0:0:0:
256,324,117300,1,0,0:0:0:0:
72,240,117607,2,0,B|120:200|120:200|152:216|152:216|184:176|184:176|224:183|224:183|256:152|256:152|320:152,1,270.000010299683
368,304,118530,6,0,P|422:222|402:58,1,270.000010299683,0|8,0:0|0:0,0:0:0:0:
212,92,118992,1,0,0:0:0:0:
212,92,119069,1,0,0:0:0:0:
212,92,119146,1,0,0:0:0:0:
148,284,119300,2,0,L|247:192,1,135.000005149842,0|8,0:0|0:0,0:0:0:0:
444,140,119607,2,0,P|463:185|443:265,1,135.000005149842
304,96,119915,5,0,0:0:0:0:
316,300,120069,1,8,0:0:0:0:
132,216,120223,1,0,0:0:0:0:
132,216,120300,1,0,0:0:0:0:
132,216,120377,1,0,0:0:0:0:
68,116,120530,2,0,B|132:56|132:56|200:56,2,135.000005149842,0|8|0,0:0|0:0|0:0,0:0:0:0:
264,160,120992,6,0,B|336:144|336:144|408:176|408:256|408:256|344:312,1,270.000010299683,0|8,0:0|0:0,0:0:0:0:
200,288,121454,1,0,0:0:0:0:
200,288,121530,1,0,0:0:0:0:
200,288,121607,2,0,P|144:240|124:184,1,135.000005149842
304,76,121915,1,8,0:0:0:0:
448,216,122069,1,0,0:0:0:0:
304,76,122223,1,0,0:0:0:0:
200,288,122377,1,0,0:0:0:0:
448,216,122530,2,0,P|408:308|348:336,1,135.000005149842,8|0,0:0|0:0,0:0:0:0:
244,176,122838,6,0,B|312:236|312:236|396:236,2,135.000005149842,0|0|8,0:0|0:0|0:0,0:0:0:0:
100,320,123300,1,0,0:0:0:0:
244,176,123454,1,0,0:0:0:0:
432,112,123607,2,0,P|392:67|320:51,1,135.000005149842,0|8,0:0|0:0,0:0:0:0:
120,88,123915,1,0,0:0:0:0:
184,280,124069,2,0,P|223:337|292:370,1,135.000005149842
344,160,124377,6,0,B|384:80|384:80|436:56,2,135.000005149842,8|0|0,0:0|0:0|0:0,0:0:0:0:
216,312,124838,1,0,0:0:0:0:
16,280,124992,1,8,0:0:0:0:
32,80,125146,2,0,B|104:48|104:48|120:152|232:216,1,270.000010299683
320,32,125607,1,8,0:0:0:0:
456,184,125761,2,0,P|448:272|400:320,1,135.000005149842
220,216,126069,2,0,P|187:242|151:326,2,135.000005149842,0|8|0,0:0|0:0|0:0,0:0:0:0:
352,64,126530,2,0,P|272:48|196:88,1,135.000005149842
256,264,126838,1,8,0:0:0:0:
144,96,126992,6,0,L|64:208,1,135.000005149842
208,152,127300,2,0,L|128:272,1,135.000005149842,0|8,0:0|0:0,0:0:0:0:
272,208,127607,2,0,B|232:272|232:272|256:336,1,135.000005149842
360,352,127915,1,8,0:0:0:0:
384,320,127992,1,8,0:0:0:0:
408,280,128069,1,8,0:0:0:0:
432,248,128146,1,8,0:0:0:0:
456,216,128223,1,8,0:0:0:0:
368,72,128377,6,0,B|312:64|265:89|265:89|221:35|221:35|184:64|112:64,1,270.000010299683,0|8,0:0|0:0,0:0:0:0:
128,232,128838,1,0,0:0:0:0:
128,232,128915,1,0,0:0:0:0:
128,232,128992,1,0,0:0:0:0:
328,280,129146,2,0,P|400:280|448:224,2,135.000005149842,0|8|0,0:0|0:0|0:0,0:0:0:0:
128,296,129607,2,0,P|72:304|24:248,2,135.000005149842,0|0|8,0:0|0:0|0:0,0:0:0:0:
232,120,130069,2,0,B|256:64|256:64|320:32|376:48|376:48|448:144,1,270.000010299683
452,260,130530,1,8,0:0:0:0:
256,316,130684,5,0,0:0:0:0:
256,316,130761,1,0,0:0:0:0:
256,316,130838,1,0,0:0:0:0:
428,152,130992,2,0,P|352:136|276:176,1,135.000005149842,0|8,0:0|0:0,0:0:0:0:
128,264,131300,2,0,P|192:280|280:240,2,135.000005149842
8,128,131761,1,8,0:0:0:0:
176,16,131915,1,0,0:0:0:0:
288,184,132069,2,0,P|360:200|444:168,1,135.000005149842
280,32,132377,2,0,P|200:40|144:128,1,135.000005149842,8|0,0:0|0:0,0:0:0:0:
104,272,132684,5,0,0:0:0:0:
104,272,132761,1,0,0:0:0:0:
104,272,132838,2,0,P|184:264|243:209,1,135.000005149842,0|8,0:0|0:0,0:0:0:0:
384,176,133146,1,0,0:0:0:0:
184,144,133300,2,0,P|200:68|248:20,2,135.000005149842,0|0|8,0:0|0:0|0:0,0:0:0:0:
384,176,133761,1,0,0:0:0:0:
312,368,133915,1,0,0:0:0:0:
112,352,134069,1,0,0:0:0:0:
72,208,134223,2,0,B|128:136|128:136|192:104,1,135.000005149842,8|0,0:0|0:0,0:0:0:0:
384,84,134530,5,0,0:0:0:0:
352,284,134684,1,0,0:0:0:0:
204,144,134838,1,8,0:0:0:0:
384,84,134992,1,0,0:0:0:0:
352,284,135146,2,0,P|288:296|216:288,2,135.000005149842,0|0|8,0:0|0:0|0:0,0:0:0:0:
384,84,135607,1,0,0:0:0:0:
184,56,135761,5,0,0:0:0:0:
184,56,135838,1,0,0:0:0:0:
184,56,135915,1,0,0:0:0:0:
356,164,136069,2,0,L|472:248,2,135.000005149842,8|0|0,0:0|0:0|0:0,0:0:0:0:
160,212,136530,1,0,0:0:0:0:
160,212,136607,1,0,0:0:0:0:
160,212,136684,1,8,0:0:0:0:
356,268,136838,2,0,L|252:168,2,135.000005149842
156,312,137300,2,8,B|76:280|68:200|68:200|104:144|104:144|104:76,1,270.000010299683,8|0,0:0|0:0,0:0:0:0:
308,80,137761,2,8,B|380:108|380:108|396:168,1,135.000005149842
132,236,138223,5,4,0:0:0:0:
324,176,138530,2,0,L|380:248,1,67.5000025749208
264,248,138838,2,0,L|312:316,1,67.5000025749208
204,320,139146,1,0,0:0:0:0:
132,236,139300,1,0,0:0:0:0:
204,168,139453,1,0,0:0:0:0:
132,236,139607,2,0,L|88:180,1,67.5000025749208
132,92,139915,1,0,0:0:0:0:
132,92,140069,2,0,L|212:92,3,67.5000025749208
284,148,140684,6,0,L|348:200,1,67.5000025749208
436,216,140992,2,0,L|392:276,1,67.5000025749208
296,288,141300,2,0,P|240:268|168:296,1,135.000005149842
80,252,141761,1,0,0:0:0:0:
144,172,141915,1,0,0:0:0:0:
144,172,142069,1,0,0:0:0:0:
84,92,142223,1,0,0:0:0:0:
144,172,142377,1,0,0:0:0:0:
176,72,142530,2,0,B|184:64|184:64|192:80|192:80|200:64|200:64|208:80|208:80|216:64|216:64|224:80|224:80|232:64|232:64|240:80|240:80|248:64|248:64|256:80|256:80|264:64|264:64|272:80|272:80|280:72,1,202.500007724762
368,72,143146,5,0,0:0:0:0:
408,168,143300,2,0,L|496:168,1,67.5000025749208
440,264,143607,1,0,0:0:0:0:
336,264,143761,2,0,P|304:280|256:276,1,67.5000025749208
176,224,144069,1,0,0:0:0:0:
120,312,144223,2,0,L|56:240,1,67.5000025749208
72,160,144530,1,0,0:0:0:0:
176,224,144684,1,0,0:0:0:0:
176,224,144838,1,0,0:0:0:0:
128,128,144992,2,0,L|196:100,3,67.5000025749208
272,164,145607,6,0,L|352:168,1,67.5000025749208
404,248,145915,2,0,L|312:248,1,67.5000025749208
252,304,146223,1,0,0:0:0:0:
252,304,146377,1,0,0:0:0:0:
168,252,146530,1,0,0:0:0:0:
80,192,146684,2,2,B|72:168|86:144|86:144|64:120|64:120|80:88|80:40,1,135.000005149842
208,24,146992,1,2,0:0:0:0:
312,112,147146,1,2,0:0:0:0:
192,168,147300,1,2,0:0:0:0:
296,256,147453,1,2,0:0:0:0:
136,320,147761,5,8,0:0:0:0:
100,124,148069,2,0,B|148:84|148:84|216:80|220:168|328:144,1,225,4|8,0:0|0:0,0:0:0:0:
420,256,148530,2,0,L|312:328,2,112.5
300,128,148992,1,8,0:0:0:0:
180,248,149146,2,0,P|104:256|44:200,1,112.5
188,116,149453,1,0,0:0:0:0:
188,116,149530,1,0,0:0:0:0:
188,116,149607,1,8,0:0:0:0:
352,96,149761,1,0,0:0:0:0:
332,248,149915,2,0,P|408:256|468:200,3,112.5,0|0|8|0,0:0|0:0|0:0|0:0,0:0:0:0:
348,96,150530,6,0,B|268:140|268:140|264:192|264:192|180:248,1,225,0|8,0:0|0:0,0:0:0:0:
60,136,150992,1,0,0:0:0:0:
212,60,151146,1,0,0:0:0:0:
64,136,151300,2,0,B|32:232|64:288|64:288|176:288,1,225
288,184,151761,2,0,B|372:200|372:200|408:240,1,112.5
256,324,152069,1,8,0:0:0:0:
256,324,152146,1,0,0:0:0:0:
256,324,152223,1,0,0:0:0:0:
88,352,152377,2,0,B|80:344|80:344|104:336|104:336|64:328|64:328|96:320|96:320|72:312|72:312|88:304|88:304|80:296|80:296|88:288|88:288|80:280|80:280|88:272|88:272|80:264|80:264|88:256|88:256|80:248|80:248|88:240|88:240|80:232|80:232|87:224|87:224|80:216|80:216|88:208|88:208|80:200|80:200|86:190|86:190|80:185|80:185|88:128,1,337.5
8,40,152992,6,0,B|96:24|144:32|144:32|160:88|216:112,1,225,0|8,0:0|0:0,0:0:0:0:
276,180,153453,1,0,0:0:0:0:
416,276,153607,1,0,0:0:0:0:
436,108,153761,1,0,0:0:0:0:
276,180,153915,2,0,P|248:264|216:284,1,112.5,8|0,0:0|0:0,0:0:0:0:
128,140,154223,2,0,P|130:119|189:53,2,112.5,0|0|8,0:0|0:0|0:0,0:0:0:0:
276,180,154684,1,0,0:0:0:0:
189,327,154838,2,0,B|205:339|245:361|296:344,3,112.5,0|0|8|0,0:0|0:0|0:0|0:0,0:0:0:0:
440,256,155453,6,0,B|448:176|448:176|424:104|328:68,1,225,0|8,0:0|0:0,0:0:0:0:
176,136,155915,1,0,0:0:0:0:
68,268,156069,1,0,0:0:0:0:
176,136,156223,1,0,0:0:0:0:
264,284,156377,1,8,0:0:0:0:
352,136,156530,1,0,0:0:0:0:
232,16,156684,1,0,0:0:0:0:
216,184,156838,1,0,0:0:0:0:
388,172,156992,5,8,0:0:0:0:
388,172,157069,1,0,0:0:0:0:
388,172,157146,1,0,0:0:0:0:
264,284,157300,2,0,P|164:260|136:240,1,112.5,0|8,0:0|0:0,0:0:0:0:
120,240,157530,1,0,0:0:0:0:
80,216,157607,2,0,L|16:176,4,56.25,8|8|8|8|8,0:0|0:0|0:0|0:0|0:0,0:0:0:0:
96,100,158069,5,0,0:0:0:0:
252,164,158223,1,0,0:0:0:0:
396,72,158377,1,0,0:0:0:0:
396,72,158453,1,0,0:0:0:0:
396,72,158530,1,0,0:0:0:0:
420,240,158684,1,0,0:0:0:0:
252,164,158838,1,0,0:0:0:0:
256,312,159146,5,4,0:0:0:0:
256,56,167607,5,0,0:0:0:0:
256,328,168069,1,0,0:0:0:0:
436,192,168377,1,0,0:0:0:0:
76,192,168684,1,0,0:0:0:0:
376,104,168992,6,0,P|248:48|128:108,1,270.000010299683,4|8,0:0|0:0,0:0:0:0:
64,288,169454,1,0,0:0:0:0:
64,288,169531,1,0,0:0:0:0:
64,288,169608,1,0,0:0:0:0:
248,200,169762,2,0,L|347:291,1,135.000005149842,0|8,0:0|0:0,0:0:0:0:
460,152,170069,2,0,P|441:105|370:63,1,135.000005149842
236,220,170377,1,0,0:0:0:0:
100,68,170531,1,8,0:0:0:0:
240,216,170684,2,0,L|168:200,2,67.5000025749208
460,224,170992,6,0,B|472:304|400:356,2,135.000005149842,0|8|0,0:0|0:0|0:0,0:0:0:0:
328,72,171454,2,0,B|272:72|232:40|232:40|136:32|80:160,1,270.000010299683,0|8,0:0|0:0,0:0:0:0:
88,328,171916,1,0,0:0:0:0:
88,328,171992,1,0,0:0:0:0:
88,328,172069,2,0,P|152:304|184:224,1,135.000005149842
280,72,172377,1,8,0:0:0:0:
448,168,172531,1,0,0:0:0:0:
304,308,172685,1,0,0:0:0:0:
184,144,172839,1,0,0:0:0:0:
304,308,172992,2,0,P|387:252|404:188,1,135.000005149842,8|0,0:0|0:0,0:0:0:0:
236,104,173300,6,0,B|168:80|168:80|104:96,2,135.000005149842,0|0|8,0:0|0:0|0:0,0:0:0:0:
360,264,173762,1,0,0:0:0:0:
432,76,173916,1,0,0:0:0:0:
360,264,174069,2,0,P|288:248|244:192,1,135.000005149842,0|8,0:0|0:0,0:0:0:0:
80,88,174377,1,0,0:0:0:0:
128,284,174531,2,0,P|176:320|263:323,1,135.000005149842
368,148,174839,6,0,B|360:96|360:96|286:48,2,135.000005149842,8|0|0,0:0|0:0|0:0,0:0:0:0:
176,84,175300,1,0,0:0:0:0:
176,84,175377,1,0,0:0:0:0:
176,84,175454,1,8,0:0:0:0:
272,264,175608,2,0,B|240:376|88:376|64:232,1,270.000010299683
72,264,176069,1,8,0:0:0:0:
72,64,176223,2,0,P|136:96|140:174,1,135.000005149842
272,312,176531,2,0,P|356:345|438:326,2,135.000005149842,0|8|0,0:0|0:0|0:0,0:0:0:0:
384,144,176992,2,0,P|348:60|272:40,1,135.000005149842
176,112,177300,5,8,0:0:0:0:
40,216,177454,2,0,L|108:332,1,135.000005149842
288,216,177762,2,0,L|388:384,1,135.000005149842,0|8,0:0|0:0,0:0:0:0:
168,216,178069,2,0,L|252:360,1,135.000005149842
400,208,178377,1,8,0:0:0:0:
416,248,178454,1,8,0:0:0:0:
432,280,178531,1,8,0:0:0:0:
448,312,178608,1,8,0:0:0:0:
464,344,178685,1,8,0:0:0:0:
376,160,178839,6,0,B|336:64|336:64|256:16|160:80,1,270.000010299683,0|8,0:0|0:0,0:0:0:0:
276,228,179300,1,0,0:0:0:0:
276,228,179377,1,0,0:0:0:0:
276,228,179454,1,0,0:0:0:0:
72,212,179608,2,0,P|64:276|128:332,2,135.000005149842,0|8|0,0:0|0:0|0:0,0:0:0:0:
276,228,180069,2,0,P|336:264|436:236,2,135.000005149842,0|0|8,0:0|0:0|0:0,0:0:0:0:
112,112,180531,2,0,B|168:40|288:32|288:32|380:88,1,270.000010299683
392,252,180992,1,8,0:0:0:0:
192,280,181146,5,0,0:0:0:0:
192,280,181223,1,0,0:0:0:0:
192,280,181300,1,0,0:0:0:0:
344,144,181453,2,0,P|268:104|192:120,1,135.000005149842,0|8,0:0|0:0,0:0:0:0:
192,280,181762,2,0,P|268:320|344:304,2,135.000005149842
80,112,182223,1,8,0:0:0:0:
264,32,182377,1,0,0:0:0:0:
232,232,182531,2,0,P|320:268|388:248,1,135.000005149842
288,72,182839,2,0,P|200:36|132:56,1,135.000005149842,8|0,0:0|0:0,0:0:0:0:
108,260,183146,5,0,0:0:0:0:
108,260,183223,1,0,0:0:0:0:
108,260,183300,2,0,P|175:318|247:323,1,135.000005149842,0|8,0:0|0:0,0:0:0:0:
384,208,183608,1,0,0:0:0:0:
184,192,183762,2,0,P|176:264|248:316,2,135.000005149842,0|0|8,0:0|0:0|0:0,0:0:0:0:
384,208,184223,1,0,0:0:0:0:
264,44,184377,1,0,0:0:0:0:
64,40,184531,1,0,0:0:0:0:
40,240,184685,2,0,B|40:312|40:312|148:360,1,135.000005149842,8|0,0:0|0:0,0:0:0:0:
296,304,184992,5,0,0:0:0:0:
352,100,185146,1,0,0:0:0:0:
204,240,185300,1,8,0:0:0:0:
384,300,185454,1,0,0:0:0:0:
352,100,185608,2,0,P|280:112|216:96,2,135.000005149842,0|0|8,0:0|0:0|0:0,0:0:0:0:
384,300,186069,1,0,0:0:0:0:
184,328,186223,5,0,0:0:0:0:
184,328,186300,1,0,0:0:0:0:
184,328,186377,1,0,0:0:0:0:
356,220,186531,2,0,L|456:120,2,135.000005149842,8|0|0,0:0|0:0|0:0,0:0:0:0:
160,176,186992,2,0,L|88:176,2,67.5000025749208,8|0|0,0:0|0:0|0:0,0:0:0:0:
356,116,187300,2,0,L|252:216,2,135.000005149842,0|8|0,0:0|0:0|0:0,0:0:0:0:
468,252,187761,5,0,0:0:0:0:
468,252,187838,1,0,0:0:0:0:
468,252,187915,1,8,0:0:0:0:
272,308,188069,2,8,L|376:208,2,135.000005149842,0|8|0,0:0|0:0|0:0,0:0:0:0:
96,136,188530,2,0,L|16:136,2,67.5000025749208,0|0|8,0:0|0:0|0:0,0:0:0:0:
272,172,188838,2,0,L|168:72,2,135.000005149842,0|0|8,0:0|0:0|0:0,0:0:0:0:
76,280,189300,6,0,P|180:304|240:272,1,135.000005149842,0|8,0:0|0:0,0:0:0:0:
408,292,189607,1,0,0:0:0:0:
408,292,189684,1,0,0:0:0:0:
408,292,189761,1,0,0:0:0:0:
236,188,189915,1,8,0:0:0:0:
436,104,190069,2,0,P|332:80|164:104,2,270.000010299683,0|8|8,0:0|0:0|0:0,0:0:0:0:
408,292,190838,1,8,0:0:0:0:
204,288,191146,1,4,0:0:0:0:
248,160,191453,5,8,0:0:0:0:
348,72,191607,2,0,P|380:112|390:148,2,90
328,208,192069,2,0,P|339:244|371:284,1,90,8|0,0:0|0:0,0:0:0:0:
236,312,192377,1,0,0:0:0:0:
248,160,192530,1,0,0:0:0:0:
236,312,192684,2,0,P|176:312|148:301,1,90,8|0,0:0|0:0,0:0:0:0:
80,184,192992,2,0,L|120:272,1,90
112,96,193300,2,0,L|82:184,1,90,8|0,0:0|0:0,0:0:0:0:
272,224,193607,6,0,P|344:244|446:228,1,180,0|8,0:0|0:0,0:0:0:0:
384,104,194069,1,0,0:0:0:0:
260,52,194223,1,0,0:0:0:0:
136,108,194377,1,0,0:0:0:0:
160,240,194530,2,0,L|210:314,1,90,8|0,0:0|0:0,0:0:0:0:
348,304,194838,1,0,0:0:0:0:
424,192,194992,5,0,0:0:0:0:
328,96,195146,1,8,0:0:0:0:
208,32,195300,1,0,0:0:0:0:
72,136,195453,2,0,B|72:160|72:160|88:160|88:160|88:176|88:176|104:176|104:176|104:192|104:192|120:192|120:192|120:208|120:208|136:208|136:208|136:224|136:224|152:224|152:224|152:240|152:240|168:240|168:240|168:256|168:256|184:256|184:256|184:272|184:272|256:312,2,270.000010299683,0|8|0,0:0|0:0|0:0,0:0:0:0:
152,24,196223,5,0,0:0:0:0:
288,40,196377,1,8,0:0:0:0:
384,128,196530,2,0,P|416:168|408:216,1,90
216,276,196838,5,0,0:0:0:0:
296,168,196992,2,0,P|285:132|253:92,2,90,8|0|0,0:0|0:0|0:0,0:0:0:0:
344,296,197453,1,0,0:0:0:0:
344,296,197530,1,0,0:0:0:0:
344,296,197607,1,8,0:0:0:0:
428,176,197761,1,0,0:0:0:0:
324,88,197915,1,0,0:0:0:0:
188,92,198069,1,0,0:0:0:0:
324,88,198223,5,8,0:0:0:0:
256,204,198377,2,0,P|245:240|213:280,1,90
213,280,198684,1,0,0:0:0:0:
80,280,198838,1,8,0:0:0:0:
40,152,198992,1,0,0:0:0:0:
152,80,199146,2,0,L|242:80,1,90
352,160,199453,2,0,L|262:160,1,90,8|0,0:0|0:0,0:0:0:0:
136,208,199761,6,0,L|88:152,2,45,0|0|0,0:0|0:0|0:0,0:0:0:0:
240,296,200069,1,8,0:0:0:0:
268,152,200223,2,0,P|324:88|340:84,1,90
424,184,200530,2,8,L|456:136,4,45,8|8|8|8|8,0:0|0:0|0:0|0:0|0:0,0:0:0:0:
400,208,200992,2,0,P|344:264|224:280,1,180,0|8,0:0|0:0,0:0:0:0:
76,264,201453,5,0,0:0:0:0:
76,264,201530,1,0,0:0:0:0:
76,264,201607,1,0,0:0:0:0:
128,136,201761,2,0,L|232:136,1,90,0|8,0:0|0:0,0:0:0:0:
328,56,202069,1,0,0:0:0:0:
216,136,202223,1,0,0:0:0:0:
344,184,202377,2,0,L|416:244,1,90,0|8,0:0|0:0,0:0:0:0:
308,312,202684,5,0,0:0:0:0:
352,184,202838,1,0,0:0:0:0:
220,220,202992,1,0,0:0:0:0:
308,312,203146,2,0,L|408:312,2,90,8|0|0,0:0|0:0|0:0,0:0:0:0:
172,312,203607,1,0,0:0:0:0:
84,208,203761,2,0,L|156:128,3,90,8|0|0|0,0:0|0:0|0:0|0:0,0:0:0:0:
272,192,204377,1,8,0:0:0:0:
412,120,204530,1,0,0:0:0:0:
412,120,204684,1,0,0:0:0:0:
364,248,204838,5,0,0:0:0:0:
364,248,204992,1,8,0:0:0:0:
240,300,205146,1,0,0:0:0:0:
304,112,205300,2,2,B|208:92|208:92|240:84|240:84|208:92|208:92|244:100|244:100|208:92|208:92|232:112|232:112|208:92|208:92|148:72|148:72|172:80|172:80|148:72|148:72|160:88|160:88|148:72|148:72|168:68|168:68|148:72|148:72|84:48,1,540.000020599366,2|10,0:0|0:0,0:0:0:0:
240,288,206223,5,8,0:0:0:0:
360,108,206377,1,0,0:0:0:0:
404,236,206530,1,0,0:0:0:0:
272,208,206684,2,0,B|144:208|144:208|100:156,1,180
208,72,207146,2,0,L|152:56,2,45
360,108,207453,1,8,0:0:0:0:
404,236,207607,1,0,0:0:0:0:
404,236,207761,2,0,L|448:320,3,90,0|0|8|0,0:0|0:0|0:0|0:0,0:0:0:0:
316,280,208377,6,0,P|260:304|136:280,1,180,0|8,0:0|0:0,0:0:0:0:
64,180,208838,1,0,0:0:0:0:
152,80,208992,1,0,0:0:0:0:
272,144,209146,2,0,P|328:168|452:144,1,180
352,52,209607,1,0,0:0:0:0:
352,52,209684,1,0,0:0:0:0:
352,52,209761,1,0,0:0:0:0:
272,144,209915,1,8,0:0:0:0:
136,160,210069,1,8,0:0:0:0:
264,192,210223,6,0,L|312:72,1,90,0|0,0:0|0:0,0:0:0:0:
184,216,210530,2,0,L|270:188,1,90,0|0,0:0|0:0,0:0:0:0:
