osu file format v12

[General]
AudioFilename: Outer Science.mp3
AudioLeadIn: 0
PreviewTime: 59453
Countdown: 1
SampleSet: Normal
StackLeniency: 0.7
Mode: 0
LetterboxInBreaks: 1

[Editor]
Bookmarks: 377,5300,10223,20069,29915,39761,49607,59453,69300,79146,88992,98838,108684,118530,128377,138223,148069,159146,168992,178838,191146,200992,210838
DistanceSpacing: 1.3
BeatDivisor: 4
GridSize: 4

[Metadata]
Title:Outer Science
TitleUnicode:アウターサイエンス
Artist:Jin
ArtistUnicode:じん
Creator:_Asagi_
Version:Insane
Source:
Tags:asagi mira-san shanaai ia jin outer science vocaloid topecnz
BeatmapID:273432
BeatmapSetID:103013

[Difficulty]
HPDrainRate:6
CircleSize:4
OverallDifficulty:7
ApproachRate:9
SliderMultiplier:2
SliderTickRate:2

[Events]
//Background and Video events
0,0,"IA.jpg",0,0
//Break Periods
2,159345,167007
//Storyboard Layer 0 (Background)
//Storyboard Layer 1 (Fail)
//Storyboard Layer 2 (Pass)
//Storyboard Layer 3 (Foreground)
//Storyboard Sound Samples
//Background Colour Transformations
3,100,163,162,255

[TimingPoints]
377,307.692307692308,4,1,0,60,1,0
5300,-133.333333333333,4,1,0,60,0,0
10223,-76.9230769230769,4,1,0,60,0,1
10838,-100,4,1,0,60,0,0
12683,-76.9230769230769,4,1,0,60,0,0
13453,-100,4,1,0,60,0,0
14069,-83.3333333333333,4,1,0,60,0,0
14684,-100,4,1,0,60,0,0
15146,-76.9230769230769,4,1,0,60,0,0
15761,-133.333333333333,4,1,0,60,0,0
16684,-100,4,1,0,60,0,0
17607,-76.9230769230769,4,1,0,60,0,0
18223,-133.333333333333,4,1,0,60,0,0
19146,-100,4,1,0,60,0,0
19377,-83.3333333333333,4,1,0,60,0,0
20069,-100,4,1,0,60,0,0
20377,-76.9230769230769,4,1,0,60,0,0
20684,-100,4,1,0,60,0,0
21607,-66.6666666666667,4,1,0,60,0,0
21761,-100,4,1,0,60,0,0
23453,-66.6666666666667,4,1,0,60,0,0
23607,-100,4,1,0,60,0,0
25915,-66.6666666666667,4,1,0,60,0,0
26069,-100,4,1,0,60,0,0
27146,-66.6666666666667,4,1,0,60,0,0
27300,-100,4,1,0,60,0,0
29453,-83.3333333333333,4,1,0,60,0,0
29838,-100,4,1,0,60,0,0
29915,-76.9230769230769,4,1,0,60,0,0
30300,-100,4,1,0,60,0,0
31607,-66.6666666666667,4,1,0,60,0,0
31915,-100,4,1,0,60,0,0
32838,-66.6666666666667,4,1,0,60,0,0
32992,-100,4,1,0,60,0,0
33761,-83.3333333333333,4,1,0,60,0,0
33992,-100,4,1,0,60,0,0
35915,-66.6666666666667,4,1,0,60,0,0
36069,-100,4,1,0,60,0,0
36530,-76.9230769230769,4,1,0,60,0,0
36838,-100,4,1,0,60,0,0
38684,-76.9230769230769,4,1,0,60,0,0
39146,-100,4,1,0,60,0,0
39761,-76.9230769230769,4,1,0,60,0,0
40838,-100,4,1,0,60,0,0
41453,-66.6666666666667,4,1,0,60,0,0
41761,-76.9230769230769,4,1,0,60,0,0
42223,-100,4,1,0,60,0,0
43146,-66.6666666666667,4,1,0,60,0,0
43300,-100,4,1,0,60,0,0
43915,-83.3333333333333,4,1,0,60,0,0
44223,-100,4,1,0,60,0,0
45300,-66.6666666666667,4,1,0,60,0,0
45453,-100,4,1,0,60,0,0
48377,-66.6666666666667,4,1,0,60,0,0
48684,-133.333333333333,4,1,0,60,0,0
48992,-100,4,1,0,60,0,0
49607,-200,4,2,0,30,0,0
56530,-76.9230769230769,4,1,0,60,0,0
56992,-100,4,1,0,60,0,0
59146,-66.6666666666667,4,1,0,60,0,0
59377,-100,4,1,0,60,0,1
60377,-66.6666666666667,4,1,0,60,0,1
61069,-100,4,1,0,60,0,1
61915,-66.6666666666667,4,1,0,60,0,1
62684,-100,4,1,0,60,0,1
62992,-66.6666666666667,4,1,0,60,0,1
64223,-100,4,1,0,60,0,1
64838,-66.6666666666667,4,1,0,60,0,1
65453,-100,4,1,0,60,0,1
66069,-66.6666666666667,4,1,0,60,0,1
67453,-100,4,1,0,60,0,1
67915,-66.6666666666667,4,1,0,60,0,1
68377,-100,4,1,0,60,0,1
69223,-100,4,1,0,60,0,0
69300,-66.6666666666667,4,1,0,60,0,1
70992,-100,4,1,0,60,0,1
71300,-66.6666666666667,4,1,0,60,0,1
72530,-100,4,1,0,60,0,1
72838,-66.6666666666667,4,1,0,60,0,1
74069,-100,4,1,0,60,0,1
74684,-66.6666666666667,4,1,0,60,0,1
75300,-100,4,1,0,60,0,1
75915,-66.6666666666667,4,1,0,60,0,1
79146,-100,4,1,0,60,0,0
80992,-66.6666666666667,4,1,0,60,0,0
81607,-100,4,1,0,60,0,0
83453,-58.8235294117647,4,1,0,60,0,0
84069,-100,4,1,0,60,0,0
85915,-66.6666666666667,4,1,0,60,0,0
86377,-100,4,1,0,60,0,0
88223,-200,4,1,0,60,0,0
88684,-100,4,1,0,60,0,0
88992,-66.6666666666667,4,1,0,60,0,0
89300,-100,4,1,0,60,0,0
90684,-66.6666666666667,4,1,0,60,0,0
91607,-100,4,1,0,60,0,0
91915,-66.6666666666667,4,1,0,60,0,0
92146,-100,4,1,0,60,0,0
92838,-66.6666666666667,4,1,0,60,0,0
93607,-100,4,1,0,60,0,0
94992,-66.6666666666667,4,1,0,60,0,0
95300,-100,4,1,0,60,0,0
95607,-66.6666666666667,4,1,0,60,0,0
96607,-100,4,1,0,60,0,0
97761,-76.9230769230769,4,1,0,60,0,0
98838,-66.6666666666667,4,1,0,60,0,0
99915,-66.6666666666667,4,1,0,60,0,0
100223,-100,4,1,0,60,0,0
100530,-66.6666666666667,4,1,0,60,0,0
100838,-100,4,1,0,60,0,0
102223,-66.6666666666667,4,1,0,60,0,0
102530,-100,4,1,0,60,0,0
104377,-66.6666666666667,4,1,0,60,0,0
104992,-100,4,1,0,60,0,0
107453,-66.6666666666667,4,1,0,60,0,0
107761,-133.333333333333,4,1,0,60,0,0
108684,-133.333333333333,4,1,0,60,0,0
115607,-76.9230769230769,4,1,0,60,0,0
116069,-100,4,1,0,60,0,0
118530,-100,4,1,0,60,0,1
118838,-66.6666666666667,4,1,0,60,0,1
120684,-100,4,1,0,60,0,1
120992,-66.6666666666667,4,1,0,60,0,1
121761,-100,4,1,0,60,0,1
122069,-66.6666666666667,4,1,0,60,0,1
123300,-100,4,1,0,60,0,1
123915,-66.6666666666667,4,1,0,60,0,1
124530,-100,4,1,0,60,0,1
125146,-66.6666666666667,4,1,0,60,0,1
126530,-100,4,1,0,60,0,1
126992,-66.6666666666667,4,1,0,60,0,1
127453,-100,4,1,0,60,0,1
128300,-100,4,1,0,60,0,0
128377,-66.6666666666667,4,1,0,60,0,1
130069,-100,4,1,0,60,0,1
130377,-66.6666666666667,4,1,0,60,0,1
131607,-100,4,1,0,60,0,1
131915,-66.6666666666667,4,1,0,60,0,1
133146,-100,4,1,0,60,0,1
133761,-66.6666666666667,4,1,0,60,0,1
134377,-100,4,1,0,60,0,1
134992,-66.6666666666667,4,1,0,60,0,1
138223,-133.333333333333,4,1,0,30,0,0
140069,-200,4,1,0,30,0,0
140838,-133.333333333333,4,1,0,30,0,0
142530,-100,4,1,0,30,0,0
143146,-133.333333333333,4,1,0,30,0,0
144992,-200,4,1,0,30,0,0
145607,-133.333333333333,4,1,0,30,0,0
146684,-58.8235294117647,4,1,0,60,0,0
148069,-100,4,1,0,60,0,0
149915,-66.6666666666667,4,1,0,60,0,0
150223,-58.8235294117647,4,1,0,60,0,0
150530,-100,4,1,0,60,0,0
152377,-58.8235294117647,4,1,0,60,0,0
152838,-100,4,1,0,60,0,0
154838,-66.6666666666667,4,1,0,60,0,0
155761,-100,4,1,0,60,0,0
166838,-100,4,1,0,60,0,0
167915,-76.9230769230769,4,1,0,60,0,0
168223,-62.5,4,1,0,60,0,0
168530,-52.6315789473684,4,1,0,60,0,0
168992,-100,4,1,0,60,0,1
169300,-66.6666666666667,4,1,0,60,0,1
171146,-100,4,1,0,60,0,1
171453,-58.8235294117647,4,1,0,60,0,1
172223,-100,4,1,0,60,0,1
172530,-58.8235294117647,4,1,0,60,0,1
173761,-100,4,1,0,60,0,1
174377,-58.8235294117647,4,1,0,60,0,1
174992,-100,4,1,0,60,0,1
175607,-58.8235294117647,4,1,0,60,0,1
176992,-100,4,1,0,60,0,1
177453,-66.6666666666667,4,1,0,60,0,1
177915,-100,4,1,0,60,0,1
178761,-66.6666666666667,4,1,0,60,0,0
178838,-58.8235294117647,4,1,0,60,0,1
180530,-100,4,1,0,60,0,1
180838,-58.8235294117647,4,1,0,60,0,1
182069,-100,4,1,0,60,0,1
182377,-58.8235294117647,4,1,0,60,0,1
183607,-100,4,1,0,60,0,1
184223,-58.8235294117647,4,1,0,60,0,1
184838,-100,4,1,0,60,0,1
185453,-58.8235294117647,4,1,0,60,0,1
191146,-83.3333333333333,4,1,0,40,0,0
192992,-66.6666666666667,4,1,0,40,0,0
193607,-83.3333333333333,4,1,0,40,0,0
195453,-58.8235294117647,4,1,0,40,0,0
196377,-83.3333333333333,4,1,0,40,0,0
197915,-66.6666666666667,4,1,0,40,0,0
198992,-83.3333333333333,4,1,0,40,0,0
200992,-71.4285714285714,4,1,0,40,0,0
202838,-62.5,4,1,0,40,0,0
203453,-71.4285714285714,4,1,0,40,0,0
205300,-50,4,1,0,40,0,0
206069,-71.4285714285714,4,1,0,40,0,0
207607,-62.5,4,1,0,40,0,0
208530,-71.4285714285714,4,1,0,40,0,0
210069,-100,4,1,0,40,0,0

[Colours]
Combo1 : 255,0,128
Combo2 : 0,255,255
Combo3 : 255,255,0
Combo4 : 255,128,0
Combo5 : 128,0,255

[HitObjects]
256,192,2838,12,0,4992,0:0:0:0:
504,140,5300,6,0,B|504:64|440:48|440:48|396:80,1,150.000005722046
396,176,5761,1,0,0:0:0:0:
384,288,5915,2,0,B|360:300|360:300|320:236|250:255,1,150.000005722046
260,368,6377,5,0,0:0:0:0:
148,348,6530,1,0,0:0:0:0:
84,256,6684,1,0,0:0:0:0:
0,180,6838,2,0,B|20:148|20:148|20:120|60:96,1,75.0000028610231
68,20,7300,5,0,0:0:0:0:
180,28,7453,2,0,B|240:28|280:48|280:48|276:120,1,150.000005722046
172,136,7915,1,0,0:0:0:0:
264,200,8069,1,0,0:0:0:0:
172,264,8223,1,0,0:0:0:0:
276,308,8377,2,0,B|328:296|328:296|376:252|428:276|428:276|460:208,1,225.000008583069
436,108,8992,5,8,0:0:0:0:
212,84,9300,1,8,0:0:0:0:
56,244,9607,1,8,0:0:0:0:
204,376,9915,1,4,0:0:0:0:
428,240,10223,6,0,B|410:172|346:172|346:172|300:244|244:200|244:200|176:200,1,259.999988098145,0|8,0:0|0:0,0:0:0:0:
268,80,10684,1,0,0:0:0:0:
220,200,10838,2,0,B|162:210|162:210|96:184|60:108,1,200,0|8,0:0|0:0,0:0:0:0:
176,48,11300,5,0,0:0:0:0:
64,112,11453,1,0,0:0:0:0:
52,240,11607,1,0,0:0:0:0:
176,272,11761,2,0,B|188:232|157:195|157:195|200:160,1,100,8|0,0:0|0:0,0:0:0:0:
296,156,12069,2,0,B|344:156|344:156|368:192|380:224,1,100
432,316,12377,1,8,0:0:0:0:
312,364,12530,1,0,0:0:0:0:
180,364,12684,6,0,B|156:339|156:339|28:332|32:272|32:272|68:236|60:156,1,259.999988098145,0|8,0:0|0:0,0:0:0:0:
100,48,13146,1,0,0:0:0:0:
16,144,13300,1,0,0:0:0:0:
132,264,13453,2,0,B|160:212|160:212|96:140|192:76,1,200
292,140,13915,5,0,0:0:0:0:
400,68,14069,2,0,B|380:24|332:20|332:20|308:40,1,119.999996337891,0|8,0:0|0:0,0:0:0:0:
200,172,14377,2,0,B|238:201|240:236|240:236|300:236,1,119.999996337891
412,252,14684,2,0,B|453:267|480:236|480:236|484:180,2,100,0|8|0,0:0|0:0|0:0,0:0:0:0:
244,272,15146,6,0,B|208:296|212:328|212:328|128:384|68:320|68:320|72:228,1,259.999988098145,0|8,0:0|0:0,0:0:0:0:
100,164,15607,1,0,0:0:0:0:
132,48,15761,2,0,B|180:40|180:40|216:112|272:124,1,150.000005722046,0|8,0:0|0:0,0:0:0:0:
332,32,16223,5,0,0:0:0:0:
416,116,16376,1,0,0:0:0:0:
340,208,16530,1,0,0:0:0:0:
220,256,16684,2,0,B|212:300|244:332|244:332|288:336,1,100,8|0,0:0|0:0,0:0:0:0:
340,208,16992,2,0,B|329:175|339:148|339:148|303:132,1,100
172,132,17300,1,8,0:0:0:0:
128,252,17453,1,0,0:0:0:0:
28,336,17607,6,0,B|88:392|120:372|120:372|144:312|224:328|224:328|264:308|224:252,1,259.999988098145,0|8,0:0|0:0,0:0:0:0:
232,176,18068,1,0,0:0:0:0:
144,92,18223,2,0,B|163:63|163:63|227:55|275:83,1,150.000005722046,0|8,0:0|0:0,0:0:0:0:
384,136,18684,5,0,0:0:0:0:
464,48,18837,1,0,0:0:0:0:
496,164,18991,1,0,0:0:0:0:
456,288,19146,2,0,B|408:312|372:284|372:284|372:240,1,100,8|0,0:0|0:0,0:0:0:0:
356,140,19453,2,0,B|376:120|376:120|362:66|326:34,1,119.999996337891
204,16,19761,1,8,0:0:0:0:
92,88,19915,1,0,0:0:0:0:
0,208,20069,6,0,P|28:221|72:224,1,50
52,152,20223,2,0,P|72:128|104:116,1,50
116,188,20377,2,0,P|123:253|36:284,1,129.999994049073,8|0,0:0|0:0,0:0:0:0:
136,360,20684,5,0,0:0:0:0:
232,292,20838,1,0,0:0:0:0:
248,260,20915,1,0,0:0:0:0:
260,228,20992,2,0,P|296:280|344:288,1,100,8|0,0:0|0:0,0:0:0:0:
452,240,21300,5,0,0:0:0:0:
472,112,21453,1,0,0:0:0:0:
372,44,21607,2,0,B|332:96|356:144|356:144|316:176,1,150.000005722046,8|0,0:0|0:0,0:0:0:0:
157,187,21915,6,0,P|172:200|184:228,1,50
116,270,22069,2,0,P|96:246|92:228,1,50
80,156,22223,2,0,B|48:124|56:88|56:88|104:56,1,100,8|0,0:0|0:0,0:0:0:0:
200,36,22530,5,0,0:0:0:0:
288,132,22684,1,0,0:0:0:0:
364,28,22838,2,0,B|384:24|384:24|416:40|431:84,1,100,8|0,0:0|0:0,0:0:0:0:
504,192,23146,1,0,0:0:0:0:
456,288,23300,1,0,0:0:0:0:
436,320,23377,1,0,0:0:0:0:
404,340,23453,2,0,P|320:295|267:297,1,150.000005722046,8|0,0:0|0:0,0:0:0:0:
120,324,23761,6,0,P|118:347|92:376,1,50
48,304,23915,2,0,P|62:281|88:260,1,50
156,256,24069,1,8,0:0:0:0:
128,128,24223,1,0,0:0:0:0:
216,32,24377,2,2,B|263:36|263:36|244:28|268:28|268:28|252:20|252:20|276:20|276:20|264:12|264:12|328:24|352:64|352:64|336:100|376:156,1,300,2|2,0:0|0:0,0:0:0:0:
392,256,24992,5,0,0:0:0:0:
316,364,25146,1,0,0:0:0:0:
212,288,25300,2,0,B|191:275|191:275|172:248|200:192,1,100,8|0,0:0|0:0,0:0:0:0:
296,124,25607,5,0,0:0:0:0:
240,24,25761,1,0,0:0:0:0:
200,24,25838,1,0,0:0:0:0:
156,32,25915,2,0,B|116:44|116:44|88:76|72:152,1,150.000005722046,8|0,0:0|0:0,0:0:0:0:
68,272,26223,6,0,P|88:280|116:284,1,50
112,208,26377,2,0,P|144:216|180:244,1,50
204,296,26530,2,0,B|218:283|218:283|244:260|236:196,1,100,8|0,0:0|0:0,0:0:0:0:
272,56,26838,6,0,P|296:62|324:84,1,50
264,136,26992,2,0,P|284:152|316:156,1,50
380,108,27146,2,0,B|413:116|413:116|453:168|425:224,1,150.000005722046,8|0,0:0|0:0,0:0:0:0:
360,336,27453,5,0,0:0:0:0:
236,376,27607,1,0,0:0:0:0:
116,328,27761,2,0,B|79:321|79:321|64:300|68:248,1,100,8|0,0:0|0:0,0:0:0:0:
108,136,28069,6,0,P|126:153|154:155,1,50
188,92,28223,2,0,P|211:95|234:111,1,50
220,188,28377,2,0,B|256:188|256:188|276:220|240:288,1,100,8|0,0:0|0:0,0:0:0:0:
164,340,28684,5,0,0:0:0:0:
52,272,28838,1,0,0:0:0:0:
44,144,28992,1,8,0:0:0:0:
148,68,29146,1,0,0:0:0:0:
356,64,29453,6,2,B|371:71|371:71|379:81|379:81|387:65|387:65|391:89|391:89|399:73|399:73|403:96|403:96|409:92|409:92|444:117|469:187|447:194,1,239.999992675781
272,288,29915,6,0,B|297:342|297:342|437:386|477:310,1,259.999988098145,4|8,0:0|0:0,0:0:0:0:
368,236,30377,1,0,0:0:0:0:
476,164,30530,1,0,0:0:0:0:
384,72,30684,2,0,B|348:92|332:132|332:132|284:136,1,100,0|8,0:0|0:0,0:0:0:0:
228,236,30992,5,0,0:0:0:0:
104,280,31146,1,0,0:0:0:0:
20,184,31300,2,0,B|-16:156|-4:120|-4:120|44:100,1,100,0|8,0:0|0:0,0:0:0:0:
144,64,31607,2,0,B|96:48|96:48|36:68|4:136,1,150.000005722046
132,176,31915,2,0,B|147:188|147:188|154:231|146:291|146:291|181:292|214:323,1,200
344,340,32377,5,0,0:0:0:0:
464,252,32530,2,0,P|488:242|528:252,1,50
460,320,32684,2,0,P|432:312|412:300,1,50,8|0,0:0|0:0,0:0:0:0:
388,224,32838,2,0,B|408:160|352:120|352:120|328:144,1,150.000005722046
264,256,33146,5,0,0:0:0:0:
140,288,33300,1,8,0:0:0:0:
36,212,33453,2,0,B|60:152|100:148|100:148|128:132,1,100
260,116,33761,2,0,B|220:128|220:128|260:184|184:224,1,119.999996337891,0|8,0:0|0:0,0:0:0:0:
104,144,34069,2,0,B|112:60|188:32|188:32|260:48,1,200
344,72,34530,5,8,0:0:0:0:
440,128,34684,1,0,0:0:0:0:
452,236,34838,2,0,B|389:297|309:251|309:251|273:281,1,200,0|8,0:0|0:0,0:0:0:0:
176,328,35300,1,0,0:0:0:0:
88,264,35453,1,0,0:0:0:0:
140,160,35607,6,0,B|186:147|222:171|222:171|202:219,1,100,0|8,0:0|0:0,0:0:0:0:
88,332,35915,2,0,B|26:341|-10:317|-10:317|10:269,1,150.000005722046
96,200,36223,1,0,0:0:0:0:
184,264,36377,1,8,0:0:0:0:
96,264,36530,2,0,B|16:260|16:156|16:156|64:112|152:104,1,259.999988098145
220,36,36992,5,8,0:0:0:0:
268,156,37146,1,0,0:0:0:0:
380,88,37300,1,0,0:0:0:0:
416,216,37453,1,0,0:0:0:0:
456,340,37607,2,0,B|372:389|303:355|303:355|280:321,1,200,8|0,0:0|0:0,0:0:0:0:
332,200,38069,6,0,P|304:172|216:164,1,100,0|8,0:0|0:0,0:0:0:0:
188,276,38377,2,0,P|130:260|102:232,1,100
188,84,38684,6,2,P|160:56|112:52,1,64.9999970245363
116,132,38838,2,2,P|108:152|120:196,1,64.9999970245363
200,168,38992,2,2,P|229:163|253:139,1,64.9999970245363
420,36,39300,5,8,0:0:0:0:
336,136,39453,1,8,0:0:0:0:
464,168,39607,1,8,0:0:0:0:
412,288,39761,6,0,B|408:340|408:340|320:368|264:312|264:312|244:256,1,259.999988098145,0|8,0:0|0:0,0:0:0:0:
192,144,40223,1,0,0:0:0:0:
84,72,40377,1,0,0:0:0:0:
28,188,40530,2,0,B|8:238|67:281|67:281|88:270,1,129.999994049073,0|8,0:0|0:0,0:0:0:0:
176,176,40838,2,0,B|185:139|219:113|219:113|248:108,1,100
352,104,41146,5,0,0:0:0:0:
388,208,41300,1,8,0:0:0:0:
256,232,41453,2,0,B|216:220|160:240|160:240|120:164,1,150.000005722046
40,128,41761,2,0,B|40:104|40:104|84:66|160:72,1,129.999994049073,0|8,0:0|0:0,0:0:0:0:
240,52,42069,5,0,0:0:0:0:
368,32,42223,2,0,B|403:59|416:108|416:108|396:132,1,100
400,244,42530,2,0,B|424:244|424:244|460:224|479:193,1,100,8|0,0:0|0:0,0:0:0:0:
440,68,42838,5,0,0:0:0:0:
356,164,42992,1,0,0:0:0:0:
280,72,43146,2,0,B|264:36|264:36|200:12|148:60,1,150.000005722046,8|0,0:0|0:0,0:0:0:0:
60,132,43453,1,0,0:0:0:0:
76,260,43607,1,0,0:0:0:0:
184,332,43761,1,8,0:0:0:0:
220,352,43838,1,0,0:0:0:0:
264,360,43915,2,0,B|304:352|320:328|320:328|324:264|276:224|276:224|328:176,1,239.999992675781
412,128,44377,5,8,0:0:0:0:
380,24,44530,1,0,0:0:0:0:
344,36,44607,1,0,0:0:0:0:
308,52,44684,2,0,B|268:72|231:63|231:63|192:92,1,100
112,156,44992,5,8,0:0:0:0:
68,276,45146,1,0,0:0:0:0:
180,316,45300,2,0,B|223:330|280:312|280:312|304:232,1,150.000005722046
328,140,45607,5,8,0:0:0:0:
432,216,45761,1,0,0:0:0:0:
352,316,45915,1,0,0:0:0:0:
188,352,46069,2,0,P|180:328|188:296,1,50
268,300,46223,2,0,P|264:272|240:240,1,50,8|0,0:0|0:0,0:0:0:0:
176,224,46377,2,0,B|200:192|224:180|224:180|272:180,2,100
72,300,46838,5,8,0:0:0:0:
0,192,46992,1,0,0:0:0:0:
36,68,47146,1,0,0:0:0:0:
148,4,47300,1,0,0:0:0:0:
260,72,47453,2,0,B|336:120|348:180|348:180|304:232,1,200,8|0,0:0|0:0,0:0:0:0:
216,316,47915,5,0,0:0:0:0:
120,224,48069,1,8,0:0:0:0:
200,120,48223,1,0,0:0:0:0:
308,64,48377,2,0,B|367:50|407:86|407:86|411:130,1,150.000005722046
248,208,48684,2,2,B|223:267|303:287|303:287|338:280,1,150.000005722046,8|0,0:0|0:0,0:0:0:0:
432,188,49146,5,8,0:0:0:0:
328,108,49300,1,8,0:0:0:0:
200,120,49453,1,8,0:0:0:0:
192,220,49607,6,0,B|168:272|168:272|128:276|60:260|60:200,1,200
60,104,50377,1,0,0:0:0:0:
128,32,50530,1,0,0:0:0:0:
228,24,50684,2,0,P|250:32|284:60,1,50
256,160,50992,2,0,B|272:128|272:128|305:125|334:98,1,100
364,196,51453,5,0,0:0:0:0:
276,248,51607,2,0,B|272:280|272:280|318:303|287:347,1,100
196,348,52069,2,0,B|144:368|144:368|84:348|84:288,1,150
88,120,52684,6,0,P|116:132|136:168,1,50,0|0,0:0|0:0,0:0:0:0:
88,240,52992,2,0,P|64:220|60:184,1,50
76,104,53300,5,8,0:0:0:0:
132,184,53453,1,0,0:0:0:0:
188,76,53607,1,0,0:0:0:0:
232,212,53761,1,0,0:0:0:0:
288,40,53915,1,8,0:0:0:0:
340,248,54069,1,0,0:0:0:0:
388,76,54223,1,0,0:0:0:0:
444,216,54377,1,0,0:0:0:0:
504,312,54530,6,0,B|456:352|400:320|400:320|360:328,1,150,8|0,0:0|0:0,0:0:0:0:
256,372,55146,2,0,P|237:361|220:339,1,50
180,248,55453,1,0,0:0:0:0:
116,172,55607,1,0,0:0:0:0:
60,256,55761,2,0,B|60:255|60:255|75:298|88:311|88:311|124:315,2,100
156,238,56530,2,2,B|140:152|56:108|56:108|120:36|320:72,1,389.999982147218
440,96,57146,5,12,0:0:0:0:
304,244,57300,1,0,0:0:0:0:
152,84,57607,5,8,0:0:0:0:
304,140,57761,1,0,0:0:0:0:
100,308,58069,5,8,0:0:0:0:
212,140,58223,1,0,0:0:0:0:
436,320,58530,5,12,0:0:0:0:
52,328,58838,6,0,P|60:300|84:268,1,50,0|0,0:0|0:0,0:0:0:0:
156,340,58992,2,0,P|186:337|212:316,1,50
156,252,59146,2,0,B|148:208|148:208|216:224|260:172,1,150.000005722046,0|0,0:0|0:0,0:0:0:0:
348,264,59453,5,0,0:0:0:0:
464,204,59607,1,0,0:0:0:0:
360,124,59761,2,0,B|376:84|412:72|412:72|396:40,1,100,8|0,0:0|0:0,0:0:0:0:
272,28,60069,5,0,0:0:0:0:
200,136,60223,1,0,0:0:0:0:
320,124,60377,2,0,B|372:172|372:172|350:257|272:284|272:284|202:253,1,300.000011444092,8|0,0:0|0:0,0:0:0:0:
96,212,60838,2,0,B|108:176|168:144|128:80|128:80|192:36|312:56,1,300.000011444092
404,40,61300,5,0,0:0:0:0:
512,100,61453,1,0,0:0:0:0:
384,128,61607,1,8,0:0:0:0:
500,188,61761,1,0,0:0:0:0:
456,276,61915,2,0,B|460:308|460:308|356:396|276:348|276:348|240:272,1,300.000011444092,0|8,0:0|0:0,0:0:0:0:
288,176,62377,5,0,0:0:0:0:
248,288,62530,1,0,0:0:0:0:
136,356,62684,1,0,0:0:0:0:
16,304,62838,1,8,0:0:0:0:
48,192,62992,2,0,B|80:144|80:144|120:116|172:136,1,150.000005722046
192,244,63300,2,0,B|252:262|292:214|292:214|300:174,1,150.000005722046,0|8,0:0|0:0,0:0:0:0:
264,60,63607,2,0,B|305:29|362:68|362:68|393:33,1,150.000005722046
448,144,63915,5,0,0:0:0:0:
436,264,64069,1,8,0:0:0:0:
348,360,64223,1,0,0:0:0:0:
216,356,64377,1,0,0:0:0:0:
188,236,64530,2,0,P|174:207|172:164,1,50
216,128,64684,2,0,P|188:116|132:120,1,50,8|0,0:0|0:0,0:0:0:0:
100,152,64838,2,0,B|72:172|72:172|40:232|136:336,1,150.000005722046
192,352,65146,5,0,0:0:0:0:
312,368,65300,1,8,0:0:0:0:
432,324,65453,1,0,0:0:0:0:
492,204,65607,1,0,0:0:0:0:
428,68,65761,1,0,0:0:0:0:
320,72,65915,1,8,0:0:0:0:
288,84,65992,1,0,0:0:0:0:
260,104,66069,2,0,B|216:132|216:132|228:196|176:248|176:248|132:216|56:248,1,300.000011444092
20,356,66530,5,8,0:0:0:0:
64,244,66684,1,0,0:0:0:0:
44,124,66838,2,0,B|80:104|80:104|76:40|156:24,1,150.000005722046
264,20,67146,2,0,B|312:16|312:16|368:36|408:96,1,150.000005722046,8|0,0:0|0:0,0:0:0:0:
476,176,67453,1,0,0:0:0:0:
480,308,67607,5,0,0:0:0:0:
368,372,67761,1,8,0:0:0:0:
232,352,67915,2,0,B|180:324|163:261|163:261|100:296,1,150.000005722046
24,320,68223,1,0,0:0:0:0:
140,224,68377,5,8,0:0:0:0:
176,212,68453,1,0,0:0:0:0:
216,204,68530,1,0,0:0:0:0:
256,208,68607,1,0,0:0:0:0:
296,196,68684,1,0,0:0:0:0:
352,140,68838,6,0,P|368:131|382:104,1,50
460,80,68992,2,0,P|452:56|420:44,1,50,8|0,0:0|0:0,0:0:0:0:
348,36,69146,2,0,P|324:48|300:76,1,50
252,116,69300,2,0,B|216:116|216:116|152:104|148:36|148:36|48:64|44:152,1,300.000011444092,0|8,0:0|0:0,0:0:0:0:
32,252,69761,5,0,0:0:0:0:
112,344,69915,1,0,0:0:0:0:
232,364,70069,2,0,B|288:336|293:291|293:291|340:264,1,150.000005722046,0|8,0:0|0:0,0:0:0:0:
424,184,70377,6,0,B|408:148|408:148|360:124|228:156,1,150.000005722046
180,164,70684,2,0,B|160:96|208:64|208:64|199:28,1,150.000005722046,0|8,0:0|0:0,0:0:0:0:
68,12,70992,1,0,0:0:0:0:
0,124,71146,1,0,0:0:0:0:
52,232,71300,2,0,B|68:276|68:276|136:316|228:236|228:236|304:268,1,300.000011444092
356,372,71761,6,0,B|412:360|412:360|492:268|404:176|404:176|420:88,1,300.000011444092,0|8,0:0|0:0,0:0:0:0:
496,56,72223,1,0,0:0:0:0:
384,16,72377,1,0,0:0:0:0:
268,72,72530,1,0,0:0:0:0:
304,196,72684,5,8,0:0:0:0:
284,232,72761,1,0,0:0:0:0:
248,260,72838,2,0,B|212:244|212:244|196:188|252:140,1,150.000005722046
356,96,73146,2,0,B|348:58|348:58|308:11|248:28,1,150.000005722046,0|8,0:0|0:0,0:0:0:0:
148,92,73453,2,0,B|159:153|103:185|103:185|55:137,1,150.000005722046
64,36,73761,5,0,0:0:0:0:
184,16,73915,1,8,0:0:0:0:
268,116,74069,1,0,0:0:0:0:
152,176,74223,1,0,0:0:0:0:
52,260,74377,1,0,0:0:0:0:
24,288,74453,1,0,0:0:0:0:
20,328,74530,1,8,0:0:0:0:
48,356,74607,1,0,0:0:0:0:
76,368,74684,2,0,B|154:354|176:324|176:324|164:236,1,150.000005722046
96,188,74992,5,0,0:0:0:0:
168,92,75146,1,8,0:0:0:0:
284,148,75300,1,0,0:0:0:0:
208,252,75453,1,0,0:0:0:0:
320,248,75607,2,0,P|352:268|372:304,1,50
336,344,75761,2,0,P|357:353|385:341,1,50,8|0,0:0|0:0,0:0:0:0:
448,276,75915,2,0,B|424:232|424:232|492:184|424:112,1,150.000005722046
360,64,76223,6,0,B|299:39|248:48|248:48|208:112,1,150.000005722046,0|8,0:0|0:0,0:0:0:0:
300,176,76530,2,0,B|308:216|308:216|256:244|165:222,1,150.000005722046
124,136,76838,2,0,B|69:120|17:148|17:148|16:192,1,150.000005722046,0|8,0:0|0:0,0:0:0:0:
116,308,77146,2,0,B|72:280|32:288|32:288|16:212,2,150.000005722046,0|0|0,0:0|0:0|0:0,0:0:0:0:
232,344,77607,5,0,0:0:0:0:
340,292,77761,1,0,0:0:0:0:
412,196,77915,2,0,B|378:174|378:174|316:212|236:176,1,150.000005722046,8|0,0:0|0:0,0:0:0:0:
160,232,78223,2,0,B|123:176|147:124|147:124|179:104,1,150.000005722046,8|0,0:0|0:0,0:0:0:0:
284,320,78684,1,8,0:0:0:0:
176,368,78838,1,8,0:0:0:0:
12,160,79146,1,4,0:0:0:0:
220,40,79453,5,0,0:0:0:0:
272,148,79607,2,0,B|296:152|296:152|312:108|380:96,1,100,0|8,0:0|0:0,0:0:0:0:
468,84,79915,1,0,0:0:0:0:
380,308,80223,5,0,0:0:0:0:
200,152,80530,1,0,0:0:0:0:
32,324,80838,1,0,0:0:0:0:
136,176,80993,2,0,B|108:144|108:144|44:128|-64:176,1,150.000005722046,8|0,0:0|0:0,0:0:0:0:
112,292,81300,2,0,B|140:324|140:324|204:340|312:292,1,150.000005722046
352,260,81607,5,0,0:0:0:0:
464,308,81761,2,0,B|447:312|447:312|429:354|377:357,1,100
264,332,82069,2,0,B|216:336|196:312|196:312|184:264,2,100,0|8|0,0:0|0:0|0:0,0:0:0:0:
444,176,82684,5,0,0:0:0:0:
252,28,82992,1,0,0:0:0:0:
368,64,83146,1,0,0:0:0:0:
388,184,83300,1,0,0:0:0:0:
264,184,83453,2,2,B|233:182|233:182|204:200|184:200|184:200|160:200|160:200|176:184|176:184|152:192|152:192|168:176|168:176|144:180|144:180|164:168|164:168|140:172|140:172|156:160|156:160|136:160|136:160|144:144|144:144|176:92|108:36|108:36|20:120,1,510.000009727478,8|0,0:0|0:0,0:0:0:0:
16,216,84069,1,4,0:0:0:0:
236,356,84377,5,0,0:0:0:0:
112,320,84531,2,0,B|144:320|144:320|165:288|224:256,1,100,0|8,0:0|0:0,0:0:0:0:
316,228,84839,1,0,0:0:0:0:
152,24,85147,5,0,0:0:0:0:
56,264,85454,1,0,0:0:0:0:
316,228,85762,1,0,0:0:0:0:
272,116,85917,2,0,B|296:96|296:96|376:92|436:164,1,150.000005722046,8|0,0:0|0:0,0:0:0:0:
300,244,86224,2,0,B|291:273|291:273|212:276|152:212,1,150.000005722046
92,140,86530,1,0,0:0:0:0:
320,12,86838,5,0,0:0:0:0:
436,68,86992,2,0,B|451:87|451:87|408:120|428:164,1,100,8|0,0:0|0:0,0:0:0:0:
492,264,87300,2,0,B|468:312|468:312|384:328|284:272,1,200,0|8,0:0|0:0,0:0:0:0:
212,60,87915,6,0,B|188:44|188:44|152:32|84:68,1,100
16,152,88223,2,2,B|48:144|48:144|64:172|116:172,1,100
216,300,88684,6,0,P|245:282|252:264,1,50
328,228,88838,2,0,P|308:204|276:188,1,50
244,128,88992,2,0,B|272:116|304:120|304:120|324:52|404:64|404:64|408:132|496:216,1,300.000011444092,0|8,0:0|0:0,0:0:0:0:
496,284,89453,5,0,0:0:0:0:
396,364,89606,1,0,0:0:0:0:
248,364,89760,2,0,B|216:372|184:356|184:356|144:312,1,100,0|8,0:0|0:0,0:0:0:0:
64,240,90068,5,0,0:0:0:0:
168,164,90222,1,0,0:0:0:0:
44,120,90376,2,0,B|8:92|20:56|20:56|68:36,1,100,0|8,0:0|0:0,0:0:0:0:
160,84,90684,2,0,B|160:124|160:124|224:132|256:200,1,150.000005722046
256,304,90991,2,0,B|312:314|360:304|360:304|424:244|376:172|376:172|428:116,1,300.000011444092
380,20,91453,5,0,0:0:0:0:
296,120,91607,1,0,0:0:0:0:
200,208,91761,1,8,0:0:0:0:
164,236,91838,1,0,0:0:0:0:
124,220,91915,2,0,B|84:160|132:112|132:112|184:104,1,150.000005722046
296,120,92222,5,0,0:0:0:0:
416,172,92376,1,8,0:0:0:0:
504,268,92529,2,0,B|515:273|515:273|535:309|491:349,1,100
376,384,92838,2,0,B|336:372|336:372|360:296|300:276,1,150.000005722046,0|8,0:0|0:0,0:0:0:0:
280,160,93146,2,0,B|240:144|240:144|156:172|172:256|172:256|123:300|36:288,1,300.000011444092
4,180,93607,5,8,0:0:0:0:
52,60,93761,1,0,0:0:0:0:
176,24,93915,2,0,B|216:10|216:10|296:56|232:172,1,200,0|8,0:0|0:0,0:0:0:0:
144,232,94376,1,0,0:0:0:0:
212,344,94529,1,0,0:0:0:0:
320,268,94684,6,0,B|304:236|273:226|273:226|256:188,1,100,0|8,0:0|0:0,0:0:0:0:
380,184,94992,2,0,B|443:163|462:127|462:127|412:84,1,150.000005722046
308,40,95300,1,0,0:0:0:0:
184,76,95453,1,8,0:0:0:0:
144,84,95530,1,0,0:0:0:0:
104,96,95607,2,0,B|73:110|73:110|40:179|86:248|86:248|155:256|200:320,1,300.000011444092
76,352,96068,5,8,0:0:0:0:
188,304,96222,1,0,0:0:0:0:
304,340,96376,1,0,0:0:0:0:
400,268,96529,1,0,0:0:0:0:
480,164,96683,2,0,B|404:75|344:96|344:96|312:143,1,200,8|0,0:0|0:0,0:0:0:0:
320,260,97145,6,0,P|262:244|234:216,1,100,0|8,0:0|0:0,0:0:0:0:
196,48,97453,2,0,P|253:63|281:91,1,100
192,248,97761,6,2,P|168:272|139:277,1,64.9999970245363
128,204,97915,2,2,P|118:163|126:143,1,64.9999970245363,8|0,0:0|0:0,0:0:0:0:
204,172,98068,2,2,P|227:178|255:206,1,64.9999970245363
376,360,98376,5,8,0:0:0:0:
248,348,98529,1,8,0:0:0:0:
324,244,98683,1,8,0:0:0:0:
444,260,98838,6,0,B|492:211|480:124|396:120|396:120|356:96|369:46|369:46|336:20,1,300.000011444092,0|8,0:0|0:0,0:0:0:0:
232,20,99300,1,0,0:0:0:0:
120,68,99454,1,0,0:0:0:0:
232,116,99607,2,0,B|265:117|265:117|324:160|296:260,1,150.000005722046,0|8,0:0|0:0,0:0:0:0:
244,324,99915,2,0,B|196:320|196:320|200:276|144:228,1,150.000005722046
44,156,100223,5,0,0:0:0:0:
16,284,100377,1,8,0:0:0:0:
196,352,100530,2,0,B|228:364|236:380|236:380|276:326|276:252,1,150.000005722046
184,192,100838,2,0,B|184:168|184:168|228:130|284:140,1,100,0|8,0:0|0:0,0:0:0:0:
360,216,101146,5,0,0:0:0:0:
480,164,101300,2,0,B|504:196|508:240|508:240|480:264,1,100
380,312,101607,2,0,B|340:323|327:362|327:362|303:362,1,100,8|0,0:0|0:0,0:0:0:0:
228,256,101915,5,0,0:0:0:0:
288,140,102069,1,0,0:0:0:0:
356,40,102223,2,0,B|316:7|251:20|251:20|224:52,1,150.000005722046,8|0,0:0|0:0,0:0:0:0:
136,144,102530,5,0,0:0:0:0:
64,252,102684,1,0,0:0:0:0:
144,356,102838,1,8,0:0:0:0:
184,368,102915,1,0,0:0:0:0:
224,360,102992,2,0,B|238:335|280:328|280:328|288:292|320:272|320:272|284:208,1,200
160,244,103453,5,8,0:0:0:0:
76,144,103607,1,0,0:0:0:0:
156,40,103761,2,0,B|180:24|180:24|216:28|244:56,1,100
288,176,104069,5,8,0:0:0:0:
216,284,104223,1,0,0:0:0:0:
336,300,104377,2,0,B|379:314|424:300|424:300|444:212,1,150
436,120,104684,5,8,0:0:0:0:
440,240,104838,1,0,0:0:0:0:
328,308,104992,1,0,0:0:0:0:
200,324,105146,1,0,0:0:0:0:
96,244,105300,1,8,0:0:0:0:
64,216,105377,1,0,0:0:0:0:
36,184,105454,2,0,B|1:165|5:133|5:133|25:101,2,100
168,180,105915,5,8,0:0:0:0:
236,68,106069,1,0,0:0:0:0:
112,32,106223,1,0,0:0:0:0:
28,132,106377,1,0,0:0:0:0:
60,156,106453,1,0,0:0:0:0:
100,164,106530,2,0,B|140:140|144:96|144:96|192:64|272:116,1,200,8|0,0:0|0:0,0:0:0:0:
348,196,106992,5,0,0:0:0:0:
424,300,107146,1,8,0:0:0:0:
296,332,107300,1,0,0:0:0:0:
180,356,107453,2,0,B|122:369|82:333|82:333|70:289,1,150.000005722046
88,168,107761,2,0,B|132:148|132:148|204:164|216:232,1,150.000005722046,8|0,0:0|0:0,0:0:0:0:
284,304,108223,5,8,0:0:0:0:
388,244,108377,1,0,0:0:0:0:
428,132,108530,1,8,0:0:0:0:
340,52,108684,6,0,B|301:68|266:31|266:31|237:99|169:87|169:87|136:102|100:160,1,300.000011444092
88,276,109454,1,0,0:0:0:0:
104,156,109607,1,0,0:0:0:0:
224,168,109761,2,0,P|272:156|308:112,1,75.0000028610231
396,80,110069,2,0,B|411:52|404:24|404:24|468:20|504:72,1,150.000005722046
512,172,110530,5,0,0:0:0:0:
492,292,110684,2,0,B|484:324|484:324|438:347|384:332|344:312,1,150.000005722046
264,376,111146,2,0,B|212:332|212:332|204:260|288:203,1,225.000008583069
384,132,111761,6,0,P|363:94|335:82,1,75.0000028610231,0|0,0:0|0:0,0:0:0:0:
204,132,112069,2,0,P|206:140|258:176,1,75.0000028610231
280,40,112377,5,8,0:0:0:0:
172,92,112530,1,0,0:0:0:0:
316,120,112684,1,0,0:0:0:0:
144,180,112838,1,0,0:0:0:0:
336,200,112992,1,8,0:0:0:0:
172,260,113146,1,0,0:0:0:0:
316,280,113300,1,0,0:0:0:0:
224,344,113454,1,0,0:0:0:0:
104,328,113607,6,0,B|56:324|56:324|12:276|64:216|64:216|72:188|48:148,1,225.000008583069,8|0,0:0|0:0,0:0:0:0:
92,48,114223,2,0,B|99:59|135:53|135:53|147:81,1,75.0000028610231
264,64,114530,1,0,0:0:0:0:
256,184,114684,1,0,0:0:0:0:
264,64,114838,2,0,B|272:97|272:97|328:73|380:113,2,150.000005722046
308,188,115607,2,2,B|219:207|236:280|236:280|156:328|64:256|64:256|48:208|72:176,1,389.999982147218
36,36,116223,5,8,0:0:0:0:
156,112,116377,1,0,0:0:0:0:
356,108,116684,5,8,0:0:0:0:
240,200,116838,1,0,0:0:0:0:
56,204,117146,5,8,0:0:0:0:
196,316,117300,1,0,0:0:0:0:
388,268,117607,5,4,0:0:0:0:
208,48,117915,6,0,P|197:65|189:93,1,50,0|0,0:0|0:0,0:0:0:0:
184,176,118069,2,0,P|214:173|240:152,1,50
268,96,118223,2,2,B|292:80|292:80|328:80|376:132,1,100
432,216,118530,5,0,0:0:0:0:
380,336,118684,1,0,0:0:0:0:
308,240,118838,2,0,B|304:196|244:188|244:188|188:216,1,150.000005722046,8|0,0:0|0:0,0:0:0:0:
172,336,119146,5,0,0:0:0:0:
56,304,119300,1,0,0:0:0:0:
84,188,119454,2,0,B|120:168|168:180|168:180|131:101|255:85|255:85|295:125,1,300.000011444092,8|0,0:0|0:0,0:0:0:0:
272,240,119915,2,0,B|284:276|284:276|348:296|416:276|416:276|452:220|432:140,1,300.000011444092
380,44,120377,5,0,0:0:0:0:
264,12,120530,1,0,0:0:0:0:
148,72,120684,1,8,0:0:0:0:
252,152,120838,1,0,0:0:0:0:
240,192,120915,1,0,0:0:0:0:
228,224,120992,2,0,B|200:316|112:328|80:300|80:300|112:248|56:184,1,300.000011444092,0|8,0:0|0:0,0:0:0:0:
8,92,121454,5,0,0:0:0:0:
92,176,121607,1,0,0:0:0:0:
224,176,121761,1,0,0:0:0:0:
148,72,121915,1,8,0:0:0:0:
108,76,121992,1,0,0:0:0:0:
72,96,122069,2,0,B|28:116|28:116|0:160|40:240,1,150.000005722046
148,228,122377,2,0,B|155:265|155:265|195:313|255:295,1,150.000005722046,0|8,0:0|0:0,0:0:0:0:
368,248,122684,2,0,B|396:208|444:204|444:204|428:136,1,150.000005722046
352,56,122992,5,0,0:0:0:0:
236,24,123146,1,8,0:0:0:0:
120,88,123300,1,0,0:0:0:0:
64,204,123453,1,0,0:0:0:0:
120,324,123607,2,0,B|90:326|71:316|71:315,1,50
128,248,123761,2,0,P|144:246|172:262,1,50,8|0,0:0|0:0,0:0:0:0:
216,336,123915,2,0,B|248:324|248:324|272:259|240:200,1,150.000005722046
204,96,124223,5,0,0:0:0:0:
308,36,124377,1,8,0:0:0:0:
420,84,124530,1,0,0:0:0:0:
320,168,124684,1,0,0:0:0:0:
220,252,124838,1,0,0:0:0:0:
208,288,124915,1,0,0:0:0:0:
220,328,124992,1,8,0:0:0:0:
256,348,125069,1,0,0:0:0:0:
296,352,125146,2,0,B|320:300|320:300|404:316|424:240|424:240|380:172|480:128,1,300.000011444092
412,32,125607,5,8,0:0:0:0:
292,52,125761,1,0,0:0:0:0:
180,88,125915,2,0,B|162:147|97:155|97:155|78:187,1,150.000005722046
188,236,126223,2,0,B|223:249|231:309|231:309|185:348,1,150.000005722046,8|0,0:0|0:0,0:0:0:0:
68,296,126530,5,0,0:0:0:0:
4,184,126684,1,0,0:0:0:0:
84,80,126838,1,8,0:0:0:0:
196,36,126992,2,0,B|239:11|239:11|256:74|304:78,1,150.000005722046
416,128,127300,1,0,0:0:0:0:
456,252,127453,5,8,0:0:0:0:
352,332,127607,1,8,0:0:0:0:
316,216,127761,1,8,0:0:0:0:
216,296,127915,1,8,0:0:0:0:
108,220,128069,5,8,0:0:0:0:
84,188,128146,1,8,0:0:0:0:
72,152,128223,1,8,0:0:0:0:
84,112,128300,1,8,0:0:0:0:
107,74,128377,2,0,B|128:44|128:44|205:-21|280:26|280:26|291:97|391:91,1,300.000011444092,0|8,0:0|0:0,0:0:0:0:
424,0,128838,5,0,0:0:0:0:
344,88,128992,1,0,0:0:0:0:
464,108,129146,2,0,B|463:157|403:181|403:181|400:229,1,150.000005722046,0|8,0:0|0:0,0:0:0:0:
504,292,129454,6,0,B|488:328|488:328|440:352|308:320,1,150.000005722046
264,364,129761,2,0,B|244:296|292:264|292:264|283:228,1,150.000005722046,0|8,0:0|0:0,0:0:0:0:
168,164,130069,1,0,0:0:0:0:
80,260,130223,1,0,0:0:0:0:
56,228,130300,1,0,0:0:0:0:
48,188,130377,2,0,B|28:136|44:56|128:56|128:56|160:116|260:104,1,300.000011444092
304,8,130838,6,0,B|360:20|360:20|440:112|352:204|352:204|358:239,1,300.000011444092,0|8,0:0|0:0,0:0:0:0:
304,132,131300,1,0,0:0:0:0:
360,240,131454,1,0,0:0:0:0:
304,356,131607,5,0,0:0:0:0:
172,352,131761,1,8,0:0:0:0:
60,308,131915,2,0,B|24:292|24:292|8:236|76:200,1,150.000005722046
192,188,132223,2,0,B|184:150|184:150|144:103|86:108,1,150.000005722046,0|8,0:0|0:0,0:0:0:0:
0,44,132530,2,0,B|40:12|88:8|88:8|200:32,1,150.000005722046
260,40,132838,5,0,0:0:0:0:
368,88,132992,1,8,0:0:0:0:
452,188,133146,1,0,0:0:0:0:
400,308,133300,5,0,0:0:0:0:
336,196,133453,1,0,0:0:0:0:
284,316,133607,1,8,0:0:0:0:
244,304,133684,1,0,0:0:0:0:
216,272,133761,2,0,B|192:228|192:228|132:208|60:260,1,150.000005722046
140,352,134069,5,0,0:0:0:0:
96,240,134223,1,8,0:0:0:0:
72,112,134377,1,0,0:0:0:0:
180,40,134530,1,0,0:0:0:0:
300,28,134684,2,0,P|321:19|345:27,1,50
324,100,134838,2,0,P|328:126|344:152,1,50,8|0,0:0|0:0,0:0:0:0:
416,124,134992,2,0,B|440:164|391:210|391:210|424:264,1,150.000005722046
320,328,135300,6,0,B|271:351|204:320|204:320|191:291,1,150.000005722046,0|8,0:0|0:0,0:0:0:0:
84,244,135607,2,0,B|76:204|76:204|128:176|182:191,1,150.000005722046
384,144,135915,2,0,B|392:184|392:184|340:212|250:189,1,150.000005722046,0|8,0:0|0:0,0:0:0:0:
224,92,136223,2,0,B|188:90|152:76|144:40|144:40|48:44,2,150.000005722046
316,16,136684,5,8,0:0:0:0:
392,108,136838,1,0,0:0:0:0:
332,212,136992,2,0,B|288:235|226:197|226:197|192:219,1,150.000005722046,8|0,0:0|0:0,0:0:0:0:
92,284,137300,2,0,B|55:228|79:176|79:176|111:156,1,150.000005722046,8|0,0:0|0:0,0:0:0:0:
332,68,137761,5,8,0:0:0:0:
272,172,137915,1,8,0:0:0:0:
444,264,138223,1,4,0:0:0:0:
272,356,138530,5,0,0:0:0:0:
176,332,138684,2,0,B|160:337|160:337|120:316|120:268,1,75.0000028610231,0|8,0:0|0:0,0:0:0:0:
80,208,138992,1,0,0:0:0:0:
196,52,139300,5,0,0:0:0:0:
312,208,139607,1,0,0:0:0:0:
340,16,139915,1,0,0:0:0:0:
472,152,140070,2,0,P|456:168|412:172,1,50,8|0,0:0|0:0,0:0:0:0:
212,248,140377,2,0,P|235:268|256:272,1,50
464,276,140684,5,0,0:0:0:0:
344,320,140838,2,0,B|327:324|327:324|309:366|272:368,1,75.0000028610231
212,248,141146,2,0,B|172:228|152:236|152:236|120:272,2,75.0000028610231,0|8|0,0:0|0:0|0:0,0:0:0:0:
440,176,141761,5,0,0:0:0:0:
260,20,142069,1,0,0:0:0:0:
228,136,142223,1,0,0:0:0:0:
132,208,142377,1,0,0:0:0:0:
44,96,142531,2,2,B|72:96|72:96|44:92|44:92|72:92|72:92|44:88|44:88|72:88|72:88|44:84|44:84|72:84|72:84|44:80|44:80|72:80|72:80|44:76|44:76|62:76,1,300,8|0,0:0|0:0,0:0:0:0:
132,208,143146,1,0,0:0:0:0:
324,328,143454,5,0,0:0:0:0:
224,276,143608,2,0,B|234:264|233:234|233:234|262:221,1,75.0000028610231,0|8,0:0|0:0,0:0:0:0:
368,188,143916,1,0,0:0:0:0:
216,20,144224,5,0,0:0:0:0:
428,96,144531,1,0,0:0:0:0:
228,196,144839,1,0,0:0:0:0:
248,88,144992,2,0,B|224:68|192:84,1,50,8|0,0:0|0:0,0:0:0:0:
320,260,145301,2,0,P|341:266|369:263,1,50
300,352,145607,1,0,0:0:0:0:
96,252,145915,5,0,0:0:0:0:
204,216,146069,2,0,P|214:176|202:145,1,75.0000028610231,0|8,0:0|0:0,0:0:0:0:
192,32,146377,2,0,P|221:33|261:56,1,75.0000028610231
372,136,146684,6,2,B|367:166|367:166|399:150|399:150|371:178|371:178|407:166|407:166|419:238|419:238|396:292|316:324,1,340.000006484985
248,208,147146,1,0,0:0:0:0:
120,164,147300,2,0,B|92:180|92:180|64:248|152:308,2,170.000003242493
248,116,147761,1,8,0:0:0:0:
392,44,148069,1,4,0:0:0:0:
460,188,148377,5,8,0:0:0:0:
404,304,148531,2,0,B|364:309|344:340|344:340|292:288,1,100
236,224,148839,1,0,0:0:0:0:
68,28,149147,5,0,0:0:0:0:
236,224,149454,1,0,0:0:0:0:
452,76,149762,1,0,0:0:0:0:
508,184,149917,2,0,B|480:216|480:216|416:232|308:184,1,150.000005722046
344,76,150224,2,0,B|282:42|218:58|218:58|191:89,1,170.000003242493,8|0,0:0|0:0,0:0:0:0:
296,168,150531,5,0,0:0:0:0:
320,296,150685,2,0,B|312:328|312:328|280:344|240:332,1,100,0|8,0:0|0:0,0:0:0:0:
116,344,150993,2,0,B|98:361|98:361|70:349|50:305,2,100
304,164,151608,5,0,0:0:0:0:
496,340,151916,1,0,0:0:0:0:
368,324,152070,1,8,0:0:0:0:
268,240,152224,1,0,0:0:0:0:
364,144,152378,2,2,B|324:132|324:132|340:112|340:112|312:128|312:128|328:104|328:104|300:124|300:124|316:100|316:100|220:148|168:88|168:88|76:112|128:240,1,510.000009727478
164,336,152993,1,0,0:0:0:0:
0,136,153301,5,8,0:0:0:0:
120,216,153455,2,0,B|152:216|152:216|173:184|232:152,1,100
304,88,153763,1,0,0:0:0:0:
440,312,154071,5,0,0:0:0:0:
184,340,154378,1,0,0:0:0:0:
364,152,154686,1,0,0:0:0:0:
416,44,154838,2,0,B|392:24|392:24|312:20|252:92,1,150.000005722046
164,208,155146,2,0,B|173:237|173:237|252:240|316:188,1,150.000005722046,8|0,0:0|0:0,0:0:0:0:
396,156,155453,1,0,0:0:0:0:
160,48,155762,5,8,0:0:0:0:
40,100,155916,2,0,B|12:120|12:120|12:152|32:196,1,100
96,296,156224,2,0,B|141:384|227:373|227:373|255:349,1,200
180,100,156839,6,0,B|204:84|204:84|240:72|308:108,1,100,0|8,0:0|0:0,0:0:0:0:
252,216,157147,2,0,B|258:234|258:234|294:250|336:234,1,100
444,164,157453,5,0,0:0:0:0:
472,136,157530,1,0,0:0:0:0:
484,100,157607,1,0,0:0:0:0:
468,64,157684,1,0,0:0:0:0:
432,48,157761,1,0,0:0:0:0:
392,40,157838,1,0,0:0:0:0:
352,40,157915,1,0,0:0:0:0:
232,56,158069,6,0,P|232:32|248:8,7,50
228,96,158684,2,2,B|226:119|226:119|234:120|234:120|234:128|234:128|224:125|224:125|216:120|216:120|220:129|220:129|232:136|232:136|216:136|216:136|264:160|212:232|212:232|160:196|88:248,1,300
164,340,167607,6,2,B|188:356|188:356|240:368|284:312,1,100
424,288,167915,2,2,B|416:256|416:256|360:272|296:200,1,129.999994049073
80,200,168223,2,2,B|75:165|75:165|88:112|152:100|152:100|160:36,1,160
400,104,168530,2,2,B|368:100|368:100|352:40|300:32|300:32|264:72|192:72,1,189.999994926453
236,184,168838,1,0,0:0:0:0:
440,260,168992,6,0,P|448:240|445:213,1,50,2|0,0:0|0:0,0:0:0:0:
360,176,169146,2,0,P|355:203|367:226,1,50
360,304,169300,2,0,B|364:340|296:356|296:356|240:328,1,150.000005722046,8|0,0:0|0:0,0:0:0:0:
128,256,169608,5,0,0:0:0:0:
88,140,169762,1,0,0:0:0:0:
232,160,169916,2,0,B|280:200|280:200|328:120|447:120|447:120|444:192,1,300.000011444092,8|0,0:0|0:0,0:0:0:0:
408,292,170377,2,0,B|364:280|336:296|336:296|312:348|192:336|192:336|216:292|176:228,1,300.000011444092
60,268,170839,5,0,0:0:0:0:
28,136,170992,1,0,0:0:0:0:
204,96,171146,2,0,P|199:71|187:51,1,50,8|0,0:0|0:0,0:0:0:0:
128,112,171300,2,0,P|132:136|152:164,1,50
236,176,171454,2,0,B|248:264|342:283|342:283|312:192|416:132,1,340.000006484985,0|8,0:0|0:0,0:0:0:0:
492,264,171916,5,0,0:0:0:0:
412,136,172069,1,0,0:0:0:0:
332,32,172223,6,0,P|306:17|272:24,1,50
272,92,172377,2,0,P|236:76|208:52,1,50,8|0,0:0|0:0,0:0:0:0:
168,8,172531,2,0,B|124:20|124:20|68:76|128:152,1,170.000003242493
268,148,172839,2,0,B|270:204|210:236|210:236|150:240,1,170.000003242493,0|8,0:0|0:0,0:0:0:0:
20,320,173146,2,0,B|78:373|78:373|128:376|172:344,1,170.000003242493
312,300,173454,5,0,0:0:0:0:
456,352,173608,1,8,0:0:0:0:
400,236,173762,2,0,L|438:205,1,50
344,188,173916,2,0,L|284:220,1,50
336,276,174069,2,0,L|372:312,1,50
408,152,174223,2,0,L|364:100,1,50,8|0,0:0|0:0,0:0:0:0:
284,113,174377,2,0,B|208:144|188:176|188:176|120:132,1,170.000003242493
24,48,174685,5,0,0:0:0:0:
144,144,174839,1,8,0:0:0:0:
176,228,174992,2,0,P|197:211|211:193,1,50
142,142,175146,2,0,P|164:120|181:114,1,50
264,132,175300,2,0,P|275:102|278:84,1,50
224,28,175453,2,0,P|250:14|270:12,1,50,8|0,0:0|0:0,0:0:0:0:
340,44,175607,2,0,B|384:72|384:72|376:146|296:208|296:208|384:216|444:316,1,340.000006484985
280,356,176069,5,8,0:0:0:0:
400,264,176223,1,0,0:0:0:0:
248,244,176377,2,0,B|196:288|132:276|132:276|84:204,1,170.000003242493
112,96,176685,2,0,B|64:156|73:211|73:211|121:251,1,170.000003242493,8|0,0:0|0:0,0:0:0:0:
236,160,176992,6,0,P|247:142|247:114,1,50
172,100,177146,2,0,P|176:78|192:56,1,50
288,48,177300,2,0,P|309:63|321:83,1,50,8|0,0:0|0:0,0:0:0:0:
336,168,177454,2,0,B|384:176|412:152|412:152|444:176|440:240,1,150.000005722046
384,336,177762,1,0,0:0:0:0:
199,315,177916,6,0,P|189:303|176:272,1,50,8|0,0:0|0:0,0:0:0:0:
280,360,178069,2,0,P|301:347|321:331,1,50,8|0,0:0|0:0,0:0:0:0:
264,264,178223,1,0,0:0:0:0:
196,168,178377,6,8,P|180:160|166:133,1,50
248,112,178531,2,8,P|264:102|278:75,1,50
192,56,178685,2,8,P|175:45|164:19,1,50
268,0,178839,2,0,B|304:0|304:0|396:48|348:136|348:136|372:176|428:160|428:160|428:252,1,340.000006484985,0|8,0:0|0:0,0:0:0:0:
296,284,179300,5,0,0:0:0:0:
428,208,179454,1,0,0:0:0:0:
296,284,179608,2,0,B|244:312|244:312|184:308|148:232,1,170.000003242493,0|8,0:0|0:0,0:0:0:0:
204,104,179916,6,0,B|188:68|188:68|140:44|-4:80,1,170.000003242493
16,220,180223,2,0,B|-32:288|-32:288|-16:348|92:332,1,170.000003242493,0|8,0:0|0:0,0:0:0:0:
216,372,180531,2,0,P|233:348|240:316,1,50
168,304,180685,2,0,P|167:300|192:264,1,50
260,236,180839,2,0,B|209:157|141:193|141:193|109:265|29:265|29:265|-4:172,1,340.000006484985
20,60,181300,6,0,B|56:24|128:12|128:12|144:92|224:116|224:116|232:80|292:52,1,340.000006484985,0|8,0:0|0:0,0:0:0:0:
416,20,181761,1,0,0:0:0:0:
508,144,181916,1,0,0:0:0:0:
460,296,182069,6,0,P|442:308|414:313,1,50
388,240,182223,2,0,P|364:248|351:267,1,50,8|0,0:0|0:0,0:0:0:0:
328,340,182377,2,0,B|256:336|224:292|224:292|240:216,1,170.000003242493
228,80,182685,2,0,B|217:44|217:44|153:20|105:92,1,170.000003242493,0|8,0:0|0:0,0:0:0:0:
32,228,182992,2,0,B|21:289|77:321|77:321|128:272,1,170.000003242493,0|0,0:0|0:0,0:0:0:0:
208,156,183300,5,0,0:0:0:0:
344,84,183454,1,8,0:0:0:0:
308,252,183608,6,0,P|292:244|272:220,1,50
344,184,183762,2,0,P|368:189|387:205,1,50,0|0,0:0|0:0,0:0:0:0:
436,264,183916,2,0,P|447:256|463:224,1,50
432,148,184069,2,0,P|408:124|356:112,1,50,8|0,0:0|0:0,0:0:0:0:
328,72,184223,2,0,B|288:48|288:48|256:112|164:124,1,170.000003242493,0|0,0:0|0:0,0:0:0:0:
68,28,184531,5,0,0:0:0:0:
4,168,184684,1,8,0:0:0:0:
40,292,184839,2,0,P|71:285|120:272,1,50
172,252,184992,2,0,L|166:301,1,50,0|0,0:0|0:0,0:0:0:0:
136,376,185146,2,0,L|200:380,1,50
264,360,185300,2,0,L|316:300,1,50,8|0,0:0|0:0,0:0:0:0:
312,228,185454,2,0,B|366:193|366:193|434:197|456:237,1,170.000003242493
252,340,185762,6,0,B|300:363|367:332|367:332|384:280,1,170.000003242493,0|8,0:0|0:0,0:0:0:0:
432,136,186069,2,0,B|440:96|440:96|388:68|300:80,1,170.000003242493
144,164,186377,2,0,B|136:204|136:204|188:232|288:208,1,170.000003242493,0|8,0:0|0:0,0:0:0:0:
0,120,186685,2,0,B|60:124|60:124|84:68|160:68,2,170.000003242493,0|8|0,0:0|0:0|0:0,0:0:0:0:
164,240,187146,6,0,B|134:315|182:355|182:355|226:351,1,170.000003242493
320,200,187453,2,0,B|331:160|331:160|407:196|451:156,1,170.000003242493,8|0,0:0|0:0,0:0:0:0:
320,32,187761,2,0,B|268:0|200:36|200:36|188:80,1,170.000003242493
452,224,188069,2,0,B|460:280|417:323|417:323|324:356,2,170.000003242493,8|0|0,0:0|0:0|0:0,0:0:0:0:
318,54,188530,6,0,B|268:40|268:40|216:84|192:168,1,170.000003242493,0|0,0:0|0:0,0:0:0:0:
276,308,188838,2,0,B|248:364|248:364|192:388|72:348,1,170.000003242493,0|8,0:0|0:0,0:0:0:0:
36,184,189146,2,0,B|80:201|136:141|136:141|152:197,1,170.000003242493,0|0,0:0|0:0,0:0:0:0:
340,104,189453,2,0,B|372:140|372:140|412:156|467:104|467:104|507:120,3,170.000003242493,0|8|0|0,0:0|0:0|0:0|0:0,0:0:0:0:
168,64,190069,6,0,B|184:144|252:156|252:156|256:240,1,170.000003242493
340,320,190377,6,0,B|324:240|256:228|256:228|255:191,1,170.000003242493
444,192,190684,1,0,0:0:0:0:
340,64,190838,6,0,B|324:144|256:156|256:156|255:192,1,170.000003242493
244,64,191146,1,4,0:0:0:0:
68,188,191453,5,8,0:0:0:0:
12,308,191607,2,0,B|12:332|12:332|48:360|148:368,1,119.999996337891
224,312,191915,1,0,0:0:0:0:
388,104,192223,5,0,0:0:0:0:
136,28,192530,1,0,0:0:0:0:
172,288,192838,1,0,0:0:0:0:
336,308,192993,2,0,B|378:331|442:315|442:315|470:283,1,150.000005722046
500,124,193300,2,0,B|472:92|472:92|408:76|300:124,1,150.000005722046,8|0,0:0|0:0,0:0:0:0:
256,172,193607,5,0,0:0:0:0:
176,276,193761,2,0,B|209:304|209:304|276:312|328:256,1,119.999996337891,0|8,0:0|0:0,0:0:0:0:
88,124,194069,2,0,B|118:99|118:99|158:99|194:123,2,119.999996337891
284,300,194684,5,0,0:0:0:0:
232,40,194992,1,0,0:0:0:0:
348,108,195146,1,8,0:0:0:0:
388,236,195300,1,0,0:0:0:0:
264,312,195454,2,2,B|224:300|224:300|240:280|240:280|212:296|212:296|228:272|228:272|200:292|200:292|216:268|216:268|188:284|188:284|144:200|232:136|280:144|280:144|304:196|384:184,1,510.000009727478
420,56,196069,1,4,0:0:0:0:
452,320,196377,5,8,0:0:0:0:
324,348,196531,2,0,B|295:361|248:360|248:360|216:288,1,119.999996337891
172,200,196839,1,0,0:0:0:0:
436,200,197147,5,0,0:0:0:0:
224,356,197454,1,0,0:0:0:0:
112,116,197762,1,0,0:0:0:0:
72,276,197917,2,0,B|94:294|94:294|174:298|203:256,1,150.000005722046,0|0,0:0|0:0,0:0:0:0:
272,72,198224,2,0,B|328:72|328:72|380:128|328:216,1,150.000005722046,8|0,0:0|0:0,0:0:0:0:
252,288,198530,1,0,0:0:0:0:
24,48,198838,5,8,0:0:0:0:
56,260,198992,2,0,B|95:269|135:245|135:245|147:209,1,119.999996337891
276,240,199300,2,0,B|268:188|312:156|312:156|368:172,1,119.999996337891,0|8,0:0|0:0,0:0:0:0:
420,260,199607,2,0,B|466:270|466:270|478:234|510:214,1,119.999996337891
444,100,199915,2,0,B|418:76|418:76|376:64|320:76,1,119.999996337891,0|8,0:0|0:0,0:0:0:0:
204,40,200223,2,0,B|156:44|128:32|128:32|84:64,1,119.999996337891
116,160,200530,6,8,P|142:197|144:232,1,59.9999981689454
68,220,200684,2,8,P|39:238|32:256,1,50,8|0,0:0|0:0,0:0:0:0:
96,288,200838,2,8,P|116:312|148:328,1,50
200,348,200992,2,8,B|238:361|238:361|276:339|344:356,1,139.999995727539,8|0,0:0|0:0,0:0:0:0:
444,244,201300,5,8,0:0:0:0:
408,96,201454,2,0,B|341:107|317:152|317:152|289:143,1,139.999995727539
168,48,201762,1,0,0:0:0:0:
8,312,202070,5,0,0:0:0:0:
308,248,202377,1,0,0:0:0:0:
76,44,202685,1,0,0:0:0:0:
252,44,202840,2,0,B|303:25|367:41|367:41|392:76,1,160
256,240,203147,2,0,B|204:269|140:253|140:253|112:221,1,160,8|0,0:0|0:0,0:0:0:0:
124,68,203454,5,0,0:0:0:0:
272,104,203608,2,0,B|311:112|311:112|343:60|395:76,1,139.999995727539,0|8,0:0|0:0,0:0:0:0:
412,280,203916,2,0,B|404:348|364:356|364:356|320:312,2,139.999995727539
228,32,204531,5,0,0:0:0:0:
60,288,204839,1,0,0:0:0:0:
208,336,204993,1,8,0:0:0:0:
364,332,205147,1,0,0:0:0:0:
468,240,205300,2,2,B|500:220|500:220|484:200|484:200|512:216|512:216|496:192|496:192|524:212|524:212|508:188|508:188|536:204|536:204|520:184|520:184|540:192|540:192|533:181|533:181|536:172|536:172|528:132|460:76|372:120|372:120|376:176|316:244,1,600
208,336,205916,1,4,0:0:0:0:
72,60,206224,5,8,0:0:0:0:
28,264,206378,2,0,B|60:284|60:284|112:280|180:196,1,139.999995727539
268,80,206686,1,0,0:0:0:0:
448,328,206994,5,0,0:0:0:0:
140,324,207301,1,0,0:0:0:0:
408,96,207609,1,0,0:0:0:0:
380,272,207764,2,0,B|356:292|356:292|276:296|216:224,1,150.000005722046
284,64,208071,2,0,B|251:25|172:28|172:28|163:57,1,150.000005722046,8|0,0:0|0:0,0:0:0:0:
88,224,208377,1,0,0:0:0:0:
336,44,208685,5,8,0:0:0:0:
128,44,208839,2,0,B|84:56|84:56|72:116|120:140,1,139.999995727539
220,300,209147,2,0,B|251:352|251:352|335:380|400:352|400:352|424:288,1,279.999991455078
480,32,209762,6,0,B|443:-2|387:5|387:5|359:37,1,139.999995727539,0|8,0:0|0:0,0:0:0:0:
300,256,210069,6,0,P|280:268|220:280,1,50
244,200,210223,2,0,P|216:200|168:240,1,50
180,280,210377,2,0,P|149:275|100:256,1,50
116,200,210531,2,0,P|87:182|80:164,1,50
60,92,210685,2,0,P|80:68|112:52,1,50,0|4,0:0|0:0,0:0:0:0:
