osu file format v12

[General]
AudioFilename: Outer Science.mp3
AudioLeadIn: 0
PreviewTime: 59453
Countdown: 1
SampleSet: Normal
StackLeniency: 0.7
Mode: 0
LetterboxInBreaks: 1

[Editor]
Bookmarks: 377,5300,10223,20069,29915,39761,49607,59453,69300,79146,88992,98838,108684,118530,128377,138223,148069,159146,168992,178838,191146,200992,210838
DistanceSpacing: 1.1
BeatDivisor: 4
GridSize: 4

[Metadata]
Title:Outer Science
TitleUnicode:アウターサイエンス
Artist:Jin
ArtistUnicode:じん
Creator:_Asagi_
Version:Hard
Source:
Tags:asagi mira-san shanaai ia jin outer science vocaloid topecnz
BeatmapID:271742
BeatmapSetID:103013

[Difficulty]
HPDrainRate:5
CircleSize:4
OverallDifficulty:5
ApproachRate:8
SliderMultiplier:1.5
SliderTickRate:1

[Events]
//Background and Video events
0,0,"IA.jpg",0,0
//Break Periods
2,79346,87934
2,159345,166857
//Storyboard Layer 0 (Background)
//Storyboard Layer 1 (Fail)
//Storyboard Layer 2 (Pass)
//Storyboard Layer 3 (Foreground)
//Storyboard Sound Samples
//Background Colour Transformations
3,100,163,162,255

[TimingPoints]
377,307.692307692308,4,1,0,60,1,0
10223,-100,4,1,0,60,0,1
10300,-100,4,1,0,60,0,0
49607,-133.333333333333,4,2,0,30,0,0
56530,-100,4,1,0,60,0,0
59453,-100,4,1,0,60,0,1
69223,-100,4,1,0,60,0,0
69300,-100,4,1,0,60,0,1
79146,-100,4,1,0,60,0,0
108684,-133.333333333333,4,1,0,30,0,0
115607,-100,4,1,0,60,0,0
118530,-100,4,1,0,60,0,1
128300,-100,4,1,0,60,0,0
128377,-100,4,1,0,60,0,1
138223,-100,4,1,0,60,0,0
138530,-133.333333333333,4,1,0,30,0,0
146684,-100,4,1,0,60,0,0
148069,-100,4,1,0,60,0,0
167915,-90.9090909090909,4,1,0,60,0,0
168223,-83.3333333333333,4,1,0,60,0,0
168530,-76.9230769230769,4,1,0,60,0,0
168992,-83.3333333333333,4,1,0,60,0,1
178761,-83.3333333333333,4,1,0,60,0,0
178838,-83.3333333333333,4,1,0,60,0,1
191146,-100,4,1,0,40,0,0

[Colours]
Combo1 : 255,0,128
Combo2 : 0,255,255
Combo3 : 255,255,0
Combo4 : 255,128,0
Combo5 : 128,0,255

[HitObjects]
256,192,2838,12,0,5146,0:0:0:0:
504,140,5300,6,0,B|504:64|440:48|440:48|396:80,1,150
400,148,5761,2,0,B|376:160|376:160|336:96|244:96,1,150
188,124,6223,2,0,P|213:155|268:176,1,75
320,212,6530,1,0,0:0:0:0:
396,236,6684,1,0,0:0:0:0:
456,288,6838,2,0,B|426:310|426:310|356:320,1,75
164,264,7300,5,0,0:0:0:0:
244,252,7453,2,0,B|247:194|247:194|207:174|136:200,1,150
80,236,7915,1,0,0:0:0:0:
28,172,8069,1,0,0:0:0:0:
88,116,8223,2,0,B|152:128|192:112|192:112|224:68,1,150
296,104,8684,1,0,0:0:0:0:
272,24,8838,1,0,0:0:0:0:
188,24,8992,5,8,0:0:0:0:
56,120,9300,1,8,0:0:0:0:
108,276,9607,1,8,0:0:0:0:
232,164,9915,1,4,0:0:0:0:
220,304,10223,6,0,B|272:324|272:324|336:300|344:256,1,150,0|8,0:0|0:0,0:0:0:0:
272,236,10684,1,0,0:0:0:0:
196,228,10838,2,0,B|138:238|138:238|88:224|48:168,1,150,0|8,0:0|0:0,0:0:0:0:
88,108,11300,6,0,P|96:72|136:28,1,75
168,116,11607,2,0,P|184:88|248:56,1,75,0|8,0:0|0:0,0:0:0:0:
244,152,11915,2,0,P|272:128|328:120,1,75
288,224,12223,2,0,P|320:208|368:216,1,75,0|8,0:0|0:0,0:0:0:0:
472,112,12684,6,0,B|516:164|516:204|516:204|476:252,1,150,0|8,0:0|0:0,0:0:0:0:
428,296,13146,2,0,B|408:320|380:340|380:340|336:332,1,75
288,344,13453,2,0,B|288:300|324:272|324:272|288:252|288:208,1,150
368,196,13915,6,0,P|380:158|368:104,2,75,0|0|8,0:0|0:0|0:0,0:0:0:0:
288,220,14377,2,0,P|255:237|200:212,2,75
300,140,14838,1,8,0:0:0:0:
180,28,15146,6,0,B|136:28|136:28|92:52|84:124,1,150,0|8,0:0|0:0,0:0:0:0:
168,112,15607,1,0,0:0:0:0:
252,104,15761,2,0,B|244:168|200:192|200:192|156:192,1,150,0|8,0:0|0:0,0:0:0:0:
76,192,16223,5,0,0:0:0:0:
20,252,16376,1,0,0:0:0:0:
24,336,16530,1,0,0:0:0:0:
96,376,16684,2,0,B|132:376|132:376|152:360|152:312,1,75,8|0,0:0|0:0,0:0:0:0:
140,260,16992,2,0,B|104:260|104:260|84:276|84:324,1,75,0|0,0:0|0:0,0:0:0:0:
160,336,17300,1,8,0:0:0:0:
300,232,17607,6,0,B|348:236|376:264|376:264|432:208,1,150,0|8,0:0|0:0,0:0:0:0:
356,168,18068,1,0,0:0:0:0:
416,108,18223,2,0,B|368:80|320:96|320:96|264:52,1,150,0|8,0:0|0:0,0:0:0:0:
208,24,18684,5,0,0:0:0:0:
208,108,18837,1,0,0:0:0:0:
132,60,18991,1,0,0:0:0:0:
116,148,19146,2,0,B|76:140|24:180,1,75,8|0,0:0|0:0,0:0:0:0:
92,240,19453,2,0,B|52:252|72:320,1,75
160,312,19761,1,8,0:0:0:0:
304,304,20069,6,0,L|368:292,3,37.5
380,288,20377,2,2,B|440:276|440:276|440:244,1,75,0|2,0:0|0:0,0:0:0:0:
428,180,20684,5,0,0:0:0:0:
376,116,20838,1,0,0:0:0:0:
372,32,20992,2,2,B|328:32|316:48|316:48|312:80,1,75,8|0,0:0|0:0,0:0:0:0:
292,144,21300,5,0,0:0:0:0:
292,144,21377,1,0,0:0:0:0:
292,144,21453,1,0,0:0:0:0:
292,144,21530,1,0,0:0:0:0:
292,144,21607,2,2,B|292:224,1,75,8|0,0:0|0:0,0:0:0:0:
280,300,21915,5,0,0:0:0:0:
220,356,22069,1,0,0:0:0:0:
136,340,22223,2,2,B|96:328|96:288|96:288|116:256,1,75,8|0,0:0|0:0,0:0:0:0:
180,268,22530,5,0,0:0:0:0:
128,204,22684,1,0,0:0:0:0:
48,216,22838,2,2,B|44:188|52:164|52:164|80:140,1,75,8|0,0:0|0:0,0:0:0:0:
148,120,23146,5,0,0:0:0:0:
80,72,23300,1,0,0:0:0:0:
152,32,23453,2,2,B|180:32|180:32|208:36|248:60,1,75,8|0,0:0|0:0,0:0:0:0:
240,128,23761,5,0,0:0:0:0:
284,200,23915,1,0,0:0:0:0:
328,128,24069,1,8,0:0:0:0:
376,60,24223,1,0,0:0:0:0:
456,96,24377,2,2,B|432:112|432:112|448:132|448:132|428:120|428:120|440:140|440:140|424:128|424:128|432:152|432:152|420:168|404:184|412:236,1,225,2|2,0:0|0:0,0:0:0:0:
492,208,24992,5,0,0:0:0:0:
476,288,25146,1,0,0:0:0:0:
396,304,25300,2,2,B|360:296|360:296|340:280|336:244,1,75,8|0,0:0|0:0,0:0:0:0:
336,180,25607,5,0,0:0:0:0:
336,180,25684,1,0,0:0:0:0:
336,180,25761,1,0,0:0:0:0:
336,180,25838,1,0,0:0:0:0:
336,180,25915,2,2,B|296:192|296:192|272:204|272:248,1,75,8|0,0:0|0:0,0:0:0:0:
224,280,26223,6,0,L|180:328,3,37.5
164,332,26530,2,2,B|136:332|136:332|108:328|88:288,1,75,8|0,0:0|0:0,0:0:0:0:
52,240,26838,6,0,L|24:184,3,37.5
16,168,27146,2,2,B|-12:128|0:108|0:108|28:84,1,75,8|0,0:0|0:0,0:0:0:0:
68,44,27453,5,0,0:0:0:0:
108,116,27607,1,0,0:0:0:0:
164,176,27761,2,2,B|196:168|196:168|216:148|216:120,1,75,8|0,0:0|0:0,0:0:0:0:
244,52,28069,5,0,0:0:0:0:
308,0,28223,1,0,0:0:0:0:
324,80,28377,2,0,B|356:80|356:80|380:92|396:128,1,75,8|0,0:0|0:0,0:0:0:0:
312,168,28684,5,0,0:0:0:0:
244,216,28838,1,0,0:0:0:0:
296,280,28992,1,8,0:0:0:0:
364,236,29146,1,0,0:0:0:0:
240,348,29453,6,2,B|229:341|229:341|228:328|228:328|220:344|220:344|220:324|220:324|212:340|212:340|196:316|196:316|152:292,1,150
216,232,29915,6,0,B|168:208|120:220|120:220|76:172,1,150,4|8,0:0|0:0,0:0:0:0:
28,120,30377,1,0,0:0:0:0:
100,84,30530,1,0,0:0:0:0:
124,4,30684,2,0,B|172:20|188:64,1,75,0|8,0:0|0:0,0:0:0:0:
180,132,30992,2,0,P|224:128|268:96,1,75
312,56,31300,6,0,B|313:56|313:56|344:88|336:136,1,75,0|8,0:0|0:0,0:0:0:0:
296,196,31607,2,0,B|340:216|404:200,1,75
440,164,31915,2,0,B|462:219|424:252,1,75,0|8,0:0|0:0,0:0:0:0:
392,308,32223,2,0,P|368:344|320:360,1,75
180,352,32684,5,8,0:0:0:0:
100,364,32838,2,0,B|80:300|132:268,1,75
192,264,33146,2,0,P|172:232|124:208,1,75,0|8,0:0|0:0,0:0:0:0:
60,204,33453,2,0,B|60:156|128:132,1,75
184,144,33761,2,0,B|184:104|128:64,1,75,0|8,0:0|0:0,0:0:0:0:
64,72,34069,2,0,B|92:-12|188:8,1,150
256,48,34530,5,8,0:0:0:0:
328,88,34684,1,0,0:0:0:0:
264,140,34838,2,0,B|340:196|400:128,1,150,0|8,0:0|0:0,0:0:0:0:
432,56,35300,1,0,0:0:0:0:
480,120,35453,1,0,0:0:0:0:
452,196,35607,6,0,P|424:228|368:256,1,75,0|8,0:0|0:0,0:0:0:0:
312,248,35915,2,0,B|308:300|368:324,1,75
428,320,36223,1,0,0:0:0:0:
376,384,36377,1,8,0:0:0:0:
296,376,36530,2,0,B|216:372|200:352|200:352|180:296,1,150
176,224,36992,5,8,0:0:0:0:
92,216,37146,1,0,0:0:0:0:
140,148,37300,1,0,0:0:0:0:
60,140,37453,1,0,0:0:0:0:
8,76,37607,2,0,B|72:44|108:76|108:76|136:64|176:72,1,150,8|0,0:0|0:0,0:0:0:0:
216,120,38069,6,0,P|244:92|296:88,1,75,0|8,0:0|0:0,0:0:0:0:
288,168,38377,2,0,P|264:192|192:196,1,75
248,284,38684,2,0,P|212:300|148:292,2,75
384,188,39300,5,8,0:0:0:0:
432,120,39453,1,8,0:0:0:0:
476,188,39607,1,8,0:0:0:0:
428,256,39761,6,0,B|400:304|400:304|376:320|312:272,1,150,0|8,0:0|0:0,0:0:0:0:
364,204,40223,1,0,0:0:0:0:
288,172,40377,1,0,0:0:0:0:
312,92,40530,2,0,B|356:120|356:120|408:120,1,75,0|8,0:0|0:0,0:0:0:0:
460,128,40838,2,0,B|469:91|452:68|452:68|420:56,1,75
356,56,41146,5,0,0:0:0:0:
292,112,41300,1,8,0:0:0:0:
276,32,41453,2,0,B|236:20|204:28|204:28|192:56,1,75
232,108,41761,2,0,B|188:124|140:92,1,75,0|8,0:0|0:0,0:0:0:0:
112,32,42069,5,0,0:0:0:0:
68,104,42223,2,0,B|44:136|40:152|40:152|64:184,1,75
56,248,42530,2,0,B|80:248|80:248|116:228|135:197,1,75,8|0,0:0|0:0,0:0:0:0:
180,160,42838,5,0,0:0:0:0:
256,196,42992,1,0,0:0:0:0:
208,264,43146,2,0,B|184:300|184:300|156:308|128:312,1,75,8|0,0:0|0:0,0:0:0:0:
128,228,43453,5,0,0:0:0:0:
72,288,43607,2,0,P|45:261|37:225,1,75,0|8,0:0|0:0,0:0:0:0:
76,152,43915,2,0,B|128:116|128:116|156:156|212:156,1,150
208,72,44377,6,0,P|244:56|288:48,1,75,8|0,0:0|0:0,0:0:0:0:
380,96,44684,2,0,B|352:128|292:128,1,75
236,152,44992,5,8,0:0:0:0:
240,236,45146,1,0,0:0:0:0:
308,284,45300,2,0,B|351:298|388:268,1,75
328,208,45607,2,0,P|368:196|400:160,1,75,8|0,0:0|0:0,0:0:0:0:
320,132,45915,6,0,P|348:104|344:56,1,75
268,72,46223,2,0,P|268:32|244:-8,1,75,8|0,0:0|0:0,0:0:0:0:
124,108,46684,5,0,0:0:0:0:
76,176,46838,1,8,0:0:0:0:
160,180,46992,1,0,0:0:0:0:
112,252,47146,2,0,P|78:264|56:308,1,75
132,332,47453,2,0,B|196:292|192:248|192:248|236:216,1,150,8|0,0:0|0:0,0:0:0:0:
276,288,47915,5,0,0:0:0:0:
332,348,48069,1,8,0:0:0:0:
416,340,48223,1,0,0:0:0:0:
432,260,48377,2,0,B|373:246|332:284,1,75
288,220,48684,2,2,B|263:161|343:141|343:141|378:148,1,150,0|0,0:0|0:0,0:0:0:0:
440,204,49146,5,8,0:0:0:0:
456,124,49300,1,8,0:0:0:0:
396,68,49453,1,8,0:0:0:0:
316,40,49607,6,0,B|244:23|244:23|148:56|128:120,1,225.000008583069
208,148,50377,1,0,0:0:0:0:
140,196,50530,1,0,0:0:0:0:
68,240,50684,2,0,P|94:258|116:266,1,56.2500021457673
200,268,50992,2,0,B|216:236|216:236|264:228|280:184,1,112.500004291535
348,232,51607,6,0,B|340:264|340:264|312:288|268:316,1,112.500004291535
196,348,52069,2,0,B|144:368|144:368|84:348|52:296,1,168.750006437302
140,212,52838,2,0,L|180:264,2,56.2500021457673
56,196,53300,6,0,L|24:136,1,56.2500021457673
112,136,53607,2,0,L|92:72,1,56.2500021457673
180,92,53915,2,0,L|180:28,1,56.2500021457673
260,68,54223,2,0,L|296:16,1,56.2500021457673
348,84,54530,2,0,B|272:188,1,112.500004291535,8|0,0:0|0:0,0:0:0:0:
444,264,55300,5,0,0:0:0:0:
356,220,55453,1,0,0:0:0:0:
356,304,55607,1,0,0:0:0:0:
280,340,55761,2,0,B|256:325|241:282|241:283,3,56.2500021457673
20,304,56530,2,2,B|-12:220|60:168|60:168|140:188,1,225
240,204,57146,5,12,0:0:0:0:
240,204,57300,1,0,0:0:0:0:
88,264,57607,5,8,0:0:0:0:
88,264,57761,1,0,0:0:0:0:
116,100,58069,5,8,0:0:0:0:
116,100,58223,1,0,0:0:0:0:
280,76,58530,5,12,0:0:0:0:
420,164,58838,5,0,0:0:0:0:
468,96,58992,1,0,0:0:0:0:
388,84,59146,2,0,B|332:20,1,75,0|0,0:0|0:0,0:0:0:0:
288,84,59453,5,4,0:0:0:0:
324,160,59607,1,0,0:0:0:0:
240,160,59761,2,0,B|256:192|256:192|200:196,1,75,8|0,0:0|0:0,0:0:0:0:
136,172,60069,5,0,0:0:0:0:
172,96,60223,1,0,0:0:0:0:
88,104,60377,2,0,P|64:120|56:192,1,75,8|0,0:0|0:0,0:0:0:0:
88,236,60684,2,0,P|56:252|8:248,1,75,0|0,0:0|0:0,0:0:0:0:
36,332,60992,2,8,B|80:336|160:336|164:252|164:252|256:260|296:320,1,300
424,220,61915,6,0,B|432:188|432:188|372:160|312:184,1,150,0|8,0:0|0:0,0:0:0:0:
284,256,62377,2,0,P|244:227|236:184,1,75
268,128,62684,1,0,0:0:0:0:
344,96,62838,1,8,0:0:0:0:
276,48,62992,6,0,L|184:20,1,75
188,108,63300,2,0,L|88:96,1,75,0|8,0:0|0:0,0:0:0:0:
128,180,63607,2,0,L|28:200,1,75
92,340,64069,5,8,0:0:0:0:
172,364,64223,2,0,P|211:356|260:316,1,75
180,284,64530,2,0,P|224:256|276:264,2,75,0|8|0,0:0|0:0|0:0,0:0:0:0:
336,340,65146,5,0,0:0:0:0:
408,304,65300,1,8,0:0:0:0:
468,244,65453,2,0,P|493:208|496:152,1,75
416,176,65761,2,0,P|426:138|420:96,2,75,0|8|0,0:0|0:0|0:0,0:0:0:0:
304,52,66377,5,0,0:0:0:0:
244,108,66530,1,8,0:0:0:0:
324,132,66684,1,0,0:0:0:0:
268,192,66838,2,0,B|218:248,1,75
300,272,67146,6,0,L|352:216,1,75,8|0,0:0|0:0,0:0:0:0:
392,288,67453,2,0,L|320:364,1,75
256,344,67761,2,0,L|200:280,3,75,8|0|0|0,0:0|0:0|0:0|0:0,0:0:0:0:
164,216,68377,2,8,L|136:184,4,37.5,8|0|8|0|8,0:0|0:0|0:0|0:0|0:0,0:0:0:0:
208,148,68838,2,8,L|232:176,4,37.5
164,76,69300,2,0,B|136:56|136:56|72:52|24:116,1,150,4|8,0:0|0:0,0:0:0:0:
20,184,69761,5,0,0:0:0:0:
40,264,69915,1,0,0:0:0:0:
68,344,70069,2,0,B|120:320|120:264,1,75,0|8,0:0|0:0,0:0:0:0:
192,320,70377,2,0,B|216:284|204:236,1,75
288,268,70684,6,0,B|312:216|280:172,1,75,0|8,0:0|0:0,0:0:0:0:
376,212,70992,2,0,B|364:104|303:71|303:71|240:88,1,225,0|8,0:0|0:0,0:0:0:0:
96,156,71761,6,0,B|76:104|109:48|109:48|160:40,1,150,0|8,0:0|0:0,0:0:0:0:
224,36,72223,1,0,0:0:0:0:
308,36,72377,1,0,0:0:0:0:
388,60,72530,1,0,0:0:0:0:
444,120,72684,6,0,L|356:160,1,75,8|0,0:0|0:0,0:0:0:0:
432,212,72992,2,0,L|348:248,1,75
408,312,73300,2,0,L|328:344,1,75,8|0,0:0|0:0,0:0:0:0:
176,328,73761,6,0,P|135:318|104:272,2,75,0|8|0,0:0|0:0|0:0,0:0:0:0:
180,244,74223,2,0,P|140:216|96:216,2,75,0|0|8,0:0|0:0|0:0,0:0:0:0:
256,280,74684,2,0,B|296:264|320:216,1,75
232,200,74992,5,0,0:0:0:0:
180,136,75146,1,8,0:0:0:0:
260,124,75300,1,0,0:0:0:0:
208,60,75453,1,0,0:0:0:0:
288,44,75607,1,0,0:0:0:0:
344,104,75761,1,8,0:0:0:0:
328,184,75915,2,0,B|372:192|408:160,1,75
388,248,76223,6,0,P|416:268|432:303,2,75,0|8|0,0:0|0:0|0:0,0:0:0:0:
348,320,76684,2,0,P|319:348|264:356,2,75,0|0|8,0:0|0:0|0:0,0:0:0:0:
276,276,77146,2,0,P|256:244|196:224,2,75
200,304,77607,5,0,0:0:0:0:
136,252,77761,1,0,0:0:0:0:
76,196,77915,2,0,P|61:155|64:104,1,75,8|0,0:0|0:0,0:0:0:0:
124,72,78223,2,8,P|141:106|140:152,1,75,8|0,0:0|0:0,0:0:0:0:
304,116,78684,5,8,0:0:0:0:
304,116,78838,1,8,0:0:0:0:
204,248,79146,1,4,0:0:0:0:
16,352,88684,6,0,L|40:296,3,37.5
56,284,88992,2,0,B|104:260|152:272|152:272|196:224,1,150,4|8,0:0|0:0,0:0:0:0:
248,288,89454,1,0,0:0:0:0:
192,344,89607,1,0,0:0:0:0:
272,360,89761,2,0,B|312:352|324:296,1,75,0|8,0:0|0:0,0:0:0:0:
396,340,90069,2,0,P|396:292|380:256,1,75
468,264,90377,6,0,B|464:224|424:192,1,75,0|8,0:0|0:0,0:0:0:0:
508,168,90684,2,0,B|480:132|436:120,1,75
504,64,90992,2,0,B|432:8|368:92|368:92|376:160,1,225
376,252,91607,5,0,0:0:0:0:
300,288,91761,1,8,0:0:0:0:
224,320,91915,2,0,B|204:256|256:224,1,75
304,212,92223,6,0,P|284:180|236:168,1,75,0|8,0:0|0:0,0:0:0:0:
204,100,92530,2,0,B|164:111|164:159,1,75
140,236,92838,2,0,B|96:216|88:168,1,75,0|8,0:0|0:0,0:0:0:0:
92,100,93146,2,0,B|120:16|228:24,1,150
288,40,93607,5,8,0:0:0:0:
340,104,93761,1,0,0:0:0:0:
412,148,93915,2,0,B|354:213|278:157,1,150,0|8,0:0|0:0,0:0:0:0:
224,96,94377,1,0,0:0:0:0:
172,160,94530,1,0,0:0:0:0:
236,212,94684,6,0,P|208:244|152:248,1,75,0|8,0:0|0:0,0:0:0:0:
96,256,94992,2,0,B|92:308|152:332,1,75
212,312,95300,1,0,0:0:0:0:
288,276,95454,1,8,0:0:0:0:
280,356,95607,2,0,B|360:352|376:332|376:332|396:276,1,150
412,204,96069,5,8,0:0:0:0:
336,168,96223,1,0,0:0:0:0:
260,132,96377,1,0,0:0:0:0:
184,104,96530,1,0,0:0:0:0:
220,32,96684,2,0,B|156:0|120:32|120:32|96:84,1,150,8|0,0:0|0:0,0:0:0:0:
44,132,97146,6,0,P|72:160|124:164,1,75,0|8,0:0|0:0,0:0:0:0:
176,212,97454,2,0,P|152:236|80:240,1,75
88,324,97761,2,0,P|56:312|36:276,2,75
252,348,98377,5,8,0:0:0:0:
336,348,98530,1,8,0:0:0:0:
296,276,98684,1,8,0:0:0:0:
324,200,98838,6,0,B|376:216|376:216|376:272|436:304,1,150,0|8,0:0|0:0,0:0:0:0:
468,228,99300,1,0,0:0:0:0:
436,152,99454,1,0,0:0:0:0:
479,83,99607,2,0,B|456:56|408:76,1,75,0|8,0:0|0:0,0:0:0:0:
352,16,99915,2,0,P|329:46|328:88,1,75
264,140,100223,5,0,0:0:0:0:
228,216,100377,1,8,0:0:0:0:
244,296,100530,2,0,B|204:308|160:272,1,75
152,200,100838,2,0,B|112:200|88:256,1,75,0|8,0:0|0:0,0:0:0:0:
48,308,101146,5,0,0:0:0:0:
12,236,101300,2,0,B|20:196|56:160,1,75
116,124,101607,2,0,B|160:120|192:68,1,75,8|0,0:0|0:0,0:0:0:0:
112,40,101915,5,0,0:0:0:0:
192,20,102069,1,0,0:0:0:0:
272,40,102223,2,0,B|256:100|312:128,1,75,8|0,0:0|0:0,0:0:0:0:
356,68,102530,1,0,0:0:0:0:
420,12,102684,2,0,P|444:48|436:92,1,75,0|8,0:0|0:0,0:0:0:0:
464,160,102992,2,0,B|418:160|384:144|384:144|312:188,1,150
392,232,103453,6,0,P|424:244|472:248,1,75,8|0,0:0|0:0,0:0:0:0:
508,320,103761,2,0,B|472:336|416:328,1,75
356,308,104069,5,8,0:0:0:0:
312,236,104223,1,0,0:0:0:0:
272,308,104377,2,0,B|260:344|216:364,1,75
184,288,104684,2,0,P|136:296|112:288,1,75,8|0,0:0|0:0,0:0:0:0:
148,212,104992,2,0,P|120:184|124:136,1,75
200,144,105300,2,0,P|200:104|224:64,1,75,8|0,0:0|0:0,0:0:0:0:
376,36,105761,5,0,0:0:0:0:
436,92,105915,1,8,0:0:0:0:
360,124,106069,1,0,0:0:0:0:
428,172,106223,2,0,P|407:203|373:215,1,75
300,180,106530,2,0,B|266:204|266:204|264:268|206:288,1,150,8|0,0:0|0:0,0:0:0:0:
184,208,106992,5,0,0:0:0:0:
132,272,107146,1,8,0:0:0:0:
60,316,107300,1,0,0:0:0:0:
0,260,107454,2,0,B|26:228|85:242,1,75
144,208,107761,2,2,B|169:149|89:129|89:129|54:136,1,150,8|0,0:0|0:0,0:0:0:0:
12,64,108223,5,8,0:0:0:0:
92,48,108377,1,8,0:0:0:0:
168,80,108530,1,8,0:0:0:0:
220,148,108684,6,0,B|292:165|292:165|388:132|408:68,1,225.000008583069
332,32,109454,1,0,0:0:0:0:
412,0,109607,1,0,0:0:0:0:
480,52,109761,2,0,P|480:80|468:120,1,56.2500021457673
440,188,110069,2,0,B|416:216|379:230|379:230|360:280,1,112.500004291535
444,300,110530,5,0,0:0:0:0:
372,344,110684,2,0,B|312:376|244:328,1,112.500004291535
316,272,111146,2,0,B|316:204|256:184|256:184|204:204,1,168.750006437302
228,284,111761,2,0,L|172:304,3,56.2500021457673
116,364,112377,6,0,P|100:336|96:304,1,56.2500021457673
16,284,112684,2,0,P|29:259|72:240,1,56.2500021457673
136,224,112992,2,0,P|124:192|92:176,1,56.2500021457673
24,156,113300,2,0,P|32:132|64:108,1,56.2500021457673
84,32,113607,2,0,P|136:64|144:120,1,112.500004291535,8|0,0:0|0:0,0:0:0:0:
300,36,114223,6,0,P|304:68|332:92,1,56.2500021457673
392,40,114530,1,0,0:0:0:0:
412,120,114684,1,0,0:0:0:0:
496,132,114838,2,0,B|498:165|457:190,3,56.2500021457673
280,296,115607,2,2,B|254:340|168:368|168:368|156:320|92:288,1,225
60,364,116223,5,12,0:0:0:0:
60,364,116377,1,0,0:0:0:0:
192,264,116684,5,8,0:0:0:0:
192,264,116838,1,0,0:0:0:0:
92,132,117146,5,8,0:0:0:0:
92,132,117300,1,0,0:0:0:0:
248,80,117607,5,12,0:0:0:0:
320,228,117915,5,0,0:0:0:0:
388,180,118069,1,0,0:0:0:0:
468,196,118223,2,0,P|455:233|396:260,1,75,0|0,0:0|0:0,0:0:0:0:
468,328,118530,5,0,0:0:0:0:
384,328,118684,1,0,0:0:0:0:
304,312,118838,2,0,P|261:302|220:268,1,75,8|0,0:0|0:0,0:0:0:0:
276,212,119146,5,0,0:0:0:0:
196,192,119300,2,0,P|214:156|216:120,1,75,0|8,0:0|0:0,0:0:0:0:
136,140,119607,2,0,P|112:156|95:197,1,75,0|0,0:0|0:0,0:0:0:0:
136,272,119915,2,0,P|104:288|56:284,1,75,0|8,0:0|0:0,0:0:0:0:
24,216,120223,2,0,B|-10:149|8:88|8:88|84:56,1,187.5
100,60,120684,1,8,0:0:0:0:
232,116,120992,6,0,B|228:148|228:148|288:176|348:152,1,150,0|8,0:0|0:0,0:0:0:0:
424,140,121454,2,0,P|454:155|470:191,1,75
460,264,121761,1,0,0:0:0:0:
380,280,121915,1,8,0:0:0:0:
344,356,122069,6,0,P|305:335|284:300,1,75
220,360,122377,2,0,P|204:328|220:268,1,75,0|8,0:0|0:0,0:0:0:0:
124,296,122684,2,0,P|132:252|160:228,1,75
12,148,123146,5,8,0:0:0:0:
24,228,123300,2,0,P|63:220|112:180,1,75
100,120,123607,2,0,P|140:132|168:172,2,75,0|8|0,0:0|0:0|0:0,0:0:0:0:
248,44,124223,5,0,0:0:0:0:
328,20,124377,1,8,0:0:0:0:
412,16,124530,2,0,P|406:46|381:82,1,75
300,96,124838,2,0,P|312:128|352:152,2,75,0|8|0,0:0|0:0|0:0,0:0:0:0:
248,252,125454,5,0,0:0:0:0:
192,192,125607,1,8,0:0:0:0:
164,268,125761,1,0,0:0:0:0:
164,352,125915,2,0,P|208:344|240:304,1,75
292,376,126223,6,0,P|312:344|312:304,1,75,8|0,0:0|0:0,0:0:0:0:
392,328,126530,2,0,P|392:280|364:240,1,75
460,232,126838,2,0,P|440:200|396:176,3,75,8|0|0|0,0:0|0:0|0:0|0:0,0:0:0:0:
448,108,127453,6,0,L|408:92,4,37.5,8|0|8|0|8,0:0|0:0|0:0|0:0|0:0,0:0:0:0:
368,120,127915,2,8,L|328:104,4,37.5
304,64,128377,2,0,B|252:40|252:40|232:92|164:108,1,150,0|8,0:0|0:0,0:0:0:0:
168,20,128838,5,0,0:0:0:0:
104,72,128992,1,0,0:0:0:0:
48,136,129146,2,0,B|88:156|136:136,1,75,0|8,0:0|0:0,0:0:0:0:
92,220,129454,2,0,P|136:216|180:180,1,75
180,280,129761,2,0,B|224:260|248:212,1,75,0|8,0:0|0:0,0:0:0:0:
276,304,130069,2,0,B|336:248|316:188|316:188|224:140,1,225,0|8,0:0|0:0,0:0:0:0:
392,96,130838,6,0,B|452:128|444:240,1,150,0|8,0:0|0:0,0:0:0:0:
448,312,131300,1,0,0:0:0:0:
376,352,131454,1,0,0:0:0:0:
376,268,131607,1,0,0:0:0:0:
304,308,131761,6,0,L|216:348,1,75,8|0,0:0|0:0,0:0:0:0:
164,296,132069,2,0,L|232:266,1,75
160,224,132377,2,0,L|80:256,1,75,8|0,0:0|0:0,0:0:0:0:
172,108,132838,6,0,P|160:76|116:48,2,75,0|8|0,0:0|0:0|0:0,0:0:0:0:
92,124,133300,2,0,P|52:96|8:96,2,75,0|0|8,0:0|0:0|0:0,0:0:0:0:
140,192,133761,2,0,B|196:196|232:168,1,75
296,164,134069,5,0,0:0:0:0:
244,100,134223,1,8,0:0:0:0:
324,88,134377,1,0,0:0:0:0:
272,24,134530,1,0,0:0:0:0:
352,8,134684,1,0,0:0:0:0:
408,68,134838,1,8,0:0:0:0:
392,148,134992,2,0,B|436:156|472:124,1,75
388,248,135300,6,0,P|416:268|432:303,2,75,0|8|0,0:0|0:0|0:0,0:0:0:0:
348,320,135761,2,0,P|319:348|264:356,2,75,0|0|8,0:0|0:0|0:0,0:0:0:0:
276,276,136223,2,0,P|256:244|196:224,2,75
200,304,136684,5,0,0:0:0:0:
136,252,136838,1,0,0:0:0:0:
76,196,136992,2,0,P|61:155|64:104,1,75,8|0,0:0|0:0,0:0:0:0:
140,140,137300,2,0,P|141:103|158:69,1,75,8|0,0:0|0:0,0:0:0:0:
284,180,137761,5,8,0:0:0:0:
276,264,137915,1,8,0:0:0:0:
128,188,138223,1,4,0:0:0:0:
208,92,138530,5,0,0:0:0:0:
280,136,138684,2,0,B|340:104,1,56.2500021457673,0|8,0:0|0:0,0:0:0:0:
408,140,138992,1,0,0:0:0:0:
484,292,139300,5,0,0:0:0:0:
336,368,139607,1,0,0:0:0:0:
180,300,139915,1,0,0:0:0:0:
104,340,140070,2,0,L|64:284,1,56.2500021457673,8|0,0:0|0:0,0:0:0:0:
4,240,140377,2,0,L|50:208,1,56.2500021457673
120,160,140684,5,0,0:0:0:0:
160,88,140838,2,0,B|212:144,1,56.2500021457673
272,172,141146,2,0,B|216:212,2,56.2500021457673,0|8|0,0:0|0:0|0:0,0:0:0:0:
428,232,141761,5,0,0:0:0:0:
380,68,142069,1,0,0:0:0:0:
304,32,142223,1,0,0:0:0:0:
220,32,142377,1,0,0:0:0:0:
144,68,142530,2,2,B|128:84|128:84|144:92|144:92|116:92|116:92|140:112|140:112|120:112|120:112|96:156,1,168.750006437302,8|0,0:0|0:0,0:0:0:0:
92,240,143146,1,0,0:0:0:0:
228,340,143454,5,0,0:0:0:0:
236,256,143608,2,0,B|274:201,1,56.2500021457673,0|8,0:0|0:0,0:0:0:0:
192,172,143916,1,0,0:0:0:0:
272,24,144224,5,0,0:0:0:0:
416,108,144531,1,0,0:0:0:0:
280,208,144839,1,0,0:0:0:0:
364,224,144992,2,0,B|412:268,1,56.2500021457673,8|0,0:0|0:0,0:0:0:0:
332,308,145301,2,0,L|284:360,1,56.2500021457673
212,364,145607,1,0,0:0:0:0:
84,252,145915,5,0,0:0:0:0:
164,228,146069,2,0,L|164:156,1,56.2500021457673,0|8,0:0|0:0,0:0:0:0:
140,92,146377,2,0,P|168:84|204:100,1,56.2500021457673
268,52,146684,6,2,P|264:116|336:184,1,150
356,104,147146,1,0,0:0:0:0:
432,132,147300,2,0,B|436:119|456:88|428:60,2,75
392,204,147761,1,8,0:0:0:0:
288,332,148069,1,4,0:0:0:0:
128,296,148377,5,0,0:0:0:0:
188,352,148531,2,0,P|213:318|217:286,1,75
172,216,148839,1,0,0:0:0:0:
40,116,149147,5,0,0:0:0:0:
180,32,149454,1,0,0:0:0:0:
344,44,149762,1,0,0:0:0:0:
392,112,149915,2,0,P|356:128|308:116,1,75
292,204,150224,2,0,P|330:214|380:208,1,75,8|0,0:0|0:0,0:0:0:0:
444,188,150531,5,0,0:0:0:0:
460,268,150685,2,0,B|452:300|452:300|420:316|380:304,1,75,0|8,0:0|0:0,0:0:0:0:
328,312,150993,2,0,L|240:312,2,75
164,304,151608,5,0,0:0:0:0:
36,200,151916,1,0,0:0:0:0:
52,120,152070,1,8,0:0:0:0:
116,68,152224,1,0,0:0:0:0:
196,56,152378,2,0,B|232:44|232:44|224:28|224:28|244:64|244:64|252:36|252:36|306:18|306:18|364:48,1,225
408,88,152993,1,0,0:0:0:0:
268,176,153301,5,8,0:0:0:0:
188,152,153453,2,0,B|172:188|200:232,1,75
272,256,153761,1,0,0:0:0:0:
424,324,154069,5,0,0:0:0:0:
452,160,154378,1,0,0:0:0:0:
308,240,154684,1,0,0:0:0:0:
340,164,154838,2,0,B|304:140|252:164,1,75
216,220,155146,2,0,P|176:240|116:224,1,75,8|0,0:0|0:0,0:0:0:0:
164,156,155453,1,0,0:0:0:0:
68,24,155762,5,8,0:0:0:0:
20,92,155916,2,0,B|-4:128|12:184,2,75
176,44,156530,6,0,P|222:69|232:128,1,75
164,136,156839,2,0,P|200:164|248:152,1,75,0|8,0:0|0:0,0:0:0:0:
304,128,157147,2,0,B|348:124|384:168,1,75
424,216,157453,2,0,P|426:238|404:276,6,37.5
352,260,158069,6,0,P|351:260|351:284,10,25
296,256,158684,2,2,B|284:251|284:251|280:272|280:272|276:240|276:240|272:264|272:264|264:248|264:248|255:255|255:255|144:256,1,225
344,28,167607,6,2,B|312:56|268:48,1,75
184,72,167915,2,2,P|209:113|276:124,1,82.5000025177003
332,168,168223,2,2,P|303:205|228:208,1,89.9999972534181
176,280,168530,2,2,B|204:332|296:328,1,97.4999955368044
356,288,168838,1,0,0:0:0:0:
416,220,168992,1,0,0:0:0:0:
444,136,169146,1,0,0:0:0:0:
444,136,169223,1,0,0:0:0:0:
444,136,169300,2,0,B|436:72|384:64,1,89.9999972534181,8|0,0:0|0:0,0:0:0:0:
352,144,169608,5,0,0:0:0:0:
300,72,169762,1,0,0:0:0:0:
228,16,169916,2,0,B|176:56|232:128,1,89.9999972534181,8|0,0:0|0:0,0:0:0:0:
128,68,170223,2,0,P|128:108|176:164,1,89.9999972534181
64,160,170530,2,0,P|82:198|224:280,1,179.999994506836,8|0,0:0|0:0,0:0:0:0:
372,300,171146,5,8,0:0:0:0:
456,268,171300,1,0,0:0:0:0:
456,268,171377,1,0,0:0:0:0:
456,268,171453,2,0,P|480:160|404:124,1,179.999994506836,0|8,0:0|0:0,0:0:0:0:
396,204,171916,5,0,0:0:0:0:
320,148,172069,1,0,0:0:0:0:
252,92,172223,1,0,0:0:0:0:
180,40,172377,2,0,P|160:64|168:120,1,89.9999972534181,8|0,0:0|0:0,0:0:0:0:
80,100,172684,2,0,P|88:144|128:188,1,89.9999972534181
24,184,172992,2,0,P|56:236|116:260,1,89.9999972534181,8|0,0:0|0:0,0:0:0:0:
264,144,173453,5,0,0:0:0:0:
264,144,173530,1,0,0:0:0:0:
264,144,173608,1,8,0:0:0:0:
256,232,173762,2,0,P|304:224|344:164,1,89.9999972534181
340,108,174069,2,0,P|372:80|436:88,2,89.9999972534181,0|8|0,0:0|0:0|0:0,0:0:0:0:
464,240,174685,5,0,0:0:0:0:
452,328,174839,1,8,0:0:0:0:
364,348,174992,2,0,P|363:300|386:266,1,89.9999972534181
296,264,175300,2,0,P|316:224|376:180,2,89.9999972534181,0|8|0,0:0|0:0|0:0,0:0:0:0:
124,312,175916,5,0,0:0:0:0:
60,248,176069,1,8,0:0:0:0:
32,164,176223,1,0,0:0:0:0:
76,84,176377,2,0,P|98:53|148:28,1,89.9999972534181
164,116,176685,2,0,P|208:92|264:96,1,89.9999972534181,8|0,0:0|0:0,0:0:0:0:
228,180,176992,2,0,P|272:176|340:200,1,89.9999972534181
268,264,177300,6,0,P|305:278|336:316,3,89.9999972534181,8|0|0|0,0:0|0:0|0:0|0:0,0:0:0:0:
416,276,177916,2,0,L|376:232,4,44.999998626709,8|0|8|0|8,0:0|0:0|0:0|0:0|0:0,0:0:0:0:
400,188,178377,2,8,L|370:154,4,44.999998626709
360,108,178839,2,0,B|332:88|332:88|312:12|196:56,1,179.999994506836,0|8,0:0|0:0,0:0:0:0:
136,100,179300,5,0,0:0:0:0:
72,164,179454,1,0,0:0:0:0:
112,244,179608,2,0,B|164:220|164:144,1,89.9999972534181,0|8,0:0|0:0,0:0:0:0:
244,140,179916,2,0,B|255:190|231:226,1,89.9999972534181
300,284,180223,2,0,B|336:232|324:172,1,89.9999972534181,0|8,0:0|0:0,0:0:0:0:
428,188,180531,2,0,B|432:296|380:360|380:360|304:360,1,224.999993133545
300,364,180992,1,8,0:0:0:0:
100,328,181300,6,0,B|36:288|40:220|40:220|96:176,1,179.999994506836,0|8,0:0|0:0,0:0:0:0:
152,240,181762,1,0,0:0:0:0:
160,152,181916,1,0,0:0:0:0:
88,100,182069,1,0,0:0:0:0:
168,60,182223,6,0,L|256:24,1,89.9999972534181,8|0,0:0|0:0,0:0:0:0:
228,112,182531,2,0,L|320:72,1,89.9999972534181
288,164,182839,2,0,L|376:124,1,89.9999972534181,8|0,0:0|0:0,0:0:0:0:
388,308,183300,6,0,P|440:304|476:248,2,89.9999972534181,0|8|0,0:0|0:0|0:0,0:0:0:0:
308,268,183762,2,0,P|268:240|204:240,2,89.9999972534181,0|0|8,0:0|0:0|0:0,0:0:0:0:
232,320,184223,2,0,B|208:360|152:360,1,89.9999972534181
156,268,184531,5,0,0:0:0:0:
80,220,184685,1,8,0:0:0:0:
160,180,184839,1,0,0:0:0:0:
80,140,184992,1,0,0:0:0:0:
156,96,185146,1,0,0:0:0:0:
80,48,185300,1,8,0:0:0:0:
164,16,185454,2,0,B|216:20|236:76,1,89.9999972534181
320,40,185762,6,0,P|356:56|384:112,2,89.9999972534181,0|8|0,0:0|0:0|0:0,0:0:0:0:
304,128,186223,2,0,P|316:172|296:224,2,89.9999972534181,0|8|0,0:0|0:0|0:0,0:0:0:0:
228,176,186685,2,0,P|192:220|148:236,2,89.9999972534181,0|8|0,0:0|0:0|0:0,0:0:0:0:
140,156,187146,5,0,0:0:0:0:
76,220,187300,1,8,0:0:0:0:
140,156,187453,6,0,P|169:169|205:213,2,89.9999972534181,0|0|8,0:0|0:0|0:0,0:0:0:0:
280,175,187915,2,0,P|292:216|280:260,2,89.9999972534181,0|0|8,0:0|0:0|0:0,0:0:0:0:
359,291,188376,2,0,P|332:332|296:348,2,89.9999972534181,0|0|8,0:0|0:0|0:0,0:0:0:0:
444,320,188838,5,0,0:0:0:0:
432,232,188992,1,0,0:0:0:0:
424,144,189146,2,0,P|472:154|524:200,2,89.9999972534181,8|0|0,0:0|0:0|0:0,0:0:0:0:
372,68,189607,2,0,P|416:52|476:64,2,89.9999972534181,0|0|8,0:0|0:0|0:0,0:0:0:0:
328,140,190069,6,0,L|252:204,1,89.9999972534181
192,256,190377,6,0,L|268:192,1,89.9999972534181
196,136,190684,1,0,0:0:0:0:
328,260,190838,6,0,L|248:188,1,89.9999972534181
196,136,191146,1,0,0:0:0:0:
56,248,191453,5,8,0:0:0:0:
120,312,191607,2,0,P|145:278|149:246,1,75
104,168,191915,1,0,0:0:0:0:
216,28,192223,5,0,0:0:0:0:
388,80,192530,1,0,0:0:0:0:
484,232,192838,1,0,0:0:0:0:
448,316,192993,2,0,P|417:335|364:320,1,75
388,240,193300,2,0,P|352:237|308:256,1,75,8|0,0:0|0:0,0:0:0:0:
276,332,193607,5,0,0:0:0:0:
268,244,193761,2,0,B|228:240|188:280,1,75,0|8,0:0|0:0,0:0:0:0:
120,228,194069,2,0,P|144:196|178:181,2,75
228,372,194684,5,0,0:0:0:0:
52,332,194992,1,0,0:0:0:0:
20,248,195146,1,8,0:0:0:0:
52,164,195300,1,0,0:0:0:0:
116,100,195454,2,0,B|144:88|144:88|140:68|140:68|160:96|160:96|160:68|160:68|176:84|176:84|180:72|180:72|216:104|284:92,1,225
264,8,196069,1,0,0:0:0:0:
424,92,196377,5,8,0:0:0:0:
336,64,196531,2,0,B|320:100|348:144,1,75
392,212,196839,1,0,0:0:0:0:
272,348,197147,5,0,0:0:0:0:
436,276,197454,1,0,0:0:0:0:
268,208,197762,1,0,0:0:0:0:
308,128,197915,2,0,B|272:104|220:128,1,75
220,32,198223,2,0,P|180:40|144:80,1,75,8|0,0:0|0:0,0:0:0:0:
160,144,198529,1,0,0:0:0:0:
52,288,198838,5,8,0:0:0:0:
108,216,198992,2,0,B|148:240|136:304,2,75
260,120,199607,6,0,P|306:145|316:204,1,75
244,220,199915,2,0,P|272:248|328:252,1,75,0|8,0:0|0:0,0:0:0:0:
376,312,200223,2,0,B|408:272|374:231,1,75
388,152,200530,2,8,P|391:137|389:115,6,37.5
216,92,201300,5,8,0:0:0:0:
276,160,201454,2,0,P|301:126|305:94,1,75
252,20,201762,1,0,0:0:0:0:
84,88,202070,5,0,0:0:0:0:
20,256,202377,1,0,0:0:0:0:
168,360,202685,1,0,0:0:0:0:
152,272,202838,2,0,P|192:280|236:276,1,75
196,192,203147,2,0,P|231:189|269:199,1,75,8|0,0:0|0:0,0:0:0:0:
324,272,203454,5,0,0:0:0:0:
376,344,203608,2,0,B|384:350|416:334|416:334|424:302,1,75,0|8,0:0|0:0,0:0:0:0:
416,212,203916,2,0,B|396:179|396:179|360:160,2,75
272,320,204531,5,0,0:0:0:0:
132,204,204839,1,0,0:0:0:0:
212,160,204993,1,8,0:0:0:0:
132,116,205147,1,0,0:0:0:0:
200,56,205301,2,0,B|232:52|232:52|232:32|232:32|248:64|248:64|244:36|244:36|256:48|256:48|256:32|256:32|268:40|268:40|294:35|332:60,1,225
408,96,205916,1,0,0:0:0:0:
276,220,206224,5,8,0:0:0:0:
188,200,206378,2,0,B|172:236|200:280,1,75
276,308,206684,1,0,0:0:0:0:
456,316,206992,5,0,0:0:0:0:
432,136,207301,1,0,0:0:0:0:
300,228,207607,1,0,0:0:0:0:
344,160,207761,2,0,B|308:136|256:160,1,75
220,220,208069,2,0,P|180:240|120:224,1,75,8|0,0:0|0:0,0:0:0:0:
164,156,208376,1,0,0:0:0:0:
68,24,208685,5,8,0:0:0:0:
20,92,208839,2,0,B|-4:128|12:184,2,75
180,172,209453,6,0,P|226:197|236:256,1,75
160,264,209762,2,0,P|196:292|244:280,1,75,0|8,0:0|0:0,0:0:0:0:
300,260,210069,1,0,0:0:0:0:
368,212,210223,2,0,L|404:180,1,37.5,2|0,0:0|0:0,0:0:0:0:
408,148,210377,2,2,L|404:100,1,37.5
388,68,210530,2,2,L|348:48,1,37.5
312,36,210684,2,2,L|252:36,1,37.5
