osu file format v12

[General]
AudioFilename: Outer Science.mp3
AudioLeadIn: 0
PreviewTime: 59453
Countdown: 1
SampleSet: Normal
StackLeniency: 0.7
Mode: 0
LetterboxInBreaks: 1

[Editor]
Bookmarks: 377,5300,10223,20069,29915,39761,49607,59453,69300,79146,88992,98838,108684,118530,128377,138223,148069,159146,168992,178838,191146,200992,210838
DistanceSpacing: 0.8
BeatDivisor: 4
GridSize: 8

[Metadata]
Title:Outer Science
TitleUnicode:アウターサイエンス
Artist:Jin
ArtistUnicode:じん
Creator:_Asagi_
Version:Easy
Source:
Tags:asagi mira-san shanaai ia jin outer science vocaloid topecnz
BeatmapID:277631
BeatmapSetID:103013

[Difficulty]
HPDrainRate:2
CircleSize:3
OverallDifficulty:2
ApproachRate:2
SliderMultiplier:1
SliderTickRate:1

[Events]
//Background and Video events
0,0,"IA.jpg",0,0
//Break Periods
2,79346,87432
2,138423,146201
2,159146,167432
//Storyboard Layer 0 (Background)
//Storyboard Layer 1 (Fail)
//Storyboard Layer 2 (Pass)
//Storyboard Layer 3 (Foreground)
//Storyboard Sound Samples
//Background Colour Transformations
3,100,163,162,255

[TimingPoints]
377,307.692307692308,4,1,0,60,1,0
10223,-100,4,1,0,60,0,1
10300,-100,4,1,0,60,0,0
49607,-133.333333333333,4,2,0,30,0,0
56530,-100,4,1,0,60,0,0
59453,-100,4,1,0,60,0,1
69223,-100,4,1,0,60,0,0
69300,-100,4,1,0,60,0,1
79146,-100,4,1,0,60,0,0
108684,-133.333333333333,4,1,0,30,0,0
115607,-100,4,1,0,60,0,0
118530,-100,4,1,0,60,0,1
128300,-100,4,1,0,60,0,0
128377,-100,4,1,0,60,0,1
138223,-100,4,1,0,60,0,0
138530,-133.333333333333,4,1,0,30,0,0
148069,-100,4,1,0,60,0,0
168992,-100,4,1,0,60,0,1
178761,-100,4,1,0,60,0,0
178838,-100,4,1,0,60,0,1
191146,-100,4,1,0,40,0,0

[Colours]
Combo1 : 255,0,128
Combo2 : 0,255,255
Combo3 : 255,255,0
Combo4 : 255,128,0
Combo5 : 128,0,255

[HitObjects]
256,192,2838,12,0,4992,0:0:0:0:
352,80,5300,6,0,P|424:100|456:216,1,200
424,288,6223,1,0,0:0:0:0:
352,320,6530,2,0,P|256:344|152:312,1,200
88,288,7453,1,0,0:0:0:0:
54,210,7761,2,0,P|88:100|160:80,1,200
296,168,8992,2,8,L|296:288,1,100
216,272,9607,2,8,L|216:152,1,100
216,88,10223,5,8,0:0:0:0:
280,40,10530,2,8,P|376:40|448:120,1,200
472,264,11761,2,8,P|448:328|320:360,1,200
168,360,12992,2,8,P|50:324|26:260,1,200
24,104,14223,2,8,P|48:40|165:4,1,200
344,88,15453,6,8,P|400:112|406:145,2,100,8|0|8,0:0|0:0|0:0,0:0:0:0:
256,224,16684,2,8,L|256:120,2,100,8|0|8,0:0|0:0|0:0,0:0:0:0:
168,88,17915,2,8,P|112:112|112:160,2,100,8|0|8,0:0|0:0|0:0,0:0:0:0:
312,176,19146,1,8,0:0:0:0:
272,248,19453,1,0,0:0:0:0:
216,312,19761,1,8,0:0:0:0:
128,312,20069,6,0,P|64:248|136:184,1,200,0|2,0:0|0:0,0:0:0:0:
288,168,21300,2,0,P|350:103|286:39,1,200,0|2,0:0|0:0,0:0:0:0:
144,112,22530,2,0,P|80:176|152:240,1,200,0|2,0:0|0:0,0:0:0:0:
304,216,23761,1,8,0:0:0:0:
368,264,24069,1,8,0:0:0:0:
304,312,24377,1,8,0:0:0:0:
240,168,24992,6,0,P|176:104|111:166,1,200,0|2,0:0|0:0,0:0:0:0:
192,304,26222,2,0,P|256:366|320:302,1,200,0|2,0:0|0:0,0:0:0:0:
400,168,27453,2,0,P|335:105|271:169,1,200,0|2,0:0|0:0,0:0:0:0:
328,320,28684,1,8,0:0:0:0:
256,360,28992,1,8,0:0:0:0:
152,296,29453,1,8,0:0:0:0:
256,176,29915,5,0,0:0:0:0:
192,232,30223,2,8,P|176:136|272:96,1,200
416,112,31453,2,8,P|472:192|416:288,1,200
272,288,32684,2,8,L|240:88,1,200
80,104,33915,2,8,P|41:189|97:269,1,200
176,272,34838,5,0,0:0:0:0:
160,192,35146,2,8,B|256:168|256:168|360:192,1,200
336,272,36069,1,0,0:0:0:0:
256,296,36377,2,8,L|256:96,1,200
328,56,37300,1,0,0:0:0:0:
256,16,37607,1,8,0:0:0:0:
256,104,39761,5,0,0:0:0:0:
304,24,40069,2,8,P|344:112|288:200,1,200
168,96,41300,2,8,P|144:192|208:272,1,200
304,152,42530,2,8,P|392:112|488:160,1,200
376,272,43761,2,8,B|312:352|312:352|200:352,1,200
256,272,44684,5,0,0:0:0:0:
144,264,44992,2,8,B|208:184|208:184|320:184,1,200
352,32,46223,2,8,L|136:32,1,200
152,112,47146,1,0,0:0:0:0:
200,176,47453,1,8,0:0:0:0:
88,192,49607,6,0,P|104:120|176:96,1,150.000005722046
216,240,50838,2,0,L|216:328,2,75.0000028610231
256,176,51761,1,0,0:0:0:0:
296,112,52069,1,0,0:0:0:0:
368,248,52684,6,0,P|408:192|352:136,2,150.000005722046
296,256,54223,2,0,L|208:256,1,75.0000028610231
88,264,55146,2,0,P|112:192|184:160,1,150.000005722046
256,160,56069,1,0,0:0:0:0:
336,160,56377,1,0,0:0:0:0:
416,160,56684,1,0,0:0:0:0:
328,72,57146,6,0,B|256:64|256:64|168:72,3,150
256,296,59453,5,4,0:0:0:0:
256,216,59761,2,8,B|152:216|152:216|64:152,1,200
184,40,60992,2,8,B|288:40|288:40|376:104,1,200
448,240,62223,6,8,B|360:240|360:240|360:304|296:328,1,200
256,248,63146,1,0,0:0:0:0:
208,328,63453,2,8,B|149:306|149:242|149:242|61:242,1,200
64,80,64684,2,8,L|280:80,1,200
448,192,65915,2,8,L|232:192,1,200
120,96,67146,6,8,P|72:168|160:208,1,200
359,211,68377,2,8,P|440:168|392:96,1,200
312,72,69300,5,12,0:0:0:0:
232,56,69607,2,8,P|160:112|176:224,1,200
328,184,70838,2,8,P|354:284|296:352,1,200
136,344,72069,6,8,B|48:296|48:296|48:192,1,200
128,192,72992,1,0,0:0:0:0:
48,192,73300,2,8,B|48:92|48:92|136:44,1,200
296,40,74530,2,8,P|384:80|408:176,1,200
248,184,75761,2,8,P|288:272|400:304,1,200
456,168,76992,5,8,0:0:0:0:
344,128,77453,1,8,0:0:0:0:
232,160,77915,1,8,0:0:0:0:
160,256,78377,1,8,0:0:0:0:
88,224,78684,2,8,L|88:152,1,50
88,96,79146,1,4,0:0:0:0:
88,248,88992,5,0,0:0:0:0:
88,336,89300,2,8,P|144:312|152:184,1,200
16,104,90530,2,8,P|96:40|200:56,1,200
328,120,91761,2,8,P|344:224|272:264,1,200
128,192,92992,2,8,P|89:277|145:357,1,200
176,272,93915,5,0,0:0:0:0:
256,272,94223,2,8,P|360:264|400:176,1,200
304,192,95146,1,0,0:0:0:0:
216,184,95454,2,8,P|272:104|368:128,1,200
432,160,96377,1,0,0:0:0:0:
424,80,96684,1,8,0:0:0:0:
176,112,98838,5,0,0:0:0:0:
216,40,99146,2,8,P|256:128|192:200,1,200
56,120,100377,2,8,P|32:216|96:296,1,200
208,184,101607,2,8,P|296:144|392:192,1,200
360,344,102838,2,8,B|256:344|256:344|256:248,1,200
256,168,103761,5,0,0:0:0:0:
256,88,104069,2,8,B|256:16|256:16|128:16,1,200
48,168,105300,2,8,L|264:168,1,200
256,248,106223,1,0,0:0:0:0:
320,200,106530,1,8,0:0:0:0:
328,96,108684,6,0,P|256:80|176:96,1,150.000005722046
256,192,109915,2,0,L|256:280,2,75.0000028610231
256,120,110838,1,0,0:0:0:0:
184,120,111146,1,0,0:0:0:0:
32,136,111761,6,0,P|-13:190|26:246,2,150.000005722046
104,136,113300,2,0,L|179:136,1,75.0000028610231
304,48,114223,2,0,P|366:79|390:151,1,150.000005722046
392,224,115146,1,0,0:0:0:0:
344,288,115454,1,0,0:0:0:0:
264,288,115761,1,0,0:0:0:0:
256,168,116223,6,0,B|248:136|264:112|264:112|248:88|248:88|264:56|248:24,3,150
256,264,118530,5,4,0:0:0:0:
256,184,118838,2,8,B|152:184|152:184|88:272,1,200
256,264,120069,2,8,B|360:264|360:264|424:176,1,200
312,72,121300,6,8,B|184:40|136:160,1,200
144,224,122223,1,0,0:0:0:0:
168,304,122530,2,8,B|227:282|227:218|227:218|315:218,1,200
448,136,123761,2,8,L|232:136,1,200
96,80,124992,2,8,P|50:164|96:288,1,200
216,328,126223,6,8,P|296:284|248:212,1,200
88,192,127454,2,8,P|7:149|55:77,1,200
136,64,128377,1,4,0:0:0:0:
216,56,128684,2,8,P|288:112|216:176,1,200
72,144,129915,2,8,P|46:244|104:312,1,200
264,320,131146,6,8,B|352:272|352:272|352:168,1,200
352,96,132069,1,0,0:0:0:0:
344,16,132377,2,8,B|432:32|432:32|432:160,1,200
424,304,133607,2,8,P|352:360|272:296,1,200
256,144,134838,2,8,P|144:168|112:248,1,200
256,264,136069,5,8,0:0:0:0:
368,216,136530,1,8,0:0:0:0:
360,96,136992,1,8,0:0:0:0:
256,40,137454,1,8,0:0:0:0:
256,120,137761,2,8,L|256:170,1,50
256,248,138223,1,4,0:0:0:0:
120,224,147761,6,0,L|200:224,1,75.0000028610231,0|4,0:0|0:0,0:0:0:0:
272,224,148377,2,8,P|232:136|272:48,1,200
432,48,149607,2,8,P|472:136|432:224,1,200
272,232,150838,2,8,L|56:232,1,200
192,336,152069,2,8,L|304:336,2,100,8|0|8,0:0|0:0|0:0,0:0:0:0:
112,312,152992,5,0,0:0:0:0:
56,256,153300,2,8,P|16:168|56:80,1,200
216,80,154530,2,8,P|256:168|216:256,1,200
80,168,155761,2,8,L|296:168,1,200
432,120,156992,2,8,L|360:120,1,50
304,120,157453,2,8,L|256:120,6,25
376,288,168992,5,4,0:0:0:0:
296,312,169300,2,8,B|184:336|112:248,1,200
48,104,170531,2,8,B|152:72|240:168,1,200
304,296,171762,6,8,B|392:296|392:296|392:232|456:208,1,200
464,128,172685,1,0,0:0:0:0:
384,120,172992,2,8,B|325:98|325:34|325:34|237:34,1,200
256,192,174223,2,8,B|256:112|256:112|128:112,1,200
64,256,175453,2,8,B|64:336|64:336|192:336,1,200
344,336,176685,6,8,P|424:292|376:220,1,200
216,216,177916,2,8,P|135:173|183:101,1,200
264,88,178839,5,4,0:0:0:0:
344,72,179146,2,8,P|416:128|352:200,1,200
248,312,180377,2,8,P|190:244|216:144,1,200
360,224,181608,6,8,B|448:176|448:176|448:72,1,200
368,120,182531,1,0,0:0:0:0:
376,24,182839,2,8,B|288:72|288:72|288:172,1,200
288,328,184069,2,8,P|184:288|176:192,1,200
144,56,185300,2,8,P|64:112|48:208,1,200
168,312,186531,5,8,0:0:0:0:
280,352,186992,1,8,0:0:0:0:
376,272,187454,1,8,0:0:0:0:
344,160,187916,1,8,0:0:0:0:
272,192,188223,2,8,L|208:224,1,50
152,248,188684,5,8,0:0:0:0:
48,192,189145,1,8,0:0:0:0:
56,72,189607,1,8,0:0:0:0:
160,16,190069,1,8,0:0:0:0:
232,48,190377,1,8,0:0:0:0:
296,96,190684,2,8,L|296:160,1,50,0|0,0:0|0:0,0:0:0:0:
296,224,191146,5,4,0:0:0:0:
288,304,191454,2,8,P|184:304|160:216,1,200
320,208,192684,2,8,P|392:224|424:112,1,200
304,24,193915,2,8,P|204:22|168:120,1,200
184,272,195146,6,8,L|272:344,2,100,8|0|8,0:0|0:0|0:0,0:0:0:0:
120,208,196069,1,0,0:0:0:0:
72,280,196377,2,8,P|32:192|104:128,1,200
224,32,197607,2,8,P|264:120|224:208,1,200
144,344,198838,2,8,P|244:350|344:296,1,200
480,240,200069,2,8,L|480:184,1,50
456,112,200530,2,2,B|448:104|448:104|440:112|440:112|432:104|432:104|424:112|424:112|416:104|416:104|408:112|408:112|400:104|400:104|392:112|392:112|384:104|384:104|376:112|376:112|368:104|368:104|360:112|360:112|352:104|352:104|344:112|344:112|336:104,1,150
272,56,201300,6,8,P|168:56|144:144,1,200
296,176,202530,2,8,P|368:160|400:272,1,200
248,264,203761,2,8,P|148:262|112:360,1,200
272,344,204992,6,8,L|384:344,2,100,8|0|8,0:0|0:0|0:0,0:0:0:0:
192,344,205915,1,0,0:0:0:0:
112,336,206223,2,8,P|72:248|144:184,1,200
280,256,207453,2,8,P|320:168|264:88,1,200
120,32,208684,2,8,P|15:47|16:128,1,200
112,248,209915,5,0,0:0:0:0:
192,248,210223,2,0,L|264:248,3,50
