osu file format v12

[General]
AudioFilename: Outer Science.mp3
AudioLeadIn: 0
PreviewTime: 59453
Countdown: 0
SampleSet: Normal
StackLeniency: 0.7
Mode: 0
LetterboxInBreaks: 1

[Editor]
Bookmarks: 377,5300,10223,20069,29915,39761,49607,59453,69300,79146
DistanceSpacing: 1.5
BeatDivisor: 4
GridSize: 8

[Metadata]
Title:Outer Science
TitleUnicode:アウターサイエンス
Artist:Jin
ArtistUnicode:じん
Creator:_Asagi_
Version:AI
Source:
Tags:asagi mira-san shanaai ia jin outer science vocaloid topecnz
BeatmapID:272065
BeatmapSetID:103013

[Difficulty]
HPDrainRate:6
CircleSize:4
OverallDifficulty:7
ApproachRate:9
SliderMultiplier:1.8
SliderTickRate:2

[Events]
//Background and Video events
0,0,"IA.jpg",0,0
//Break Periods
2,37806,39161
2,47960,49007
2,79337,88392
2,96884,98238
2,138423,147161
2,159095,167007
//Storyboard Layer 0 (Background)
//Storyboard Layer 1 (Fail)
//Storyboard Layer 2 (Pass)
//Storyboard Layer 3 (Foreground)
//Storyboard Sound Samples
//Background Colour Transformations
3,100,163,162,255

[TimingPoints]
377,307.692307692308,4,1,0,60,1,0
9838,-62.5,4,1,0,60,0,0
10223,-100,4,1,0,60,0,1
10300,-100,4,1,0,60,0,1
10838,-100,4,1,0,60,0,0
24607,-66.6666666666667,4,1,0,60,0,0
24915,-100,4,1,0,60,0,0
32300,-100,4,1,0,60,0,0
37684,-100,4,1,0,60,0,0
46607,-100,4,1,0,60,0,0
49607,-133.333333333333,4,2,0,30,0,0
56915,-100,4,1,0,60,0,0
59453,-100,4,1,0,60,0,1
67838,-200,4,1,0,60,0,1
68300,-100,4,1,0,60,0,1
68607,-76.9230769230769,4,1,0,60,0,1
69069,-62.5,4,1,0,60,0,1
69377,-100,4,1,0,60,0,0
69453,-100,4,1,0,60,0,1
78838,-55.5555555555556,4,1,0,60,0,1
79146,-100,4,1,0,60,0,0
108684,-133.333333333333,4,2,0,30,0,0
115223,-200,4,2,0,60,0,0
115684,-100,4,1,0,60,0,0
118146,-76.9230769230769,4,1,0,60,0,0
118530,-100,4,1,0,60,0,1
123069,-66.6666666666667,4,1,0,60,0,1
123377,-100,4,1,0,60,0,1
125838,-66.6666666666667,4,1,0,60,0,1
126300,-100,4,1,0,60,0,1
128377,-66.6666666666667,4,1,0,60,0,0
128453,-100,4,1,0,60,0,1
128761,-100,4,1,0,60,0,1
133530,-66.6666666666667,4,1,0,60,0,1
133992,-100,4,1,0,60,0,1
137915,-100,4,1,0,60,0,0
167530,-200,4,1,0,60,0,0
167992,-142.857142857143,4,1,0,60,0,0
168300,-100,4,1,0,60,0,0
168607,-76.9230769230769,4,1,0,60,0,0
168915,-100,4,1,0,60,0,0
168992,-76.9230769230769,4,1,0,60,0,1
176761,-76.9230769230769,4,1,0,60,0,1
178761,-76.9230769230769,4,1,0,60,0,0
178838,-76.9230769230769,4,1,0,60,0,1
190838,-66.6666666666667,4,1,0,60,0,1
191146,-100,4,1,0,40,0,0

[Colours]
Combo1 : 255,0,128
Combo2 : 0,255,255
Combo3 : 255,255,0
Combo4 : 255,128,0
Combo5 : 128,0,255

[HitObjects]
256,192,2838,12,0,4992,0:0:0:0:
200,112,5300,5,0,0:0:0:0:
188,128,5377,1,0,0:0:0:0:
172,144,5453,2,0,P|124:184|84:192,1,90
216,328,5761,2,0,P|212:268|216:216,1,90
288,124,6069,1,0,0:0:0:0:
140,224,6223,1,0,0:0:0:0:
320,216,6377,2,0,P|384:192|408:160,1,90
372,92,6684,5,0,0:0:0:0:
220,188,6838,1,0,0:0:0:0:
384,264,6992,1,0,0:0:0:0:
212,284,7146,2,0,P|164:252|144:216,1,90
144,204,7377,1,0,0:0:0:0:
152,184,7453,2,0,P|208:144|224:96,1,90
360,16,7761,5,0,0:0:0:0:
156,100,7915,2,0,P|196:128|244:144,1,90
408,184,8223,2,0,P|364:208|316:220,1,90
304,216,8453,1,0,0:0:0:0:
280,208,8530,1,0,0:0:0:0:
112,168,8684,2,0,P|160:152|224:152,1,90
332,272,8992,1,8,0:0:0:0:
312,264,9069,1,0,0:0:0:0:
292,256,9146,1,0,0:0:0:0:
272,248,9223,1,0,0:0:0:0:
252,240,9300,2,0,P|204:220|160:220,1,90,8|0,0:0|0:0,0:0:0:0:
44,88,9607,2,0,P|92:108|136:108,1,90,8|0,0:0|0:0,0:0:0:0:
316,68,9915,2,0,B|320:68|320:68|316:72|316:72|320:72|320:72|312:76|312:76|316:76|316:76|308:80|308:80|312:80|312:80|304:84|304:84|308:84|308:84|308:88|308:88|312:88|312:88|312:92|312:92|316:92|316:92|316:96|316:96|324:96|324:96|320:100|320:100|328:100|328:100|324:104|324:104|316:104|316:104|320:108|320:108|308:108|308:108|316:112|316:112|308:112|308:112|312:116|312:116|300:116|300:116|304:120|304:120|292:120|292:120|296:124|296:124|308:124|308:124|304:128|304:128|312:128|312:128|308:132|308:132|312:132|312:132|312:136|312:136|308:136|308:136|308:140|308:140|304:140|304:140|304:144|304:144|300:144|300:144|300:148|300:148|296:148|296:148|296:152|296:152|292:152|292:152|292:160|292:160|288:160|288:160|288:164|288:164|284:164|284:164|284:168|284:168|280:168|280:168|280:172|280:172,1,288,8|4,0:0|0:0,0:0:0:0:
216,200,10300,5,0,0:0:0:0:
236,180,10377,2,0,P|184:132|128:112,1,90,0|8,0:0|0:0,0:0:0:0:
72,276,10684,2,0,P|120:248|156:212,1,90
244,72,10992,2,0,P|196:100|160:136,1,90,0|8,0:0|0:0,0:0:0:0:
160,144,11223,1,0,0:0:0:0:
160,168,11300,1,0,0:0:0:0:
252,320,11453,2,0,P|276:264|276:216,1,90
396,96,11761,2,0,P|348:64|300:48,1,90,8|0,0:0|0:0,0:0:0:0:
228,68,12069,1,0,0:0:0:0:
376,172,12223,1,0,0:0:0:0:
240,160,12377,1,8,0:0:0:0:
388,260,12530,1,0,0:0:0:0:
268,320,12684,5,0,0:0:0:0:
244,324,12761,1,0,0:0:0:0:
224,320,12838,2,0,P|172:264|172:224,1,90,0|8,0:0|0:0,0:0:0:0:
180,72,13146,2,0,P|232:128|232:168,1,90
120,208,13453,2,0,L|164:124,1,90,0|8,0:0|0:0,0:0:0:0:
328,64,13761,1,0,0:0:0:0:
348,76,13838,1,0,0:0:0:0:
360,92,13915,2,0,P|360:136|328:176,1,90
176,260,14223,2,0,P|176:216|208:176,1,90,8|0,0:0|0:0,0:0:0:0:
220,168,14453,1,0,0:0:0:0:
240,164,14530,2,0,P|304:164|352:152,1,90
176,260,14838,2,0,P|112:260|64:248,1,90,8|0,0:0|0:0,0:0:0:0:
64,120,15146,5,0,0:0:0:0:
80,104,15223,1,0,0:0:0:0:
100,96,15300,2,0,P|156:112|200:100,1,90,0|8,0:0|0:0,0:0:0:0:
448,120,15607,1,0,0:0:0:0:
432,104,15684,1,0,0:0:0:0:
412,96,15761,2,0,P|356:112|312:100,1,90
196,60,16069,1,8,0:0:0:0:
312,200,16223,1,0,0:0:0:0:
312,200,16300,1,0,0:0:0:0:
312,200,16377,2,0,P|256:232|208:232,1,90
96,244,16684,1,8,0:0:0:0:
252,152,16838,2,0,B|292:128|292:128|344:128,1,90
176,216,17146,2,0,B|152:176|152:176|152:124,1,90,0|8,0:0|0:0,0:0:0:0:
312,212,17453,2,0,B|336:172|336:172|336:120,1,90
328,108,17684,5,0,0:0:0:0:
312,92,17761,1,0,0:0:0:0:
132,100,17915,2,0,B|188:72|188:72|220:72,1,90,8|0,0:0|0:0,0:0:0:0:
368,168,18223,2,0,P|300:164|264:140,1,90
144,40,18530,2,0,P|112:88|100:136,1,90,8|0,0:0|0:0,0:0:0:0:
152,292,18838,1,0,0:0:0:0:
176,292,18915,1,0,0:0:0:0:
196,280,18992,2,0,P|224:228|216:184,1,90,0|8,0:0|0:0,0:0:0:0:
68,104,19300,2,0,B|120:76|120:76|168:76,1,90
444,104,19607,2,0,B|392:76|392:76|344:76,1,90,0|8,0:0|0:0,0:0:0:0:
256,224,19915,1,0,0:0:0:0:
428,276,20069,5,0,0:0:0:0:
428,276,20223,1,0,0:0:0:0:
320,132,20377,2,0,P|260:136|220:168,1,90,10|0,0:0|0:0,0:0:0:0:
68,104,20684,5,0,0:0:0:0:
68,104,20838,1,0,0:0:0:0:
176,248,20992,2,0,P|236:244|276:212,1,90,10|0,0:0|0:0,0:0:0:0:
428,108,21300,5,0,0:0:0:0:
428,108,21454,1,0,0:0:0:0:
320,252,21608,2,0,P|260:248|220:216,1,90,10|0,0:0|0:0,0:0:0:0:
196,60,21915,5,0,0:0:0:0:
196,60,22069,1,0,0:0:0:0:
340,168,22223,2,0,P|336:228|304:268,1,90,10|0,0:0|0:0,0:0:0:0:
148,292,22530,5,0,0:0:0:0:
148,292,22684,1,0,0:0:0:0:
256,148,22838,2,0,P|316:152|356:184,1,90,10|0,0:0|0:0,0:0:0:0:
248,324,23146,5,0,0:0:0:0:
248,324,23300,1,0,0:0:0:0:
104,216,23454,2,0,P|108:156|140:116,1,90,10|0,0:0|0:0,0:0:0:0:
292,68,23761,5,8,0:0:0:0:
204,96,23915,1,0,0:0:0:0:
320,144,24069,1,0,0:0:0:0:
172,180,24223,1,0,0:0:0:0:
348,224,24377,1,0,0:0:0:0:
332,240,24453,1,0,0:0:0:0:
312,248,24530,1,0,0:0:0:0:
288,252,24607,1,0,0:0:0:0:
264,256,24684,2,0,B|256:252|256:252|256:260|256:260|248:252|248:252|248:260|248:260|240:252|240:252|240:260|240:260|232:252|232:252|232:260|232:260|224:252|224:252|224:260|224:260|216:252|216:252|216:260|216:260|208:252|208:252|208:260|208:260|200:252|200:252|200:260|200:260|192:256|192:256,1,135.000005149842,10|0,0:0|0:0,0:0:0:0:
116,104,24992,6,0,B|172:84|172:84|212:84,1,90
380,128,25300,1,10,0:0:0:0:
364,144,25377,1,0,0:0:0:0:
344,152,25453,1,0,0:0:0:0:
184,236,25607,6,0,B|240:256|240:256|280:256,1,90
448,212,25915,1,10,0:0:0:0:
432,196,25992,1,0,0:0:0:0:
412,188,26068,1,0,0:0:0:0:
304,44,26223,6,0,B|284:100|284:100|284:140,1,90
328,308,26531,1,10,0:0:0:0:
344,292,26608,1,0,0:0:0:0:
352,272,26684,1,0,0:0:0:0:
452,120,26838,6,0,B|396:100|396:100|356:100,1,90
188,144,27146,1,10,0:0:0:0:
204,160,27223,1,0,0:0:0:0:
224,168,27299,1,0,0:0:0:0:
400,200,27453,6,0,B|344:180|344:180|304:180,1,90
136,224,27761,1,10,0:0:0:0:
152,240,27838,1,0,0:0:0:0:
172,248,27914,1,0,0:0:0:0:
336,324,28069,6,0,B|356:268|356:268|356:228,1,90
312,60,28377,1,10,0:0:0:0:
296,76,28454,1,0,0:0:0:0:
288,96,28530,1,0,0:0:0:0:
248,272,28684,5,8,0:0:0:0:
332,240,28838,1,8,0:0:0:0:
212,200,28992,1,8,0:0:0:0:
360,160,29146,1,8,0:0:0:0:
384,76,29453,2,0,L|416:72,4,22.5
164,252,29915,6,0,L|256:228|256:228,1,90,4|0,0:0|0:0,0:0:0:0:
376,176,30223,1,8,0:0:0:0:
196,172,30377,2,0,P|240:200|300:192,1,90
448,148,30684,2,0,P|416:116|360:104,1,90,0|8,0:0|0:0,0:0:0:0:
272,192,30992,1,0,0:0:0:0:
132,76,31146,1,0,0:0:0:0:
84,152,31300,1,0,0:0:0:0:
216,32,31453,1,8,0:0:0:0:
168,204,31607,2,0,B|156:220|156:220|168:232|168:232|168:256|168:256|212:288|292:288,1,180
368,256,32069,1,8,0:0:0:0:
376,168,32223,1,0,0:0:0:0:
300,120,32377,6,0,B|248:144|248:144|248:200,1,90
84,248,32684,2,0,B|136:224|136:224|136:168,1,90,8|0,0:0|0:0,0:0:0:0:
204,76,32992,1,0,0:0:0:0:
300,228,33146,1,0,0:0:0:0:
220,184,33300,1,8,0:0:0:0:
396,216,33453,1,0,0:0:0:0:
376,84,33607,2,0,B|332:96|332:96|288:96,1,90
112,144,33915,2,0,B|156:156|156:156|200:156,1,90,8|0,0:0|0:0,0:0:0:0:
220,148,34146,1,0,0:0:0:0:
240,136,34223,1,0,0:0:0:0:
404,64,34377,2,8,P|372:104|320:120,1,90,0|8,0:0|0:0,0:0:0:0:
164,64,34684,1,0,0:0:0:0:
280,204,34838,6,0,B|288:220|288:220|304:224|304:224|296:244|296:244|244:284|176:264,1,180,0|8,0:0|0:0,0:0:0:0:
160,248,35223,1,0,0:0:0:0:
148,228,35300,1,0,0:0:0:0:
96,104,35453,2,0,P|120:64|155:37,1,90
176,32,35684,1,0,0:0:0:0:
200,32,35761,1,8,0:0:0:0:
312,92,35915,2,0,B|344:108|344:108|408:108,1,90
376,240,36223,2,0,B|344:256|344:256|280:256,1,90,0|8,0:0|0:0,0:0:0:0:
272,256,36453,1,0,0:0:0:0:
256,256,36530,1,0,0:0:0:0:
96,168,36838,6,0,P|92:224|128:256,1,90,0|8,0:0|0:0,0:0:0:0:
272,128,37146,2,0,P|276:72|240:40,1,90
416,232,37453,2,0,P|412:288|448:320,1,90,0|8,0:0|0:0,0:0:0:0:
360,156,39761,5,0,0:0:0:0:
348,176,39838,1,0,0:0:0:0:
328,188,39915,2,0,P|268:192|240:168,1,90,0|8,0:0|0:0,0:0:0:0:
152,80,40223,2,0,P|212:76|240:100,1,90
136,264,40530,2,0,B|104:232|104:232|104:172,1,90,0|8,0:0|0:0,0:0:0:0:
200,48,40838,2,0,B|232:80|232:80|232:140,1,90
192,256,41146,1,0,0:0:0:0:
72,312,41300,1,8,0:0:0:0:
96,196,41453,2,0,B|160:168|160:168|200:168,2,90
80,212,41838,1,0,0:0:0:0:
76,232,41915,1,8,0:0:0:0:
232,320,42069,5,0,0:0:0:0:
376,212,42223,1,0,0:0:0:0:
196,212,42377,2,0,B|244:176|244:176|284:176,1,90,0|8,0:0|0:0,0:0:0:0:
456,176,42684,2,0,B|408:140|408:140|368:140,1,90
244,128,42992,1,0,0:0:0:0:
368,76,43146,1,8,0:0:0:0:
268,224,43300,1,0,0:0:0:0:
280,44,43453,1,0,0:0:0:0:
424,148,43607,2,0,B|432:184|432:184|432:240,1,90,0|8,0:0|0:0,0:0:0:0:
268,312,43915,1,0,0:0:0:0:
248,304,43992,1,0,0:0:0:0:
228,292,44069,1,0,0:0:0:0:
212,276,44146,1,0,0:0:0:0:
192,264,44223,2,0,P|132:236|80:248,2,90,0|8|0,0:0|0:0|0:0,0:0:0:0:
368,300,44684,6,0,P|336:252|300:216,1,90
152,148,44992,2,0,P|200:180|236:216,1,90,8|0,0:0|0:0,0:0:0:0:
360,220,45300,1,0,0:0:0:0:
252,144,45453,1,0,0:0:0:0:
432,168,45607,1,8,0:0:0:0:
264,228,45761,1,0,0:0:0:0:
252,56,45915,1,0,0:0:0:0:
232,44,45992,1,0,0:0:0:0:
208,40,46069,2,0,P|156:52|124:80,1,90,0|8,0:0|0:0,0:0:0:0:
296,144,46377,2,0,P|332:172|380:184,1,90
292,296,46684,5,0,0:0:0:0:
172,160,46838,1,8,0:0:0:0:
300,208,46992,1,0,0:0:0:0:
168,240,47146,1,0,0:0:0:0:
304,124,47300,1,0,0:0:0:0:
380,288,47453,2,2,B|376:280|376:280|384:280|384:280|376:272|376:272|384:272|384:272|376:264|376:264|384:264|384:264|376:256|376:256|384:256|384:256|376:248|376:248|384:248|384:248|376:240|376:240|384:240|384:240|376:232|376:232|384:232|384:232|376:224|376:224|384:224|384:224|376:216|376:216|384:216|384:216|376:208|376:208|384:208|384:208|380:200|380:200,1,180,8|0,0:0|0:0,0:0:0:0:
256,192,49607,5,0,0:0:0:0:
140,160,50377,6,0,P|168:112|192:100,2,67.5000025749208
180,252,50838,1,0,0:0:0:0:
256,192,50992,1,0,0:0:0:0:
472,352,51300,1,0,0:0:0:0:
316,132,51607,1,0,0:0:0:0:
104,296,51915,1,0,0:0:0:0:
104,296,52069,1,0,0:0:0:0:
424,192,52838,5,0,0:0:0:0:
372,148,52992,1,0,0:0:0:0:
320,192,53146,1,0,0:0:0:0:
220,280,53300,6,0,P|184:252|168:220,1,67.5000025749208
108,96,53607,2,0,P|144:124|160:156,1,67.5000025749208
72,248,53915,2,0,P|100:212|132:196,1,67.5000025749208
260,132,54223,2,0,P|232:168|200:184,1,67.5000025749208
80,172,54530,5,0,0:0:0:0:
372,192,55300,5,0,0:0:0:0:
372,192,55453,1,0,0:0:0:0:
372,192,55607,1,0,0:0:0:0:
256,260,55761,5,0,0:0:0:0:
256,260,55915,1,0,0:0:0:0:
256,260,56069,1,0,0:0:0:0:
164,160,56223,6,0,P|184:96|220:64,2,101.250003862381
164,160,56838,1,0,0:0:0:0:
444,304,57146,6,0,L|340:304,1,90,0|8,0:0|0:0,0:0:0:0:
68,80,57607,6,0,L|172:80,1,90,8|0,0:0|0:0,0:0:0:0:
444,80,58069,6,0,L|340:80,1,90,0|8,0:0|0:0,0:0:0:0:
68,304,58530,6,0,L|172:304,1,90,0|0,0:0|0:0,0:0:0:0:
256,192,58838,12,0,59453,0:0:0:0:
348,104,59761,5,8,0:0:0:0:
348,104,59838,1,0,0:0:0:0:
348,104,59915,2,0,B|288:76|288:76|244:76,1,90
92,128,60223,2,0,B|152:156|152:156|196:156,1,90,0|8,0:0|0:0,0:0:0:0:
352,188,60530,1,0,0:0:0:0:
360,208,60607,1,0,0:0:0:0:
356,232,60684,2,0,P|320:268|272:276,1,90
104,240,60992,2,0,P|152:204|196:196,1,90,8|0,0:0|0:0,0:0:0:0:
204,196,61223,1,0,0:0:0:0:
224,188,61300,2,0,P|248:132|240:80,1,90
276,280,61607,2,0,P|224:296|164:292,1,90,8|0,0:0|0:0,0:0:0:0:
88,144,61915,5,0,0:0:0:0:
96,124,61992,1,0,0:0:0:0:
116,116,62069,2,0,P|176:116|224:96,1,90,0|8,0:0|0:0,0:0:0:0:
376,56,62377,2,0,P|356:104|328:136,1,90
204,260,62684,2,0,P|224:212|252:180,1,90,0|8,0:0|0:0,0:0:0:0:
384,168,62992,5,0,0:0:0:0:
372,180,63069,1,0,0:0:0:0:
356,188,63146,1,0,0:0:0:0:
176,212,63300,1,0,0:0:0:0:
188,200,63377,1,0,0:0:0:0:
204,192,63454,1,8,0:0:0:0:
368,264,63607,2,0,P|312:256|256:224,1,90
264,108,63915,1,0,0:0:0:0:
136,152,64069,1,8,0:0:0:0:
308,200,64223,1,0,0:0:0:0:
152,48,64377,6,0,P|112:32|56:48,2,90,0|0|8,0:0|0:0|0:0,0:0:0:0:
112,176,64838,2,0,B|88:196|88:196|29:196,1,90
188,248,65146,5,0,0:0:0:0:
260,284,65300,1,8,0:0:0:0:
336,260,65453,1,0,0:0:0:0:
380,192,65607,2,0,B|408:156|408:156|408:100,1,90
280,64,65915,2,0,B|256:96|256:96|256:160,2,90,8|0|0,0:0|0:0|0:0,0:0:0:0:
92,100,66377,5,0,0:0:0:0:
256,168,66530,1,8,0:0:0:0:
120,184,66684,1,0,0:0:0:0:
180,116,66838,1,0,0:0:0:0:
180,116,66915,1,0,0:0:0:0:
180,116,66992,1,0,0:0:0:0:
352,60,67146,2,0,B|368:96|368:96|368:152,1,90,8|0,0:0|0:0,0:0:0:0:
308,316,67453,2,0,B|292:280|292:280|292:224,1,90
312,212,67684,1,0,0:0:0:0:
304,184,67761,1,8,0:0:0:0:
180,116,67915,6,0,P|216:92|268:92,1,90
440,128,68377,2,8,P|404:152|344:148,1,90
164,200,68684,2,8,P|200:224|280:224,1,116.999994644165
440,272,68992,1,8,0:0:0:0:
402,296,69068,1,8,0:0:0:0:
358,297,69146,2,8,P|312:288|212:288,1,144,8|4,0:0|0:0,0:0:0:0:
88,276,69453,5,0,0:0:0:0:
260,216,69607,2,0,P|252:164|232:124,1,90,8|0,0:0|0:0,0:0:0:0:
124,52,69915,1,0,0:0:0:0:
40,212,70069,2,0,P|100:200|156:172,1,90,0|8,0:0|0:0,0:0:0:0:
268,76,70377,1,0,0:0:0:0:
284,92,70453,1,0,0:0:0:0:
300,108,70530,1,0,0:0:0:0:
332,284,70684,1,0,0:0:0:0:
316,268,70760,1,0,0:0:0:0:
300,252,70837,1,8,0:0:0:0:
124,212,70992,2,0,P|144:152|184:128,2,90
208,316,71453,1,8,0:0:0:0:
236,136,71607,1,0,0:0:0:0:
364,176,71761,5,0,0:0:0:0:
348,192,71838,1,0,0:0:0:0:
328,196,71915,2,0,P|268:196|224:180,1,90,0|8,0:0|0:0,0:0:0:0:
68,132,72223,2,0,P|128:132|172:148,1,90
244,240,72530,1,0,0:0:0:0:
200,64,72684,2,0,P|260:64|304:80,1,90,8|0,0:0|0:0,0:0:0:0:
372,108,72992,1,0,0:0:0:0:
332,284,73146,1,0,0:0:0:0:
248,316,73300,2,0,P|200:288|172:252,2,90,8|0|0,0:0|0:0|0:0,0:0:0:0:
268,320,73684,1,0,0:0:0:0:
288,312,73761,1,0,0:0:0:0:
420,188,73915,6,0,B|436:144|436:144|436:96,1,90,8|0,0:0|0:0,0:0:0:0:
312,44,74223,1,0,0:0:0:0:
400,32,74377,1,0,0:0:0:0:
236,100,74530,2,0,B|220:144|220:144|220:192,1,90,8|0,0:0|0:0,0:0:0:0:
380,272,74838,5,0,0:0:0:0:
364,256,74915,1,0,0:0:0:0:
344,248,74992,2,0,P|264:240|224:256,1,90,0|8,0:0|0:0,0:0:0:0:
88,308,75300,2,0,P|80:228|96:188,1,90
152,104,75607,1,0,0:0:0:0:
68,136,75761,1,8,0:0:0:0:
140,192,75915,2,0,P|192:176|248:144,1,90
244,148,76146,1,0,0:0:0:0:
252,128,76223,1,0,0:0:0:0:
424,68,76377,5,8,0:0:0:0:
336,72,76530,2,0,P|360:116|396:144,1,90
300,296,76838,5,0,0:0:0:0:
220,340,76992,2,0,P|192:304|188:260,2,90,8|0|0,0:0|0:0|0:0,0:0:0:0:
156,68,77453,5,8,0:0:0:0:
84,124,77607,2,0,P|120:152|164:156,2,90,0|0|8,0:0|0:0|0:0,0:0:0:0:
248,52,78069,5,8,0:0:0:0:
408,272,78377,1,8,0:0:0:0:
168,148,78684,1,8,0:0:0:0:
168,148,78838,2,0,B|176:144|176:144|176:152|176:152|184:144|184:144|184:152|184:152|192:144|192:144|192:152|192:152|200:144|200:144|200:152|200:152|208:144|208:144|208:152|208:152|216:144|216:144|216:152|216:152|224:144|224:144|224:152|224:152|232:144|232:144|232:152|232:152|240:144|240:144|240:152|240:152|248:144|248:144|248:152|248:152|256:144|256:144|256:152|256:152|264:144|264:144|264:152|264:152|272:144|272:144|272:152|272:152|280:144|280:144|280:152|280:152|288:144|288:144|288:152|288:152|296:144|296:144|296:152|296:152|304:144|304:144|304:152|304:152|312:148,1,315,8|12,0:0|0:0,0:0:0:0:
348,236,88992,5,0,0:0:0:0:
328,248,89069,1,0,0:0:0:0:
304,244,89146,2,0,P|260:208|208:204,1,90,0|8,0:0|0:0,0:0:0:0:
92,316,89453,2,0,P|128:272|132:220,1,90
156,60,89761,2,0,P|192:104|196:156,1,90,0|8,0:0|0:0,0:0:0:0:
228,316,90069,2,0,P|264:272|268:220,1,90
296,104,90377,1,0,0:0:0:0:
424,64,90530,1,8,0:0:0:0:
408,200,90684,2,0,B|404:220|404:220|388:228|388:228|412:240|412:240|368:280|284:284,1,180
280,280,91069,1,0,0:0:0:0:
260,268,91146,1,8,0:0:0:0:
244,252,91223,1,0,0:0:0:0:
228,236,91300,6,0,P|188:208|128:196,1,90
68,140,91607,1,0,0:0:0:0:
232,68,91761,2,0,P|272:40|332:28,1,90,8|0,0:0|0:0,0:0:0:0:
308,112,92069,1,0,0:0:0:0:
188,176,92223,1,0,0:0:0:0:
368,176,92377,1,8,0:0:0:0:
356,44,92530,1,0,0:0:0:0:
276,204,92684,2,0,P|248:248|208:272,1,90
196,272,92915,1,0,0:0:0:0:
172,268,92992,2,0,P|160:212|168:164,2,90,8|0|0,0:0|0:0|0:0,0:0:0:0:
344,320,93453,1,0,0:0:0:0:
252,168,93607,1,8,0:0:0:0:
96,256,93761,2,0,P|108:296|152:332,1,90
164,328,93992,5,0,0:0:0:0:
184,320,94069,1,0,0:0:0:0:
204,308,94146,1,0,0:0:0:0:
220,292,94223,2,0,P|244:232|232:192,1,90,8|0,0:0|0:0,0:0:0:0:
72,140,94530,2,0,P|132:116|172:128,1,90
276,60,94838,1,8,0:0:0:0:
428,156,94992,2,0,P|408:200|360:220,1,90
344,132,95300,1,0,0:0:0:0:
180,208,95453,2,0,P|248:196|284:176,2,90,8|0|0,0:0|0:0|0:0,0:0:0:0:
340,296,95915,5,0,0:0:0:0:
160,276,96069,1,8,0:0:0:0:
236,228,96223,1,0,0:0:0:0:
64,284,96377,1,0,0:0:0:0:
156,188,96530,1,0,0:0:0:0:
260,336,96684,1,8,0:0:0:0:
368,188,98838,5,0,0:0:0:0:
356,208,98915,1,0,0:0:0:0:
336,220,98992,2,0,P|288:236|236:228,1,90,0|8,0:0|0:0,0:0:0:0:
236,216,99223,1,0,0:0:0:0:
220,200,99300,2,0,P|164:168|112:168,1,90
300,80,99607,2,0,P|356:112|408:112,2,90,0|8|0,0:0|0:0|0:0,0:0:0:0:
280,68,99992,1,0,0:0:0:0:
256,68,100069,1,0,0:0:0:0:
112,176,100223,2,0,P|156:144|192:88,1,90,0|8,0:0|0:0,0:0:0:0:
400,176,100530,2,0,P|356:144|320:88,1,90
256,164,100838,1,0,0:0:0:0:
408,260,100992,1,8,0:0:0:0:
272,248,101146,1,0,0:0:0:0:
372,100,101300,6,0,B|336:128|336:128|336:140|336:140|300:168|300:168|300:180|300:180|244:220,1,180,0|8,0:0|0:0,0:0:0:0:
224,216,101684,1,0,0:0:0:0:
204,204,101761,1,0,0:0:0:0:
88,64,101915,2,0,P|152:64|204:80,1,90
340,148,102223,2,0,P|276:148|224:132,1,90,8|0,0:0|0:0,0:0:0:0:
116,148,102530,1,0,0:0:0:0:
256,32,102684,1,0,0:0:0:0:
240,152,102838,1,8,0:0:0:0:
400,92,102992,2,0,B|404:104|404:104|412:96|412:96|404:112|404:112|412:104|412:104|404:120|404:120|412:112|412:112|400:128|400:128|408:124|408:124|396:136|396:136|404:132|404:132|392:144|392:144|400:140|400:140|388:152|388:152|396:148|396:148|392:160|392:160,1,180
252,268,103453,5,8,0:0:0:0:
428,224,103607,1,0,0:0:0:0:
252,268,103761,6,0,P|192:280|136:268,1,90
144,264,103992,1,0,0:0:0:0:
132,244,104069,1,8,0:0:0:0:
192,76,104223,1,0,0:0:0:0:
208,92,104300,1,0,0:0:0:0:
212,112,104377,2,0,P|216:168|240:196,1,90
408,140,104684,2,0,P|356:140|312:152,1,90,8|0,0:0|0:0,0:0:0:0:
196,204,104992,1,0,0:0:0:0:
320,76,105146,1,0,0:0:0:0:
340,164,105300,1,8,0:0:0:0:
236,80,105453,1,0,0:0:0:0:
212,76,105530,1,0,0:0:0:0:
188,76,105607,6,0,P|144:100|124:140,1,90
208,296,105915,2,0,P|252:272|272:232,1,90,8|0,0:0|0:0,0:0:0:0:
324,64,106223,2,0,P|368:88|388:128,1,90,0|0,0:0|0:0,0:0:0:0:
408,300,106530,2,0,P|452:276|472:236,1,90,8|0,0:0|0:0,0:0:0:0:
296,192,106838,6,0,P|272:236|232:256,1,90,0|0,0:0|0:0,0:0:0:0:
216,252,107069,1,0,0:0:0:0:
196,240,107146,1,8,0:0:0:0:
328,116,107300,2,0,P|372:140|392:180,1,90,0|0,0:0|0:0,0:0:0:0:
388,196,107531,1,0,0:0:0:0:
376,216,107608,1,0,0:0:0:0:
256,152,107761,6,0,P|248:96|224:64,1,90
96,56,108069,1,0,0:0:0:0:
48,168,108223,1,8,0:0:0:0:
60,304,108377,1,8,0:0:0:0:
236,268,108530,6,0,P|284:228|304:184,1,90,8|0,0:0|0:0,0:0:0:0:
304,192,108761,1,0,0:0:0:0:
304,176,108838,1,0,0:0:0:0:
292,76,108992,2,0,P|264:104|252:148,1,67.5000025749208
356,128,109300,2,0,P|384:156|428:168,1,67.5000025749208
428,168,109530,5,0,0:0:0:0:
440,180,109607,2,0,P|432:224|400:264,1,67.5000025749208
316,328,109915,2,0,P|324:284|356:244,1,67.5000025749208
396,184,110223,1,0,0:0:0:0:
344,96,110377,1,0,0:0:0:0:
256,148,110530,1,0,0:0:0:0:
304,236,110684,2,0,P|244:268|176:256,1,135.000005149842
112,140,111146,1,0,0:0:0:0:
176,64,111300,6,0,L|248:48,1,67.5000025749208
368,92,111607,2,0,L|296:108,1,67.5000025749208
216,212,111915,5,0,0:0:0:0:
232,220,111992,1,0,0:0:0:0:
248,228,112069,2,0,P|284:236|320:232,1,67.5000025749208
424,152,112377,2,0,L|352:196,1,67.5000025749208
308,308,112684,2,0,L|380:264,1,67.5000025749208
344,140,112992,1,0,0:0:0:0:
256,104,113146,1,0,0:0:0:0:
216,184,113300,1,0,0:0:0:0:
308,228,113453,1,0,0:0:0:0:
392,124,113607,2,0,B|380:120|380:120|380:128|380:128|372:120|372:120|372:128|372:128|364:120|364:120|364:128|364:128|356:120|356:120|356:128|356:128|348:120|348:120|348:128|348:128|340:120|340:120|340:128|340:128|332:120|332:120|332:128|332:128|324:124|324:124,1,135.000005149842
176,256,114377,5,0,0:0:0:0:
160,248,114453,1,0,0:0:0:0:
152,236,114530,2,0,P|136:200|140:156,1,67.5000025749208
208,56,114838,2,0,P|224:92|220:136,1,67.5000025749208
220,136,115069,1,0,0:0:0:0:
220,152,115146,1,0,0:0:0:0:
268,296,115300,2,0,P|312:280|340:240,1,90
380,72,115761,1,0,0:0:0:0:
260,204,115915,1,0,0:0:0:0:
424,312,116223,6,0,P|400:272|356:268,1,90,8|8,0:0|0:0,0:0:0:0:
64,60,116684,6,0,P|88:100|132:104,1,90,8|8,0:0|0:0,0:0:0:0:
424,72,117146,6,0,P|400:112|356:116,1,90,8|8,0:0|0:0,0:0:0:0:
88,312,117607,6,0,P|112:272|156:268,1,90
328,316,117915,1,0,0:0:0:0:
400,152,118069,1,0,0:0:0:0:
284,28,118223,2,0,B|188:12|128:56|128:56|164:124,1,233.999989288331,0|4,0:0|0:0,0:0:0:0:
288,172,118684,5,0,0:0:0:0:
296,192,118761,1,0,0:0:0:0:
292,216,118838,2,0,P|256:252|204:256,1,90,8|0,0:0|0:0,0:0:0:0:
56,180,119146,2,0,P|120:160|152:136,1,90
292,56,119453,1,8,0:0:0:0:
116,92,119607,2,0,P|160:128|208:136,1,90
212,140,119838,1,0,0:0:0:0:
232,136,119915,2,0,P|280:108|328:104,1,90,0|8,0:0|0:0,0:0:0:0:
332,112,120146,1,0,0:0:0:0:
344,132,120223,2,0,P|368:188|408:216,1,90
268,268,120530,1,0,0:0:0:0:
444,240,120684,1,8,0:0:0:0:
376,296,120838,1,0,0:0:0:0:
248,172,120992,6,0,B|228:156|228:156|204:152|204:152|204:128|204:128|184:112|184:112|152:112|152:112|104:140,1,180,0|8,0:0|0:0,0:0:0:0:
76,312,121453,2,0,P|112:272|132:216,1,90
136,216,121684,1,0,0:0:0:0:
128,196,121761,1,0,0:0:0:0:
112,180,121838,1,0,0:0:0:0:
100,160,121915,2,0,P|108:104|164:80,1,90,8|0,0:0|0:0,0:0:0:0:
312,64,122223,2,0,L|232:112,1,90
204,288,122530,1,8,0:0:0:0:
272,232,122684,1,0,0:0:0:0:
148,100,122838,1,0,0:0:0:0:
276,148,122992,1,0,0:0:0:0:
96,164,123146,6,0,B|112:176|112:176|128:172|128:172|136:192|136:192|164:188|164:188|184:208|184:208|216:200|232:180,1,135.000005149842,8|0,0:0|0:0,0:0:0:0:
356,108,123453,2,0,P|312:144|264:160,1,90
204,108,123761,1,8,0:0:0:0:
360,196,123915,1,0,0:0:0:0:
188,256,124069,2,0,P|248:244|292:224,1,90
296,224,124300,1,0,0:0:0:0:
308,204,124377,1,8,0:0:0:0:
220,48,124530,2,0,P|216:104|244:136,1,90
416,116,124838,2,0,P|360:112|328:140,1,90,0|8,0:0|0:0,0:0:0:0:
292,308,125146,2,0,P|296:252|268:220,1,90
188,248,125453,1,0,0:0:0:0:
364,204,125607,1,8,0:0:0:0:
192,152,125761,1,0,0:0:0:0:
284,236,125915,6,0,B|288:248|288:248|296:240|296:240|288:252|288:252|296:244|296:244|288:256|288:256|296:256|296:256|288:268|288:268|296:252|296:252|288:264|288:264|296:268|296:268|296:276|296:276|380:316|436:240,1,270.000010299683,0|8,0:0|0:0,0:0:0:0:
360,136,126377,1,0,0:0:0:0:
208,228,126530,1,0,0:0:0:0:
296,72,126684,2,0,P|244:64|184:72,1,90,0|8,0:0|0:0,0:0:0:0:
184,68,126915,1,0,0:0:0:0:
164,80,126992,1,0,0:0:0:0:
100,248,127146,2,0,P|160:212|184:176,1,90
180,176,127377,1,0,0:0:0:0:
176,156,127453,1,8,0:0:0:0:
356,136,127607,2,0,P|296:172|272:208,1,90
276,208,127838,1,0,0:0:0:0:
272,228,127914,1,8,0:0:0:0:
280,248,127992,1,8,0:0:0:0:
292,264,128069,1,8,0:0:0:0:
312,268,128146,1,8,0:0:0:0:
336,264,128223,1,8,0:0:0:0:
156,280,128377,6,0,L|156:92,2,135.000005149842,0|0|8,0:0|0:0|0:0,0:0:0:0:
292,48,128838,1,0,0:0:0:0:
296,72,128915,1,0,0:0:0:0:
284,92,128992,2,0,P|248:124|240:172,1,90
292,336,129300,2,0,P|328:304|336:256,1,90,8|0,0:0|0:0,0:0:0:0:
328,244,129530,1,0,0:0:0:0:
308,232,129607,2,0,P|240:228|208:200,1,90
200,212,129838,1,0,0:0:0:0:
192,192,129915,2,0,P|220:144|272:120,1,90,8|0,0:0|0:0,0:0:0:0:
340,136,130223,1,0,0:0:0:0:
160,120,130377,1,0,0:0:0:0:
268,180,130530,1,8,0:0:0:0:
88,172,130684,1,0,0:0:0:0:
252,100,130838,5,0,0:0:0:0:
272,88,130915,1,0,0:0:0:0:
288,72,130992,2,0,P|336:48|400:52,1,90,0|8,0:0|0:0,0:0:0:0:
388,60,131223,1,0,0:0:0:0:
404,76,131300,2,0,P|420:124|412:168,1,90
276,280,131607,2,0,P|336:252|376:208,2,90,0|8|0,0:0|0:0|0:0,0:0:0:0:
252,280,131992,5,0,0:0:0:0:
232,272,132069,1,0,0:0:0:0:
104,144,132223,1,0,0:0:0:0:
124,148,132300,1,0,0:0:0:0:
144,160,132377,1,8,0:0:0:0:
324,168,132530,1,0,0:0:0:0:
304,160,132607,1,0,0:0:0:0:
284,148,132684,1,0,0:0:0:0:
272,128,132761,1,0,0:0:0:0:
264,108,132838,1,0,0:0:0:0:
272,88,132915,1,0,0:0:0:0:
288,72,132992,6,0,P|352:80|404:120,1,90,8|0,0:0|0:0,0:0:0:0:
288,312,133300,2,0,P|352:304|404:264,1,90
224,192,133607,2,0,L|400:192,2,135.000005149842,8|0|0,0:0|0:0|0:0,0:0:0:0:
76,88,134069,5,0,0:0:0:0:
64,108,134146,1,0,0:0:0:0:
60,128,134223,2,0,P|68:192|96:208,1,90,8|0,0:0|0:0,0:0:0:0:
256,256,134530,2,0,P|248:192|220:176,1,90
140,188,134838,2,0,P|148:252|176:268,1,90,8|0,0:0|0:0,0:0:0:0:
188,264,135069,1,0,0:0:0:0:
208,252,135146,2,0,P|252:212|312:200,1,90
452,196,135453,5,8,0:0:0:0:
396,124,135607,2,0,P|356:92|312:72,2,90
296,276,136069,1,8,0:0:0:0:
116,252,136223,6,0,P|84:192|84:148,2,90
176,184,136684,1,8,0:0:0:0:
312,64,136838,1,0,0:0:0:0:
400,88,136992,2,0,P|372:124|324:144,1,90,0|8,0:0|0:0,0:0:0:0:
308,144,137223,1,0,0:0:0:0:
288,136,137300,1,0,0:0:0:0:
116,92,137453,6,0,P|152:120|172:168,1,90,8|0,0:0|0:0,0:0:0:0:
120,288,137761,1,8,0:0:0:0:
312,308,137915,1,8,0:0:0:0:
360,112,138223,1,4,0:0:0:0:
256,192,147761,5,8,0:0:0:0:
112,84,148069,5,4,0:0:0:0:
96,100,148146,1,0,0:0:0:0:
92,120,148223,2,0,P|112:168|156:184,1,90,0|8,0:0|0:0,0:0:0:0:
308,104,148530,2,0,P|360:80|420:84,2,90
216,260,148992,1,8,0:0:0:0:
236,252,149069,1,0,0:0:0:0:
252,236,149146,2,0,P|280:172|284:132,1,90
272,132,149377,1,0,0:0:0:0:
252,120,149453,2,0,P|184:120|128:152,1,90,0|8,0:0|0:0,0:0:0:0:
120,304,149761,1,0,0:0:0:0:
260,188,149915,5,0,0:0:0:0:
424,116,150069,1,0,0:0:0:0:
332,272,150223,1,8,0:0:0:0:
316,92,150377,1,0,0:0:0:0:
184,84,150530,5,0,0:0:0:0:
184,84,150607,1,0,0:0:0:0:
184,84,150684,2,0,P|140:136|136:176,1,90,0|8,0:0|0:0,0:0:0:0:
132,176,150915,1,0,0:0:0:0:
132,200,150992,2,0,P|192:208|240:188,1,90
380,116,151300,1,0,0:0:0:0:
296,272,151453,2,0,P|304:212|284:152,1,90,8|0,0:0|0:0,0:0:0:0:
220,136,151761,1,0,0:0:0:0:
384,216,151915,1,0,0:0:0:0:
236,320,152069,2,0,B|188:332|160:308|160:308|172:292,1,90,8|0,0:0|0:0,0:0:0:0:
304,184,152377,5,0,0:0:0:0:
328,176,152453,1,0,0:0:0:0:
352,168,152530,1,0,0:0:0:0:
376,156,152607,1,0,0:0:0:0:
400,144,152684,1,8,0:0:0:0:
412,120,152761,1,0,0:0:0:0:
412,92,152838,1,0,0:0:0:0:
400,68,152915,1,0,0:0:0:0:
376,56,152992,1,0,0:0:0:0:
196,68,153146,6,0,B|172:84|172:84|160:104|160:104|112:140,1,90,0|8,0:0|0:0,0:0:0:0:
76,252,153453,1,0,0:0:0:0:
224,148,153607,2,0,P|272:176|296:216,1,90
112,176,153915,2,0,P|64:148|40:108,1,90,8|0,0:0|0:0,0:0:0:0:
48,96,154146,1,0,0:0:0:0:
68,84,154223,1,0,0:0:0:0:
248,84,154377,1,0,0:0:0:0:
264,100,154453,1,0,0:0:0:0:
276,120,154530,2,0,P|308:176|344:196,1,90,8|0,0:0|0:0,0:0:0:0:
492,108,154838,5,0,0:0:0:0:
388,256,154992,1,0,0:0:0:0:
396,168,155146,1,8,0:0:0:0:
232,244,155300,2,0,P|184:240|156:200,1,90
156,188,155530,5,0,0:0:0:0:
160,168,155607,1,0,0:0:0:0:
320,84,155761,2,0,P|284:120|240:136,1,90,8|0,0:0|0:0,0:0:0:0:
68,140,156069,2,0,P|104:104|148:88,1,90
164,88,156300,1,0,0:0:0:0:
184,92,156377,1,8,0:0:0:0:
332,192,156530,2,0,B|384:192|384:192|440:176,1,90
248,244,156838,6,0,B|196:244|196:244|140:228,1,90,0|8,0:0|0:0,0:0:0:0:
332,284,157146,6,8,B|384:284|384:284|440:268,1,90
436,256,157377,1,8,0:0:0:0:
448,236,157453,1,8,0:0:0:0:
448,212,157530,1,8,0:0:0:0:
444,192,157607,1,8,0:0:0:0:
432,172,157684,1,8,0:0:0:0:
416,156,157761,1,8,0:0:0:0:
396,144,157838,1,8,0:0:0:0:
376,140,157915,1,8,0:0:0:0:
352,140,157992,2,0,L|320:144,11,22.5
340,160,158530,2,0,L|328:176,19,11.25
116,120,167607,6,0,P|164:96|220:96,1,90,2|0,0:0|0:0,0:0:0:0:
320,136,168069,2,0,P|272:136|244:152,1,62.9999980773926,2|0,0:0|0:0,0:0:0:0:
128,268,168377,2,0,P|172:224|216:208,1,90,2|0,0:0|0:0,0:0:0:0:
428,236,168684,2,0,P|356:232|292:252,1,116.999994644165,2|0,0:0|0:0,0:0:0:0:
84,192,168992,5,4,0:0:0:0:
104,212,169069,1,0,0:0:0:0:
132,216,169146,2,0,P|192:200|236:160,1,116.999994644165,0|8,0:0|0:0,0:0:0:0:
372,56,169453,1,0,0:0:0:0:
348,232,169607,2,0,P|332:156|344:96,1,116.999994644165
252,272,169915,1,8,0:0:0:0:
252,244,169992,1,0,0:0:0:0:
240,216,170069,1,0,0:0:0:0:
388,120,170223,1,0,0:0:0:0:
388,148,170300,1,0,0:0:0:0:
400,176,170377,2,0,P|404:240|364:296,1,116.999994644165,0|8,0:0|0:0,0:0:0:0:
144,280,170684,2,0,P|140:216|180:160,1,116.999994644165
372,56,170992,5,0,0:0:0:0:
196,80,171146,1,8,0:0:0:0:
424,132,171300,1,0,0:0:0:0:
264,300,171453,1,0,0:0:0:0:
248,276,171530,1,0,0:0:0:0:
220,272,171607,2,0,P|160:264|108:216,1,116.999994644165,0|8,0:0|0:0,0:0:0:0:
336,148,171915,2,0,P|276:156|224:204,1,116.999994644165
460,256,172223,2,0,P|452:196|404:144,1,116.999994644165,0|8,0:0|0:0,0:0:0:0:
276,112,172530,2,0,P|212:100|168:64,1,116.999994644165
148,52,172761,1,0,0:0:0:0:
120,48,172838,2,0,B|64:92|64:92|64:156,1,116.999994644165,0|8,0:0|0:0,0:0:0:0:
72,168,173069,1,0,0:0:0:0:
96,184,173146,2,0,P|176:200|228:184,1,116.999994644165
420,92,173453,6,0,P|360:120|320:168,1,116.999994644165,0|8,0:0|0:0,0:0:0:0:
464,268,173761,2,0,P|416:232|396:172,1,116.999994644165
384,152,173992,1,0,0:0:0:0:
364,132,174069,1,0,0:0:0:0:
128,132,174223,2,0,P|196:144|272:132,2,116.999994644165,8|0|0,0:0|0:0|0:0,0:0:0:0:
324,260,174684,5,0,0:0:0:0:
296,268,174761,1,0,0:0:0:0:
268,268,174838,1,8,0:0:0:0:
240,260,174915,1,0,0:0:0:0:
216,240,174992,2,0,P|160:208|108:200,2,116.999994644165
436,316,175453,2,0,B|456:256|456:256|456:180,1,116.999994644165,8|0,0:0|0:0,0:0:0:0:
344,64,175761,5,0,0:0:0:0:
344,64,175838,1,0,0:0:0:0:
344,64,175915,2,0,P|288:112|220:108,1,116.999994644165,0|8,0:0|0:0,0:0:0:0:
76,156,176223,1,0,0:0:0:0:
308,140,176377,2,0,B|352:180|352:180|352:240,1,116.999994644165
332,260,176607,1,0,0:0:0:0:
304,268,176684,1,8,0:0:0:0:
68,272,176838,2,0,P|128:240|196:240,1,116.999994644165
412,232,177146,2,0,P|352:264|284:264,1,116.999994644165,0|8,0:0|0:0,0:0:0:0:
144,96,177453,6,0,B|180:120|180:120|260:120,1,116.999994644165
368,144,177761,1,0,0:0:0:0:
152,168,177915,6,0,B|195:164|195:164|258:115,1,116.999994644165,8|8,0:0|0:0,0:0:0:0:
358,67,178223,1,0,0:0:0:0:
208,220,178377,6,8,B|238:189|238:189|255:111,1,116.999994644165
299,9,178685,1,8,0:0:0:0:
300,184,178838,5,4,0:0:0:0:
320,204,178915,1,0,0:0:0:0:
348,216,178992,2,0,P|400:232|440:280,1,116.999994644165,0|8,0:0|0:0,0:0:0:0:
204,288,179300,2,0,P|152:272|112:224,1,116.999994644165
240,104,179607,1,0,0:0:0:0:
64,256,179761,2,0,P|108:204|160:164,1,116.999994644165,8|0,0:0|0:0,0:0:0:0:
368,92,180069,2,0,P|324:144|272:184,1,116.999994644165
260,188,180300,1,0,0:0:0:0:
232,196,180377,1,8,0:0:0:0:
124,156,180530,1,0,0:0:0:0:
352,212,180684,1,0,0:0:0:0:
336,236,180761,1,0,0:0:0:0:
316,256,180838,2,0,P|252:276|192:276,1,116.999994644165,0|8,0:0|0:0,0:0:0:0:
52,184,181146,2,0,B|128:184|128:184|180:156,1,116.999994644165
188,148,181377,5,0,0:0:0:0:
212,132,181453,1,0,0:0:0:0:
444,176,181607,2,0,P|384:120|320:104,1,116.999994644165,8|0,0:0|0:0,0:0:0:0:
120,64,181915,2,0,P|180:120|244:136,1,116.999994644165
376,224,182223,1,8,0:0:0:0:
224,44,182377,1,0,0:0:0:0:
340,44,182530,2,0,B|304:88|304:88|304:152,1,116.999994644165
316,176,182761,1,0,0:0:0:0:
320,204,182838,1,8,0:0:0:0:
100,280,182992,2,0,P|192:296|240:276,2,116.999994644165
120,164,183453,5,8,0:0:0:0:
212,92,183607,1,0,0:0:0:0:
380,140,183761,2,0,P|332:96|272:76,1,116.999994644165
52,44,184069,2,0,P|100:88|160:108,1,116.999994644165,8|0,0:0|0:0,0:0:0:0:
340,240,184377,1,0,0:0:0:0:
320,216,184453,1,0,0:0:0:0:
292,204,184530,2,0,P|224:188|168:200,1,116.999994644165,0|8,0:0|0:0,0:0:0:0:
56,324,184838,2,0,B|88:284|88:284|88:204,1,116.999994644165
188,72,185146,2,0,B|156:112|156:112|156:192,2,116.999994644165,0|8|0,0:0|0:0|0:0,0:0:0:0:
360,100,185607,1,0,0:0:0:0:
332,112,185684,1,0,0:0:0:0:
304,112,185761,6,0,B|236:112|236:112|184:140,1,116.999994644165,0|8,0:0|0:0,0:0:0:0:
144,304,186069,1,0,0:0:0:0:
364,220,186223,6,0,B|296:220|296:220|244:192,1,116.999994644165
464,100,186530,1,8,0:0:0:0:
260,212,186684,6,0,B|260:144|260:144|288:92,1,116.999994644165
440,276,186992,1,8,0:0:0:0:
264,124,187146,6,0,B|332:124|332:124|384:152,1,116.999994644165
160,240,187453,1,8,0:0:0:0:
384,176,187607,6,0,B|384:108|384:108|356:56,1,116.999994644165
248,272,187915,1,8,0:0:0:0:
340,56,188069,6,0,B|272:56|272:56|220:84,1,116.999994644165,0|8,0:0|0:0,0:0:0:0:
436,192,188377,1,0,0:0:0:0:
220,112,188530,6,0,B|152:112|152:112|100:84,2,116.999994644165
396,92,188992,1,8,0:0:0:0:
200,220,189146,1,0,0:0:0:0:
432,240,189300,1,0,0:0:0:0:
340,168,189453,1,8,0:0:0:0:
156,312,189607,1,0,0:0:0:0:
256,100,189761,1,0,0:0:0:0:
276,216,189915,1,8,0:0:0:0:
40,224,190069,6,0,L|156:224,1,116.999994644165
392,224,190377,2,0,L|268:224,1,116.999994644165
116,148,190684,1,0,0:0:0:0:
148,132,190761,1,0,0:0:0:0:
184,140,190838,2,0,B|208:164|208:164|232:160|232:160|244:192|244:192|276:176|276:176|288:212|288:212|336:192|336:192|380:224|380:224,1,270.000010299683,0|4,0:0|0:0,0:0:0:0:
116,288,191453,5,8,0:0:0:0:
132,272,191530,1,0,0:0:0:0:
132,248,191607,2,0,P|144:192|180:172,1,90
336,104,191915,2,0,P|324:160|288:180,1,90,0|8,0:0|0:0,0:0:0:0:
144,88,192223,2,0,L|256:88,1,90
396,168,192530,1,0,0:0:0:0:
376,180,192607,1,0,0:0:0:0:
352,184,192684,2,0,L|248:184,1,90,8|0,0:0|0:0,0:0:0:0:
88,232,192992,5,0,0:0:0:0:
228,120,193146,1,0,0:0:0:0:
140,140,193300,1,8,0:0:0:0:
316,176,193453,1,0,0:0:0:0:
176,288,193607,6,0,L|272:264,1,90,0|0,0:0|0:0,0:0:0:0:
284,256,193838,1,0,0:0:0:0:
300,240,193915,1,8,0:0:0:0:
356,68,194069,2,0,P|316:128|300:176,1,90
392,252,194377,1,0,0:0:0:0:
224,188,194530,1,8,0:0:0:0:
396,140,194684,2,0,P|344:144|296:120,1,90
196,56,194992,1,0,0:0:0:0:
144,228,195146,1,8,0:0:0:0:
272,104,195300,1,0,0:0:0:0:
100,156,195453,1,0,0:0:0:0:
84,172,195530,1,0,0:0:0:0:
72,192,195607,1,0,0:0:0:0:
68,216,195684,1,0,0:0:0:0:
68,240,195761,1,8,0:0:0:0:
80,260,195838,1,0,0:0:0:0:
100,272,195915,1,0,0:0:0:0:
120,284,195992,1,0,0:0:0:0:
144,288,196069,1,0,0:0:0:0:
444,88,196377,5,8,0:0:0:0:
424,84,196453,1,0,0:0:0:0:
404,92,196530,2,0,P|368:140|316:156,1,90
164,120,196838,2,0,P|244:120|280:128,1,90,0|8,0:0|0:0,0:0:0:0:
420,192,197146,2,0,P|340:192|304:184,1,90
308,180,197377,1,0,0:0:0:0:
288,176,197453,2,8,P|220:196|184:232,1,90
148,276,197761,1,0,0:0:0:0:
328,256,197915,1,0,0:0:0:0:
248,96,198069,1,0,0:0:0:0:
336,108,198223,1,8,0:0:0:0:
156,80,198377,1,0,0:0:0:0:
236,240,198530,5,0,0:0:0:0:
240,260,198607,1,0,0:0:0:0:
244,280,198684,2,0,P|300:300|352:284,1,90,0|8,0:0|0:0,0:0:0:0:
460,172,198992,2,0,L|384:252,1,90
284,164,199300,1,0,0:0:0:0:
372,168,199453,1,8,0:0:0:0:
192,160,199607,2,0,P|128:140|84:104,1,90
276,56,199915,2,0,P|212:76|168:112,1,90,0|8,0:0|0:0,0:0:0:0:
364,144,200223,5,8,0:0:0:0:
344,136,200300,1,0,0:0:0:0:
324,124,200377,1,8,0:0:0:0:
304,112,200453,1,0,0:0:0:0:
284,104,200530,1,8,0:0:0:0:
260,104,200607,1,8,0:0:0:0:
240,112,200684,1,8,0:0:0:0:
224,124,200761,1,8,0:0:0:0:
212,140,200838,1,8,0:0:0:0:
200,160,200915,1,8,0:0:0:0:
188,180,200992,1,8,0:0:0:0:
440,280,201300,6,0,L|484:288,2,45,8|0|0,0:0|0:0|0:0,0:0:0:0:
308,248,201607,2,0,L|264:256,2,45
432,192,201915,1,8,0:0:0:0:
260,140,202069,1,0,0:0:0:0:
436,96,202223,1,0,0:0:0:0:
360,144,202377,1,0,0:0:0:0:
192,84,202530,2,0,B|164:132|164:132|164:192,1,90,8|0,0:0|0:0,0:0:0:0:
276,308,202838,5,0,0:0:0:0:
292,296,202915,1,0,0:0:0:0:
308,280,202992,1,0,0:0:0:0:
132,252,203146,5,8,0:0:0:0:
116,264,203223,1,0,0:0:0:0:
100,280,203300,1,0,0:0:0:0:
256,192,203453,6,0,L|336:120,2,90,0|0|8,0:0|0:0|0:0,0:0:0:0:
240,208,203838,1,0,0:0:0:0:
224,224,203915,1,0,0:0:0:0:
48,196,204069,2,0,P|136:192|164:208,1,90
312,232,204377,1,8,0:0:0:0:
168,128,204530,1,0,0:0:0:0:
328,48,204684,2,0,B|352:96|352:96|352:144,1,90
220,168,204992,1,8,0:0:0:0:
400,192,205146,2,0,B|360:224|360:224|296:224,1,90
300,224,205377,5,0,0:0:0:0:
280,220,205453,1,0,0:0:0:0:
256,220,205530,1,0,0:0:0:0:
236,228,205607,1,8,0:0:0:0:
216,236,205684,1,0,0:0:0:0:
196,240,205761,1,0,0:0:0:0:
172,240,205838,1,0,0:0:0:0:
152,232,205915,1,0,0:0:0:0:
388,100,206223,5,8,0:0:0:0:
404,116,206300,1,0,0:0:0:0:
412,136,206377,1,0,0:0:0:0:
236,164,206530,5,0,0:0:0:0:
252,148,206607,1,0,0:0:0:0:
272,140,206684,2,0,B|312:164|312:164|368:164,1,90,0|8,0:0|0:0,0:0:0:0:
248,312,206992,2,0,P|192:296|160:244,1,90
312,160,207300,2,0,P|296:216|244:248,1,90,0|8,0:0|0:0,0:0:0:0:
116,152,207607,2,0,P|172:168|204:220,1,90
304,268,207915,1,0,0:0:0:0:
228,104,208069,1,8,0:0:0:0:
316,96,208223,1,0,0:0:0:0:
196,228,208377,1,0,0:0:0:0:
196,228,208453,1,0,0:0:0:0:
196,228,208530,1,0,0:0:0:0:
372,192,208684,6,0,B|392:156|392:156|392:100,1,90,8|0,0:0|0:0,0:0:0:0:
216,156,208992,2,0,B|272:156|272:156|316:132,1,90
404,52,209300,1,8,0:0:0:0:
296,196,209453,1,0,0:0:0:0:
276,208,209530,1,0,0:0:0:0:
268,228,209607,2,0,B|248:256|240:288|200:292,1,90
44,216,209915,2,0,P|96:232|168:228,1,90,8|0,0:0|0:0,0:0:0:0:
332,128,210223,6,8,P|372:104|428:104,1,90
180,256,210530,2,8,P|140:280|84:280,1,90
