osu file format v14

[General]
AudioFilename: Otsukimi Recital.mp3
AudioLeadIn: 2000
PreviewTime: 70610
Countdown: 0
SampleSet: Soft
StackLeniency: 0.7
Mode: 0
LetterboxInBreaks: 1
WidescreenStoryboard: 0

[Editor]
Bookmarks: 100768
DistanceSpacing: 1
BeatDivisor: 4
GridSize: 4
TimelineZoom: 1

[Metadata]
Title:Otsukimi Recital
TitleUnicode:オツキミリサイタル
Artist:Jin
ArtistUnicode:じん
Creator:leon1341414
Version:Easy
Source:
Tags:ShizennotekiP Kagarou project IA Vocaloid3 自然の敵p ShiauKe カゲロウプロジェクト わんにゃんぷー
BeatmapID:276289
BeatmapSetID:104109

[Difficulty]
HPDrainRate:2
CircleSize:3
OverallDifficulty:2
ApproachRate:3
SliderMultiplier:0.8
SliderTickRate:1

[Events]
//Background and Video events
Video,0,"Otsukimi Recital.avi"
0,0,"BG.jpg",0,0
//Break Periods
2,15434,18098
2,91430,99021
2,152506,156251
//Storyboard Layer 0 (Background)
//Storyboard Layer 1 (Fail)
//Storyboard Layer 2 (Pass)
//Storyboard Layer 3 (Foreground)
//Storyboard Sound Samples

[TimingPoints]
235,545.454545454546,4,2,1,20,1,0
5689,-100,4,2,1,25,0,0
6780,-100,4,2,1,30,0,0
14689,-100,4,2,1,35,0,0
19385,307.692307692308,4,2,1,15,1,0
19538,307.692307692308,4,2,1,60,1,0
29384,-100,4,2,1,80,0,0
39845,-100,4,2,1,70,0,0
71230,-100,4,2,1,80,0,1
90922,-100,4,2,1,70,0,0
100768,-100,4,2,1,60,0,0
108153,-100,4,2,1,70,0,0
132768,-100,4,2,1,80,0,1
152461,-100,4,2,1,70,0,0
171538,-100,4,2,1,50,0,0
172768,-100,4,2,1,70,0,0
174614,-100,4,2,1,80,0,1
194614,-100,4,2,1,70,0,0
214307,-100,4,2,0,60,0,0

[Colours]
Combo1 : 115,124,208
Combo2 : 252,130,48
Combo3 : 247,231,34
Combo4 : 116,191,237

[HitObjects]
112,176,235,1,0,0:0:0:0:
164,116,780,1,0,0:0:0:0:
240,92,1325,2,0,P|280:84|320:96,2,80
276,164,2962,1,0,0:0:0:0:
304,240,3507,2,0,P|328:280|368:300,1,80,2|0,0:0|0:0,0:0:0:0:
384,220,4598,6,0,P|424:196|440:156,1,80,0|8,0:0|0:0,0:0:0:0:
444,88,5689,2,0,L|364:88,1,80,0|8,0:0|0:0,0:0:0:0:
284,104,6780,2,0,P|252:128|204:132,1,80,0|8,0:0|0:0,0:0:0:0:
132,124,7871,1,0,0:0:0:0:
84,188,8416,2,0,L|112:264,1,80,8|2,0:0|0:0,0:0:0:0:
180,308,9507,6,0,P|252:324|336:308,1,160,8|8,0:0|0:0,0:0:0:0:
432,236,11416,1,0,0:0:0:0:
356,140,12235,2,0,P|324:116|284:104,1,80,0|8,0:0|0:0,0:0:0:0:
208,104,13325,6,0,P|192:160|144:200,1,120
68,220,14689,2,0,P|88:256|124:276,1,80
100,92,19538,6,0,P|144:84|184:88,1,80,4|8,0:0|0:0,0:0:0:0:
336,112,20461,1,8,0:0:0:0:
208,208,21076,1,8,0:0:0:0:
364,236,21691,5,8,0:0:0:0:
236,336,22307,1,8,0:0:0:0:
108,244,22922,2,0,B|92:208|104:172|104:172|104:124,1,120,8|2,0:0|0:0,0:0:0:0:
124,48,23691,2,0,L|208:48,1,80,2|2,0:0|0:0,0:0:0:0:
296,128,24461,6,0,L|384:148,1,80,4|4,0:0|0:0,0:0:0:0:
456,284,25384,1,8,0:0:0:0:
308,224,25999,1,8,0:0:0:0:
172,308,26614,1,8,0:0:0:0:
52,204,27230,1,8,0:0:0:0:
52,44,27845,1,8,0:0:0:0:
124,80,28153,2,0,P|204:92|284:80,1,160,0|4,0:0|0:0,0:0:0:0:
440,68,29384,6,0,P|412:104|404:144,1,80,4|8,0:0|0:0,0:0:0:0:
428,212,29999,2,0,P|408:280|320:324,1,160,0|0,0:0|0:0,0:0:0:0:
256,332,30922,1,8,0:0:0:0:
176,324,31230,6,0,P|144:295|130:257,1,80,0|8,0:0|0:0,0:0:0:0:
132,180,31845,2,0,P|172:168|216:164,1,80,0|8,0:0|0:0,0:0:0:0:
292,168,32461,2,0,P|323:139|337:101,1,80,0|8,0:0|0:0,0:0:0:0:
348,28,33076,6,0,P|309:20|267:22,1,80,0|8,0:0|0:0,0:0:0:0:
196,56,33691,2,0,B|160:80|124:72|124:72|84:88|63:128,1,160
52,208,34614,6,0,P|80:264|136:300,1,120,8|0,0:0|0:0,0:0:0:0:
204,316,35384,2,0,L|284:316,1,80,0|0,0:0|0:0,0:0:0:0:
400,288,36153,5,0,0:0:0:0:
348,228,36461,2,0,P|324:192|316:148,1,80,8|0,0:0|0:0,0:0:0:0:
72,232,39230,6,0,P|108:152|172:104,1,160,4|0,0:0|0:0,0:0:0:0:
240,80,40153,1,8,0:0:0:0:
300,136,40461,2,0,P|336:160|380:168,1,80,0|8,0:0|0:0,0:0:0:0:
452,176,41076,2,0,P|468:220|460:264,1,80,0|8,0:0|0:0,0:0:0:0:
396,296,41691,6,0,L|308:296,1,80,0|8,0:0|0:0,0:0:0:0:
236,296,42307,2,0,P|183:274|146:215,1,120,2|0,0:0|0:0,0:0:0:0:
124,148,43076,1,0,0:0:0:0:
244,164,43538,6,0,P|288:144|312:108,1,80,4|8,0:0|0:0,0:0:0:0:
348,52,44153,2,0,P|399:83|428:144,1,120,2|0,0:0|0:0,0:0:0:0:
448,212,44922,1,0,0:0:0:0:
412,284,45230,2,0,P|377:304|338:310,1,80,0|0,0:0|0:0,0:0:0:0:
260,332,45845,2,0,L|180:332,1,80,0|0,0:0|0:0,0:0:0:0:
88,252,46614,6,0,P|148:240|180:188,2,120,2|2|2,0:0|0:0|0:0,0:0:0:0:
84,132,47999,1,2,0:0:0:0:
180,60,48461,2,0,P|224:76|248:100,1,80,2|8,0:0|0:0,0:0:0:0:
272,176,49076,6,0,P|304:156|328:112,2,80,4|8|0,0:0|0:0|0:0,0:0:0:0:
192,180,49999,1,8,0:0:0:0:
116,208,50307,2,0,P|71:248|60:317,1,120,2|0,0:0|0:0,0:0:0:0:
180,304,51230,5,8,0:0:0:0:
260,304,51538,2,0,P|344:324|420:300,2,160,0|0|0,0:0|0:0|0:0,0:0:0:0:
180,304,53076,1,8,0:0:0:0:
220,236,53384,6,0,P|252:208|260:160,2,80,2|8|4,0:0|0:0|0:0,0:0:0:0:
180,164,54307,2,0,P|152:112|100:79,1,120,8|0,0:0|0:0,0:0:0:0:
64,152,55076,6,0,P|87:231|71:303,1,160,0|8,0:0|0:0,0:0:0:0:
144,336,55999,2,0,P|182:345|222:340,1,80,0|0,0:0|0:0,0:0:0:0:
256,192,56614,12,0,58153,0:0:0:0:
352,260,58922,6,0,P|404:292|468:300,2,120,4|8|0,0:0|0:0|0:0,0:0:0:0:
300,200,60153,1,2,0:0:0:0:
232,100,60614,6,0,B|200:64|200:64|168:80|124:76,1,120,8|0,0:0|0:0,0:0:0:0:
48,72,61384,2,0,P|48:140|76:188,1,120,2|8,0:0|0:0,0:0:0:0:
124,244,62153,1,0,0:0:0:0:
196,276,62461,2,0,P|236:288|268:312,2,80,4|4|4,0:0|0:0|0:0,0:0:0:0:
192,196,63384,2,0,B|231:179|266:194|266:194|295:157,1,120,0|2,0:0|0:0,0:0:0:0:
344,52,64307,6,0,B|388:70|399:114|399:114|440:128,1,120,8|0,0:0|0:0,0:0:0:0:
508,140,65076,1,2,0:0:0:0:
408,204,65538,2,0,P|360:240|332:296,1,120,8|8,0:0|0:0,0:0:0:0:
256,308,66307,6,0,P|196:320|132:308,2,120,4|0|8,0:0|0:0|0:0,0:0:0:0:
332,292,67538,2,0,P|392:280|456:292,2,120,2|0|8,0:0|0:0|0:0,0:0:0:0:
284,228,68768,6,0,P|224:208|200:152,1,120,2|0,0:0|0:0,0:0:0:0:
192,80,69538,1,0,0:0:0:0:
124,124,69845,2,0,P|72:200|112:296,1,200,2|0,0:0|0:0,0:0:0:0:
268,320,71230,6,0,P|316:272|376:256,1,120,4|0,0:0|0:0,0:0:0:0:
444,252,71999,1,0,0:0:0:0:
468,176,72307,2,0,P|480:116|452:64,1,120,0|8,0:0|0:0,0:0:0:0:
372,60,73076,2,0,L|292:60,1,80,0|8,0:0|0:0,0:0:0:0:
212,68,73691,6,0,P|164:108|104:124,1,120,2|0,0:0|0:0,0:0:0:0:
28,124,74461,1,0,0:0:0:0:
64,196,74768,2,0,P|104:248|156:280,1,120,0|8,0:0|0:0,0:0:0:0:
228,284,75538,2,0,L|312:284,1,80,0|8,0:0|0:0,0:0:0:0:
388,268,76153,6,0,B|420:252|436:252|436:252|436:216|420:180,1,120,4|0,0:0|0:0,0:0:0:0:
396,108,76922,2,0,P|432:84|460:44,2,80,0|0|0,0:0|0:0|0:0,0:0:0:0:
320,136,77845,1,0,0:0:0:0:
252,92,78153,6,0,L|172:92,1,80,0|0,0:0|0:0,0:0:0:0:
92,96,78768,2,0,P|76:164|96:212,1,120,0|0,0:0|0:0,0:0:0:0:
180,296,79691,6,0,B|260:288|312:344|312:344|364:312,1,200,8|4,0:0|0:0,0:0:0:0:
456,192,81076,6,0,P|396:128|316:92,1,160,2|0,0:0|0:0,0:0:0:0:
260,64,81999,1,8,0:0:0:0:
204,124,82307,2,0,B|172:152|132:144|132:144|104:176|112:224,1,160,0|0,0:0|0:0,0:0:0:0:
132,300,83230,1,8,0:0:0:0:
204,336,83538,6,0,P|257:356|321:329,1,120,4|0,0:0|0:0,0:0:0:0:
368,276,84307,1,0,0:0:0:0:
348,200,84614,2,0,P|352:140|392:88,1,120,0|0,0:0|0:0,0:0:0:0:
444,36,85384,2,0,P|364:44|280:36,1,160,0|4,0:0|0:0,0:0:0:0:
128,72,86614,6,0,P|116:132|76:184,1,120,2|0,0:0|0:0,0:0:0:0:
36,244,87384,2,0,P|76:244|116:256,1,80,0|0,0:0|0:0,0:0:0:0:
184,292,87999,2,0,L|312:292,1,120,0|2,0:0|0:0,0:0:0:0:
464,292,89076,5,0,0:0:0:0:
344,188,89691,2,0,P|308:148|300:84,2,120,2|0|8,0:0|0:0|0:0,0:0:0:0:
456,72,91230,5,4,0:0:0:0:
56,144,100461,5,8,0:0:0:0:
136,156,100768,2,0,P|176:159|215:146,1,80,4|8,0:0|0:0,0:0:0:0:
364,100,101691,5,8,0:0:0:0:
80,264,102922,1,8,0:0:0:0:
392,340,104153,5,8,0:0:0:0:
176,104,105384,1,8,0:0:0:0:
472,224,106614,5,8,0:0:0:0:
164,308,107845,1,8,0:0:0:0:
208,244,108153,2,0,P|244:200|304:184,2,120,2|2|2,0:0|0:0|0:0,0:0:0:0:
312,304,109538,1,2,0:0:0:0:
80,148,110614,6,0,P|160:156|236:128,1,160,0|0,0:0|0:0,0:0:0:0:
288,68,111538,1,8,0:0:0:0:
356,108,111845,2,0,P|372:160|360:224,1,120,2|0,0:0|0:0,0:0:0:0:
184,316,113076,6,0,P|224:323|269:317,2,80,0|8|0,0:0|0:0|0:0,0:0:0:0:
108,288,113999,2,0,P|75:239|72:177,1,120,8|0,0:0|0:0,0:0:0:0:
104,64,114922,6,0,B|136:32|180:24|180:24|196:64|232:84,1,160,2|4,0:0|0:0,0:0:0:0:
292,124,115845,2,0,P|348:148|416:144,1,120,8|0,0:0|0:0,0:0:0:0:
484,128,116614,2,0,L|484:212,1,80,0|0,0:0|0:0,0:0:0:0:
460,284,117230,2,0,P|380:316|300:312,1,160,0|4,0:0|0:0,0:0:0:0:
256,192,118153,12,0,119691,0:0:0:0:
96,296,120461,6,0,P|112:216|88:140,1,160,2|0,0:0|0:0,0:0:0:0:
60,68,121384,2,0,P|100:56|152:56,1,80,8|2,0:0|0:0,0:0:0:0:
292,108,122307,6,0,B|344:140|400:124|400:124|424:164,1,160,0|4,0:0|0:0,0:0:0:0:
448,240,123230,1,8,0:0:0:0:
352,312,123691,5,0,0:0:0:0:
272,328,123999,2,0,L|192:344,2,80,2|2|4,0:0|0:0|0:0,0:0:0:0:
300,252,124922,2,0,P|292:200|248:144,1,120,0|2,0:0|0:0,0:0:0:0:
192,92,125691,1,8,0:0:0:0:
116,64,125999,6,0,B|72:56|40:68|40:68|52:108|44:152,1,160,2|4,0:0|0:0,0:0:0:0:
40,232,126922,2,0,P|36:276|56:316,2,80,8|0|2,0:0|0:0|0:0,0:0:0:0:
116,260,127845,6,0,P|192:272|272:252,1,160,8|2,0:0|0:0,0:0:0:0:
340,212,128768,1,8,0:0:0:0:
400,160,129076,2,0,B|432:128|436:88|436:88|396:88|360:68,1,160,2|2,0:0|0:0,0:0:0:0:
292,28,129999,1,8,0:0:0:0:
212,32,130307,6,0,P|148:32|92:48,1,120,2|0,0:0|0:0,0:0:0:0:
88,128,131076,2,0,P|92:168|80:216,1,80,0|2,0:0|0:0,0:0:0:0:
60,284,131691,2,0,B|132:272|188:328|188:328|248:272|316:292,1,280,0|4,0:0|0:0,0:0:0:0:
396,296,133076,6,0,B|392:244|428:212|428:212|420:180,1,120,8|0,0:0|0:0,0:0:0:0:
396,112,133845,1,0,0:0:0:0:
284,76,134307,2,0,P|272:120|288:160,2,80,8|0|8,0:0|0:0|0:0,0:0:0:0:
332,12,135230,6,0,L|212:36,1,120,4|0,0:0|0:0,0:0:0:0:
136,52,135999,1,0,0:0:0:0:
60,80,136307,2,0,P|108:124|120:180,1,120,0|8,0:0|0:0,0:0:0:0:
112,256,137076,2,0,P|152:272|200:272,1,80,0|8,0:0|0:0,0:0:0:0:
264,244,137691,6,0,P|324:220|384:224,1,120,4|0,0:0|0:0,0:0:0:0:
456,236,138461,2,0,P|468:192|456:152,2,80,0|0|0,0:0|0:0|0:0,0:0:0:0:
416,304,139384,1,0,0:0:0:0:
344,336,139691,6,0,P|304:344|256:344,1,80,0|0,0:0|0:0,0:0:0:0:
188,328,140307,2,0,P|160:260|128:224,1,120,0|2,0:0|0:0,0:0:0:0:
40,148,141230,6,0,B|32:88|64:48|64:48|104:76|152:72,1,200,0|4,0:0|0:0,0:0:0:0:
312,52,142614,6,0,P|368:68|416:120,1,120,2|0,0:0|0:0,0:0:0:0:
444,184,143384,1,0,0:0:0:0:
432,264,143691,2,0,B|424:312|424:312|396:332|356:332,1,120,0|8,0:0|0:0,0:0:0:0:
280,308,144461,2,0,P|244:292|196:288,1,80,2|8,0:0|0:0,0:0:0:0:
124,284,145076,6,0,P|92:224|88:168,1,120,4|0,0:0|0:0,0:0:0:0:
96,92,145845,1,0,0:0:0:0:
164,48,146153,2,0,B|208:48|208:48|228:80|276:92,1,120,0|8,0:0|0:0,0:0:0:0:
348,100,146922,2,0,P|388:104|428:135,2,80,0|8|0,0:0|0:0|0:0,0:0:0:0:
360,180,147845,1,8,0:0:0:0:
320,248,148153,6,0,P|280:292|220:316,1,120,2|0,0:0|0:0,0:0:0:0:
144,304,148922,2,0,P|128:268|96:240,1,80,0|0,0:0|0:0,0:0:0:0:
80,164,149538,2,0,P|112:112|164:84,1,120,0|2,0:0|0:0,0:0:0:0:
320,68,150614,1,0,0:0:0:0:
436,180,151230,6,0,B|464:212|460:260|460:260|420:256|380:284,1,160,2|0,0:0|0:0,0:0:0:0:
320,320,152153,2,0,L|272:320,1,40,8|0,0:0|0:0,0:0:0:0:
180,56,157691,6,0,B|207:83|207:83|275:71|311:127,1,160,8|8,0:0|0:0,0:0:0:0:
360,280,158922,2,0,B|332:252|332:252|264:264|228:208,1,160,8|8,0:0|0:0,0:0:0:0:
84,140,160153,6,0,P|96:212|156:284,1,160,8|8,0:0|0:0,0:0:0:0:
220,312,161076,2,0,B|264:328|296:320|296:320|284:268|304:232,1,160,0|8,0:0|0:0,0:0:0:0:
368,92,162307,6,0,P|304:44|224:40,1,160,4|2,0:0|0:0,0:0:0:0:
148,56,163230,1,8,0:0:0:0:
164,136,163538,2,0,P|164:196|132:248,1,120,0|0,0:0|0:0,0:0:0:0:
72,296,164307,6,0,P|104:320|156:320,1,80,0|0,0:0|0:0,0:0:0:0:
216,292,164922,2,0,L|300:292,1,80,0|0,0:0|0:0,0:0:0:0:
364,252,165538,2,0,L|448:252,2,80,0|4|0,0:0|0:0|0:0,0:0:0:0:
360,172,166461,1,0,0:0:0:0:
204,48,167230,6,0,P|171:78|152:115,1,80,4|8,0:0|0:0,0:0:0:0:
76,124,167845,2,0,P|104:172|176:187,1,120
280,220,168768,6,0,B|272:276|224:292|224:292|228:324|260:352,1,160,8|8,0:0|0:0,0:0:0:0:
256,192,169845,12,0,171538,0:0:0:0:
348,40,172768,5,4,0:0:0:0:
284,88,173076,2,0,P|316:112|360:120,2,80,8|2|8,0:0|0:0|0:0,0:0:0:0:
224,36,173999,2,0,P|184:44|148:64,1,80,8|2,0:0|0:0,0:0:0:0:
84,108,174614,6,0,B|64:139|64:139|90:175|78:226,1,120,4|0,0:0|0:0,0:0:0:0:
56,296,175384,1,0,0:0:0:0:
132,320,175691,2,0,P|188:332|252:328,1,120,0|8,0:0|0:0,0:0:0:0:
324,296,176461,2,0,P|352:264|392:244,1,80,0|8,0:0|0:0,0:0:0:0:
460,220,177076,6,0,B|464:176|444:136|444:136|408:140|368:120,1,160,4|0,0:0|0:0,0:0:0:0:
304,80,177999,1,8,0:0:0:0:
224,84,178307,2,0,B|168:100|128:152,1,120
84,308,179384,5,4,0:0:0:0:
164,304,179691,2,0,B|196:304|196:304|224:260|264:252,1,120,0|2,0:0|0:0,0:0:0:0:
372,304,180614,5,0,0:0:0:0:
428,248,180922,2,0,P|460:196|464:132,1,120,2|4,0:0|0:0,0:0:0:0:
304,72,181999,6,0,L|180:72,1,120,2|0,0:0|0:0,0:0:0:0:
104,72,182768,1,0,0:0:0:0:
140,144,183076,2,0,P|168:212|164:268,1,120,0|8,0:0|0:0,0:0:0:0:
144,336,183845,2,0,P|192:344|232:340,1,80,0|8,0:0|0:0,0:0:0:0:
296,308,184461,6,0,P|340:264|396:244,1,120,4|0,0:0|0:0,0:0:0:0:
472,228,185230,1,0,0:0:0:0:
436,156,185538,2,0,B|408:100|348:68,1,120,0|8,0:0|0:0,0:0:0:0:
276,48,186307,2,0,B|240:36|200:36|200:36|200:80|176:120,1,160,0|0,0:0|0:0,0:0:0:0:
140,184,187230,1,8,0:0:0:0:
84,240,187538,6,0,P|116:296|172:328,1,120,0|2,0:0|0:0,0:0:0:0:
240,328,188307,2,0,P|276:304|312:296,1,80,0|2,0:0|0:0,0:0:0:0:
388,280,188922,1,0,0:0:0:0:
468,192,189384,6,0,P|385:183|317:150,1,160,4|0,0:0|0:0,0:0:0:0:
200,44,190614,2,0,P|148:100|116:176,1,160,4|0,0:0|0:0,0:0:0:0:
112,336,191845,6,0,P|180:300|272:304,1,160,4|0,0:0|0:0,0:0:0:0:
420,328,193076,2,0,P|424:252|384:176,1,160,4|0,0:0|0:0,0:0:0:0:
336,116,193999,2,0,B|312:72|276:60|276:60|260:92|216:116,1,160,8|4,0:0|0:0,0:0:0:0:
72,164,195230,6,0,P|108:236|172:280,2,160,8|8|8,0:0|0:0|0:0,0:0:0:0:
60,84,196768,2,0,P|96:88|136:120,1,80,0|8,0:0|0:0,0:0:0:0:
204,148,197384,2,0,P|244:156|288:144,1,80,0|8,0:0|0:0,0:0:0:0:
344,96,197999,2,0,P|384:116|412:152,1,80,0|8,0:0|0:0,0:0:0:0:
436,216,198614,2,0,P|380:244|352:292,1,120
240,332,199538,6,0,B|192:332|192:332|172:300|132:280,1,120,2|0,0:0|0:0,0:0:0:0:
68,248,200307,2,0,P|84:172|112:136,1,120,0|8,0:0|0:0,0:0:0:0:
176,92,201076,2,0,P|256:100|328:68,1,160,0|0,0:0|0:0,0:0:0:0:
408,60,201999,1,8,0:0:0:0:
408,140,202307,2,0,P|388:192|368:216,1,80,0|8,0:0|0:0,0:0:0:0:
296,236,202922,6,0,B|256:260|245:300|245:300|203:314|162:301,1,160,4|0,0:0|0:0,0:0:0:0:
96,276,203845,2,0,P|76:195|108:128,1,160,8|8,0:0|0:0,0:0:0:0:
176,88,204768,2,0,P|212:92|264:88,1,80,0|8,0:0|0:0,0:0:0:0:
336,76,205384,2,0,B|384:83|400:116|400:116|372:144|368:188,1,160,4|0,0:0|0:0,0:0:0:0:
372,268,206307,1,8,0:0:0:0:
300,304,206614,6,0,P|256:312|216:304,1,80,0|8,0:0|0:0,0:0:0:0:
140,304,207230,2,0,P|152:264|184:232,1,80,0|8,0:0|0:0,0:0:0:0:
236,184,207845,2,0,B|280:172|296:132|296:132|256:104|260:64,1,160
340,64,208768,2,0,P|410:96|435:184,1,160,8|4,0:0|0:0,0:0:0:0:
404,244,209691,6,0,P|368:284|304:304,1,120,0|4,0:0|0:0,0:0:0:0:
228,308,210461,1,0,0:0:0:0:
256,192,211076,12,0,212614,0:0:0:0:
240,84,214307,5,4,0:0:0:0:
