osu file format v14

[General]
AudioFilename: Otsukimi Recital.mp3
AudioLeadIn: 2000
PreviewTime: 70610
Countdown: 0
SampleSet: Soft
StackLeniency: 0.7
Mode: 0
LetterboxInBreaks: 1
WidescreenStoryboard: 0

[Editor]
Bookmarks: 31076,113384
DistanceSpacing: 1
BeatDivisor: 4
GridSize: 4
TimelineZoom: 1

[Metadata]
Title:Otsukimi Recital
TitleUnicode:オツキミリサイタル
Artist:Jin
ArtistUnicode:じん
Creator:Xinchii
Version:Insane
Source:
Tags:ShizennotekiP Kagarou project IA Vocaloid3 自然の敵p ShiauKe カゲロウプロジェクト わんにゃんぷー
BeatmapID:273956
BeatmapSetID:104109

[Difficulty]
HPDrainRate:7
CircleSize:4
OverallDifficulty:7
ApproachRate:9
SliderMultiplier:1.9
SliderTickRate:1

[Events]
//Background and Video events
Video,0,"Otsukimi Recital.avi"
0,0,"BG.jpg",0,0
//Break Periods
2,91430,98938
2,152507,157091
//Storyboard Layer 0 (Background)
//Storyboard Layer 1 (Fail)
//Storyboard Layer 2 (Pass)
//Storyboard Layer 3 (Foreground)
//Storyboard Sound Samples

[TimingPoints]
235,545.454545454546,4,2,1,25,1,0
235,-200,4,2,1,25,0,0
5689,-200,4,2,1,27,0,0
6780,-200,4,2,1,30,0,0
8962,-200,4,2,1,25,0,0
11962,-200,4,2,1,20,0,0
12235,-200,4,2,1,25,0,0
13325,-200,4,2,1,27,0,0
14689,-200,4,2,1,30,0,0
17689,-200,4,2,1,15,0,0
19385,307.692307692308,4,2,1,40,1,0
19538,307.692307692308,4,2,1,40,1,0
19538,-117.647058823529,4,2,1,40,0,0
28922,-117.647058823529,4,2,1,50,0,0
29076,-117.647058823529,4,2,1,30,0,0
29230,-117.647058823529,4,2,1,50,0,0
29384,-117.647058823529,4,2,0,70,0,0
29538,-117.647058823529,4,2,1,70,0,0
34153,-117.647058823529,4,2,1,40,0,0
34307,-117.647058823529,4,2,1,70,0,0
34614,-117.647058823529,4,2,1,80,0,0
34922,-117.647058823529,4,2,1,70,0,0
39230,-117.647058823529,4,2,1,50,0,0
44384,-117.647058823529,4,2,1,15,0,0
44461,-117.647058823529,4,2,1,50,0,0
46614,-117.647058823529,4,2,1,60,0,0
46999,-117.647058823529,4,2,1,15,0,0
47076,-117.647058823529,4,2,1,60,0,0
47461,-117.647058823529,4,2,1,15,0,0
47538,-117.647058823529,4,2,1,60,0,0
47922,-117.647058823529,4,2,1,15,0,0
47999,-117.647058823529,4,2,1,60,0,0
48384,-117.647058823529,4,2,1,15,0,0
48461,-117.647058823529,4,2,1,60,0,0
49076,-117.647058823529,4,2,1,70,0,0
56614,-117.647058823529,4,2,1,75,0,0
57230,-117.647058823529,4,2,1,80,0,0
58461,-117.647058823529,4,2,1,60,0,0
61845,-166.666666666667,4,2,1,60,0,0
62076,-117.647058823529,4,2,1,15,0,0
62153,-117.647058823529,4,2,1,60,0,0
64153,-117.647058823529,4,2,1,60,0,0
66307,-117.647058823529,4,2,1,70,0,0
71230,-100,4,2,0,80,0,1
71384,-100,4,2,1,80,0,1
73691,-100,4,2,0,80,0,1
73845,-100,4,2,1,80,0,1
76153,-100,4,2,0,80,0,1
76307,-100,4,2,1,80,0,1
80461,-100,4,2,1,90,0,1
80614,-100,4,2,1,80,0,1
81076,-100,4,2,0,80,0,1
81230,-100,4,2,1,80,0,1
83538,-100,4,2,0,80,0,1
83845,-100,4,2,1,80,0,1
85999,-100,4,2,0,80,0,1
86307,-100,4,2,1,80,0,1
90922,-100,4,2,1,70,0,0
91230,-100,4,2,1,80,0,0
99538,-117.647058823529,4,2,1,50,0,0
101076,-117.647058823529,4,2,1,20,0,0
101691,-117.647058823529,4,2,1,30,0,0
102307,-117.647058823529,4,2,1,20,0,0
102922,-117.647058823529,4,2,1,30,0,0
103538,-117.647058823529,4,2,1,20,0,0
104153,-117.647058823529,4,2,1,30,0,0
104768,-117.647058823529,4,2,1,20,0,0
105384,-117.647058823529,4,2,1,30,0,0
105999,-117.647058823529,4,2,1,20,0,0
106614,-117.647058823529,4,2,1,30,0,0
107384,-117.647058823529,4,2,1,30,0,0
107691,-117.647058823529,4,2,1,60,0,0
108538,-117.647058823529,4,2,1,15,0,0
108614,-117.647058823529,4,2,1,60,0,0
108999,-117.647058823529,4,2,1,15,0,0
109076,-117.647058823529,4,2,1,60,0,0
109461,-117.647058823529,4,2,1,15,0,0
109538,-117.647058823529,4,2,1,60,0,0
109845,-117.647058823529,4,2,1,15,0,0
110614,-117.647058823529,4,2,0,50,0,0
110922,-117.647058823529,4,2,1,60,0,0
118461,-117.647058823529,4,2,1,65,0,0
118768,-117.647058823529,4,2,1,70,0,0
119076,-117.647058823529,4,2,1,75,0,0
119999,-117.647058823529,4,2,1,60,0,0
123153,-117.647058823529,4,2,1,15,0,0
123230,-117.647058823529,4,2,1,60,0,0
132768,-100,4,2,0,80,0,1
133076,-100,4,2,1,80,0,1
135230,-100,4,2,0,80,0,1
135384,-100,4,2,1,80,0,1
137691,-100,4,2,0,80,0,1
137845,-100,4,2,1,80,0,1
141999,-100,4,2,1,90,0,1
142153,-100,4,2,1,80,0,1
142614,-100,4,2,0,80,0,1
142768,-100,4,2,1,80,0,1
145076,-100,4,2,0,80,0,1
145230,-100,4,2,1,80,0,1
152461,-117.647058823529,4,2,1,60,0,0
157691,-117.647058823529,4,2,1,30,0,0
161076,-117.647058823529,4,2,1,50,0,0
161691,-117.647058823529,4,2,1,60,0,0
162922,-117.647058823529,4,2,1,70,0,0
167076,-117.647058823529,4,2,1,60,0,0
167538,-117.647058823529,4,2,1,70,0,0
167845,-117.647058823529,4,2,1,60,0,0
168307,-117.647058823529,4,2,1,70,0,0
172153,-117.647058823529,4,2,1,15,0,0
172768,-117.647058823529,4,2,1,50,0,0
173230,-117.647058823529,4,2,1,60,0,0
173691,-117.647058823529,4,2,1,70,0,0
174614,-100,4,2,0,80,0,1
174768,-100,4,2,1,80,0,1
177076,-100,4,2,0,80,0,1
177384,-100,4,2,1,80,0,1
181384,-100,4,2,0,80,0,1
181538,-100,4,2,1,70,0,1
181999,-100,4,2,0,80,0,1
182153,-100,4,2,1,80,0,1
184461,-100,4,2,0,80,0,1
184614,-100,4,2,1,80,0,1
188307,-100,4,2,1,90,0,1
188922,-100,4,2,1,80,0,1
194307,-100,4,2,1,15,0,1
194614,-117.647058823529,4,2,0,60,0,0
194922,-117.647058823529,4,2,1,70,0,0
199538,-117.647058823529,4,2,0,70,0,0
199845,-117.647058823529,4,2,1,70,0,0
204461,-117.647058823529,4,2,0,70,0,0
204768,-117.647058823529,4,2,1,70,0,0
209384,-117.647058823529,4,2,0,70,0,0
209538,-117.647058823529,4,2,1,70,0,0
213384,-117.647058823529,4,2,1,80,0,0
214307,-117.647058823529,4,2,0,80,0,0

[Colours]
Combo1 : 115,124,208
Combo2 : 252,130,48
Combo3 : 247,231,34
Combo4 : 116,191,237

[HitObjects]
172,108,235,5,4,0:0:0:0:
252,56,780,2,0,P|268:96|260:148,1,95
260,146,1598,1,0,0:0:0:0:
212,228,2144,5,0,0:0:0:0:
264,308,2689,1,0,0:0:0:0:
264,308,2962,1,0,0:0:0:0:
344,260,3507,1,4,0:0:0:0:
152,260,4598,5,0,0:0:0:0:
152,260,5144,1,8,0:0:0:0:
284,124,5689,5,0,0:0:0:0:
284,124,6235,1,8,0:0:0:0:
280,312,6780,5,0,0:0:0:0:
280,312,7325,1,8,0:0:0:0:
376,300,7871,6,0,P|360:252|328:224,1,95,0|8,0:0|0:0,0:0:0:0:
328,224,8689,1,0,0:0:0:0:
328,224,8962,1,2,0:0:0:0:
192,196,9507,6,0,L|140:196,1,47.5,0|0,0:0|0:0,0:0:0:0:
196,116,10053,2,0,L|222:70,1,47.5,0|0,0:0|0:0,0:0:0:0:
264,160,10598,2,0,L|290:205,1,47.5,0|0,0:0|0:0,0:0:0:0:
304,224,11416,1,0,0:0:0:0:
320,248,11962,5,8,0:0:0:0:
424,160,12235,1,2,0:0:0:0:
424,160,12780,5,0,0:0:0:0:
256,68,13325,5,2,0:0:0:0:
160,80,13598,1,0,0:0:0:0:
108,160,13871,1,8,0:0:0:0:
124,252,14144,1,0,0:0:0:0:
384,192,14689,5,0,0:0:0:0:
298,235,14962,1,8,0:0:0:0:
208,197,15235,1,0,0:0:0:0:
256,192,15371,12,0,17689,0:0:0:0:
116,152,19385,5,0,0:0:0:0:
116,152,19461,1,0,0:0:0:0:
116,152,19538,2,0,P|164:84|248:84,1,161.500003080368,4|8,0:0|0:0,0:0:0:0:
272,236,20153,2,0,B|232:216|212:168,2,80.750001540184,0|0|8,0:0|0:0|0:0,0:0:0:0:
380,288,20614,2,0,P|376:204|312:156,1,161.500003080368
240,148,21076,1,8,0:0:0:0:
152,280,21384,6,0,P|124:312|84:328,2,80.750001540184,0|0|8,0:0|0:0|0:0,0:0:0:0:
240,148,21845,2,0,P|288:80|360:64,1,161.500003080368
440,84,22307,1,8,0:0:0:0:
316,188,22614,6,0,P|308:228|316:268,2,80.750001540184,0|0|8,0:0|0:0|0:0,0:0:0:0:
440,84,23076,1,0,0:0:0:0:
444,244,23384,1,2,0:0:0:0:
288,292,23691,1,2,0:0:0:0:
196,160,23999,1,2,0:0:0:0:
296,32,24307,1,0,0:0:0:0:
296,32,24384,1,0,0:0:0:0:
296,32,24461,1,4,0:0:0:0:
344,184,24768,1,4,0:0:0:0:
204,264,25076,6,0,P|168:292|126:299,1,80.750001540184,2|0,0:0|0:0,0:0:0:0:
53,294,25384,1,8,0:0:0:0:
165,181,25538,2,0,P|244:180|296:240,1,161.500003080368
177,323,25999,1,8,0:0:0:0:
304,80,26307,6,0,P|344:96|369:134,1,80.750001540184,0|0,0:0|0:0,0:0:0:0:
404,196,26614,1,8,0:0:0:0:
320,304,26769,2,0,P|276:238|293:159,1,161.500003080368
380,56,27230,1,8,0:0:0:0:
220,84,27538,5,0,0:0:0:0:
200,160,27691,1,0,0:0:0:0:
132,204,27845,1,8,0:0:0:0:
52,204,27999,1,0,0:0:0:0:
80,276,28153,5,0,0:0:0:0:
89,290,28230,1,0,0:0:0:0:
106,301,28307,1,0,0:0:0:0:
123,312,28384,1,0,0:0:0:0:
144,318,28461,1,8,0:0:0:0:
162,318,28538,1,0,0:0:0:0:
181,315,28614,1,0,0:0:0:0:
200,308,28691,1,0,0:0:0:0:
220,300,28768,2,0,P|259:283|304:285,1,80.750001540184,4|4,0:0|0:0,0:0:0:0:
376,304,29076,6,0,L|348:268,3,40.375000770092
328,236,29384,2,0,P|307:201|303:157,1,80.750001540184,4|0,0:0|0:0,0:0:0:0:
384,176,29691,1,8,0:0:0:0:
228,220,29999,5,0,0:0:0:0:
156,184,30153,1,0,0:0:0:0:
120,112,30307,1,8,0:0:0:0:
280,100,30461,2,0,B|325:85|351:54|351:54|380:72|398:113,1,161.500003080368
428,188,30922,1,8,0:0:0:0:
420,268,31076,1,0,0:0:0:0:
420,268,31153,1,0,0:0:0:0:
420,268,31230,1,0,0:0:0:0:
344,300,31384,5,0,0:0:0:0:
228,340,31538,1,8,0:0:0:0:
127,282,31691,2,0,P|169:269|203:246,1,80.750001540184
252,140,31999,5,0,0:0:0:0:
356,200,32153,1,8,0:0:0:0:
468,160,32307,2,0,P|428:140|401:115,1,80.750001540184
304,44,32614,5,0,0:0:0:0:
184,44,32768,1,8,0:0:0:0:
100,132,32922,2,0,P|139:150|165:185,1,80.750001540184
216,288,33230,5,0,0:0:0:0:
376,292,33384,1,8,0:0:0:0:
472,160,33538,2,0,P|432:141|406:106,1,80.750001540184
368,44,33845,5,0,0:0:0:0:
368,44,33922,1,0,0:0:0:0:
368,44,33999,2,0,P|356:96|336:120,1,80.750001540184,8|0,0:0|0:0,0:0:0:0:
276,168,34307,1,0,0:0:0:0:
100,332,34614,2,0,B|160:304|152:248|152:248|176:256|208:252,1,161.500003080368,4|0,0:0|0:0,0:0:0:0:
284,236,35076,5,0,0:0:0:0:
348,184,35230,1,8,0:0:0:0:
372,108,35384,1,0,0:0:0:0:
372,108,35461,1,0,0:0:0:0:
372,108,35538,2,0,P|407:131|426:172,1,80.750001540184,0|0,0:0|0:0,0:0:0:0:
500,200,35845,2,0,P|474:230|433:245,1,80.750001540184,8|0,0:0|0:0,0:0:0:0:
356,264,36153,1,0,0:0:0:0:
244,308,36307,5,0,0:0:0:0:
132,256,36461,1,8,0:0:0:0:
104,140,36614,1,0,0:0:0:0:
256,192,36768,12,2,38922,0:0:0:0:
252,68,39230,6,0,P|162:67|113:117,1,161.500003080368,4|8,0:0|0:0,0:0:0:0:
264,172,39845,2,0,P|304:160|332:132,1,80.750001540184,2|0,0:0|0:0,0:0:0:0:
340,56,40153,2,0,P|380:68|408:104,1,80.750001540184,8|0,0:0|0:0,0:0:0:0:
468,220,40461,2,0,P|428:208|400:172,1,80.750001540184
340,56,40768,1,8,0:0:0:0:
340,56,40922,2,0,P|275:101|193:81,1,161.500003080368,8|0,0:0|0:0,0:0:0:0:
127,43,41384,1,8,0:0:0:0:
127,43,41538,6,0,L|176:113,1,80.750001540184
160,248,41845,2,0,L|112:180,1,80.750001540184,0|8,0:0|0:0,0:0:0:0:
252,176,42153,1,8,0:0:0:0:
332,192,42307,1,2,0:0:0:0:
332,192,42384,1,0,0:0:0:0:
332,192,42461,2,0,P|316:232|280:256,1,80.750001540184,0|8,0:0|0:0,0:0:0:0:
268,332,42768,1,0,0:0:0:0:
268,332,42922,2,0,P|336:320|408:264,1,161.500003080368,0|8,0:0|0:0,0:0:0:0:
448,196,43384,1,8,0:0:0:0:
392,72,43538,6,0,P|360:48|312:44,1,80.750001540184,4|0,0:0|0:0,0:0:0:0:
188,72,43845,2,0,P|220:96|268:100,1,80.750001540184,8|0,0:0|0:0,0:0:0:0:
392,72,44153,2,0,P|356:120|380:180,1,121.125002310276,2|0,0:0|0:0,0:0:0:0:
400,204,44461,2,0,L|308:184,1,80.750001540184,8|0,0:0|0:0,0:0:0:0:
164,216,44922,6,0,L|248:240,1,80.750001540184,0|8,0:0|0:0,0:0:0:0:
340,312,45230,1,0,0:0:0:0:
340,312,45307,1,0,0:0:0:0:
340,312,45384,2,0,P|360:275|365:235,1,80.750001540184
360,156,45691,1,8,0:0:0:0:
360,156,45845,2,0,P|314:227|239:237,1,161.500003080368,8|0,0:0|0:0,0:0:0:0:
204,228,46230,1,0,0:0:0:0:
204,228,46307,2,0,B|192:192|216:176|204:140,1,80.750001540184,8|0,0:0|0:0,0:0:0:0:
216,68,46614,6,0,B|137:60|115:153|39:153,1,201.87500385046,2|0,0:0|0:0,0:0:0:0:
32,68,47076,2,0,B|100:107|65:195|127:238,1,201.87500385046,2|0,0:0|0:0,0:0:0:0:
180,168,47538,2,0,B|255:168|277:75|356:82,1,201.87500385046,2|0,0:0|0:0,0:0:0:0:
444,96,47999,2,0,P|368:152|388:248,1,201.87500385046,2|0,0:0|0:0,0:0:0:0:
456,188,48461,5,2,0:0:0:0:
392,336,48614,1,0,0:0:0:0:
328,188,48768,1,8,0:0:0:0:
190,277,48922,1,0,0:0:0:0:
140,148,49076,6,0,P|127:192|135:236,1,80.750001540184,4|0,0:0|0:0,0:0:0:0:
184,356,49384,2,0,P|195:311|187:267,1,80.750001540184,8|0,0:0|0:0,0:0:0:0:
131,225,49691,1,0,0:0:0:0:
300,192,49845,1,0,0:0:0:0:
300,192,49922,1,0,0:0:0:0:
300,192,49999,2,0,L|216:192,1,80.750001540184,8|0,0:0|0:0,0:0:0:0:
80,192,50307,5,2,0:0:0:0:
144,68,50461,1,0,0:0:0:0:
24,132,50614,1,8,0:0:0:0:
160,148,50768,1,0,0:0:0:0:
60,52,50922,1,0,0:0:0:0:
196,52,51076,2,0,P|232:84|276:88,1,80.750001540184,0|8,0:0|0:0,0:0:0:0:
332,48,51384,1,0,0:0:0:0:
332,48,51538,6,0,P|344:84|336:128,1,80.750001540184,0|2,0:0|0:0,0:0:0:0:
410,160,51845,2,0,P|384:192|348:204,1,80.750001540184,8|0,0:0|0:0,0:0:0:0:
256,336,52153,2,0,P|264:296|256:256,1,80.750001540184
208,104,52461,2,0,P|199:143|208:184,1,80.750001540184,8|0,0:0|0:0,0:0:0:0:
352,256,52922,5,0,0:0:0:0:
438,196,53076,1,8,0:0:0:0:
344,149,53230,1,0,0:0:0:0:
232,228,53384,5,2,0:0:0:0:
280,100,53538,1,0,0:0:0:0:
416,100,53691,1,8,0:0:0:0:
460,232,53845,1,0,0:0:0:0:
348,312,53999,2,0,P|272:284|200:312,1,161.500003080368,4|8,0:0|0:0,0:0:0:0:
120,324,54461,5,0,0:0:0:0:
76,256,54614,2,0,P|60:220|60:180,2,80.750001540184,0|0|8,0:0|0:0|0:0,0:0:0:0:
140,204,55076,2,0,P|200:156|200:72,1,161.500003080368
100,108,55538,1,8,0:0:0:0:
100,108,55691,2,0,L|248:176,1,161.500003080368,0|0,0:0|0:0,0:0:0:0:
328,164,56153,1,8,0:0:0:0:
328,164,56307,2,0,P|322:205|297:235,1,80.750001540184
228,280,56614,5,0,0:0:0:0:
136,328,56768,1,8,0:0:0:0:
196,220,56922,1,0,0:0:0:0:
76,228,57076,1,2,0:0:0:0:
192,152,57230,1,0,0:0:0:0:
60,108,57384,1,8,0:0:0:0:
212,88,57538,1,4,0:0:0:0:
372,64,57845,5,4,0:0:0:0:
420,56,58153,1,0,0:0:0:0:
412,240,58461,5,0,0:0:0:0:
412,240,58538,1,0,0:0:0:0:
412,240,58614,2,0,P|370:251|345:281,1,80.750001540184,8|0,0:0|0:0,0:0:0:0:
296,340,58922,1,4,0:0:0:0:
296,340,59230,5,8,0:0:0:0:
296,340,59384,2,0,P|264:312|256:272,1,80.750001540184,8|0,0:0|0:0,0:0:0:0:
244,196,59691,1,0,0:0:0:0:
244,196,59845,2,0,P|204:208|176:236,1,80.750001540184,8|0,0:0|0:0,0:0:0:0:
128,300,60153,1,2,0:0:0:0:
72,148,60461,5,8,0:0:0:0:
72,148,60614,2,0,P|62:110|71:69,1,80.750001540184,8|0,0:0|0:0,0:0:0:0:
144,108,60922,1,0,0:0:0:0:
224,92,61076,1,8,0:0:0:0:
304,100,61230,1,0,0:0:0:0:
444,180,61384,1,2,0:0:0:0:
304,100,61691,5,8,0:0:0:0:
304,100,61845,2,0,P|288:136|248:164,1,85.4999973907472,8|0,0:0|0:0,0:0:0:0:
212,164,62153,2,0,L|288:216,1,80.750001540184,0|2,0:0|0:0,0:0:0:0:
384,272,62461,5,4,0:0:0:0:
148,216,62768,1,4,0:0:0:0:
320,44,63076,1,4,0:0:0:0:
320,44,63384,1,0,0:0:0:0:
304,124,63538,1,8,0:0:0:0:
380,100,63691,1,0,0:0:0:0:
244,72,63845,1,2,0:0:0:0:
84,100,64153,5,8,0:0:0:0:
84,100,64307,2,0,P|94:146|129:171,1,80.750001540184,8|0,0:0|0:0,0:0:0:0:
191,197,64614,1,0,0:0:0:0:
309,287,64768,2,0,P|295:245|267:222,2,80.750001540184,8|0|2,0:0|0:0|0:0,0:0:0:0:
228,296,65230,1,0,0:0:0:0:
228,296,65384,2,0,P|184:312|144:304,1,80.750001540184,8|8,0:0|0:0,0:0:0:0:
80,272,65691,5,0,0:0:0:0:
152,232,65845,2,0,P|188:208|204:168,1,80.750001540184,0|8,0:0|0:0,0:0:0:0:
232,100,66153,1,0,0:0:0:0:
392,92,66307,1,4,0:0:0:0:
392,92,66461,2,0,P|349:109|308:108,1,80.750001540184,0|8,0:0|0:0,0:0:0:0:
276,100,66691,1,0,0:0:0:0:
276,100,66768,2,0,L|320:172,1,80.750001540184
364,236,67076,5,0,0:0:0:0:
318,168,67230,1,8,0:0:0:0:
296,288,67384,1,0,0:0:0:0:
184,332,67538,1,2,0:0:0:0:
184,332,67691,2,0,P|144:300|108:292,1,80.750001540184,0|8,0:0|0:0,0:0:0:0:
76,292,67922,1,0,0:0:0:0:
76,292,67999,2,0,P|116:272|148:240,1,80.750001540184
184,180,68307,1,0,0:0:0:0:
176,100,68461,1,8,0:0:0:0:
128,36,68614,1,0,0:0:0:0:
128,36,68768,6,0,P|200:80|276:68,1,161.500003080368,2|8,0:0|0:0,0:0:0:0:
352,44,69230,1,0,0:0:0:0:
352,44,69538,5,0,0:0:0:0:
280,188,69691,1,8,0:0:0:0:
424,112,69845,2,0,B|380:120|360:152|360:152|380:192|356:236,1,161.500003080368
284,308,70307,1,8,0:0:0:0:
180,320,70461,1,0,0:0:0:0:
84,276,70614,5,2,0:0:0:0:
104,260,70691,1,0,0:0:0:0:
120,244,70768,1,0,0:0:0:0:
132,224,70845,1,0,0:0:0:0:
144,204,70922,1,8,0:0:0:0:
152,180,70999,1,0,0:0:0:0:
156,156,71076,1,0,0:0:0:0:
156,132,71153,1,0,0:0:0:0:
148,104,71230,6,0,P|104:88|52:96,2,95,4|0|8,0:0|0:0|0:0,0:0:0:0:
248,128,71691,2,0,P|292:144|340:128,1,95
392,52,71999,2,0,P|424:88|429:140,1,95,0|8,0:0|0:0,0:0:0:0:
392,220,72307,2,0,B|352:252|356:308|356:308|304:316|268:280,1,190
220,204,72768,1,8,0:0:0:0:
220,204,72922,2,0,P|194:164|152:143,1,95
141,236,73230,1,0,0:0:0:0:
141,236,73307,1,0,0:0:0:0:
141,236,73384,2,0,P|99:214|52:216,1,95,8|0,0:0|0:0,0:0:0:0:
92,304,73691,6,0,P|133:325|180:323,1,95,4|0,0:0|0:0,0:0:0:0:
268,288,73999,1,8,0:0:0:0:
428,200,74153,1,0,0:0:0:0:
428,200,74461,6,0,P|406:162|418:110,1,95,0|8,0:0|0:0,0:0:0:0:
464,56,74768,1,0,0:0:0:0:
464,56,74845,1,0,0:0:0:0:
464,56,74922,2,0,L|368:72,1,95,2|0,0:0|0:0,0:0:0:0:
240,132,75230,2,0,L|332:168,1,95,8|0,0:0|0:0,0:0:0:0:
408,288,75538,1,0,0:0:0:0:
408,288,75691,2,0,L|316:252,1,95,0|8,0:0|0:0,0:0:0:0:
140,188,76153,6,0,P|109:228|106:278,1,95,4|0,0:0|0:0,0:0:0:0:
200,248,76461,1,8,0:0:0:0:
200,248,76614,2,0,P|230:207|233:157,1,95
216,72,76922,5,0,0:0:0:0:
280,220,77076,1,8,0:0:0:0:
436,256,77230,2,0,L|344:292,1,95
184,272,77538,1,0,0:0:0:0:
184,272,77614,1,0,0:0:0:0:
184,272,77691,2,0,L|280:236,1,95,8|0,0:0|0:0,0:0:0:0:
400,96,78153,5,0,0:0:0:0:
312,56,78307,1,8,0:0:0:0:
228,100,78461,2,0,P|184:124|136:128,1,95
44,116,78768,1,0,0:0:0:0:
104,40,78922,1,8,0:0:0:0:
140,128,79076,1,0,0:0:0:0:
88,280,79230,2,0,B|96:248|116:236|116:236|144:236|164:224,1,95
312,184,79538,5,8,0:0:0:0:
312,184,79691,2,0,B|304:215|284:228|284:228|256:227|236:240,1,95,8|0,0:0|0:0,0:0:0:0:
124,160,79999,1,0,0:0:0:0:
248,88,80153,1,8,0:0:0:0:
60,116,80307,1,0,0:0:0:0:
312,128,80461,1,4,0:0:0:0:
428,208,80614,5,0,0:0:0:0:
416,230,80691,1,0,0:0:0:0:
397,248,80768,1,8,0:0:0:0:
380,262,80845,1,0,0:0:0:0:
359,271,80922,1,0,0:0:0:0:
330,276,80999,1,0,0:0:0:0:
302,272,81076,6,0,P|253:270|211:289,1,95,4|0,0:0|0:0,0:0:0:0:
124,324,81384,1,8,0:0:0:0:
68,248,81538,1,0,0:0:0:0:
68,248,81691,2,0,P|61:188|85:149,1,95
140,88,81999,1,8,0:0:0:0:
292,32,82153,6,0,B|324:76|320:120|320:120|360:144|412:112,1,190,4|0,0:0|0:0,0:0:0:0:
492,64,82614,1,8,0:0:0:0:
488,160,82768,1,0,0:0:0:0:
488,160,82845,1,0,0:0:0:0:
488,160,82922,2,0,P|469:198|429:230,1,95
276,288,83230,1,8,0:0:0:0:
96,228,83538,1,4,0:0:0:0:
96,228,83845,6,0,P|77:177|85:136,1,95,8|0,0:0|0:0,0:0:0:0:
132,56,84153,1,0,0:0:0:0:
240,152,84307,1,0,0:0:0:0:
240,152,84384,1,0,0:0:0:0:
240,152,84461,1,8,0:0:0:0:
184,280,84614,6,0,B|220:320|272:316|272:316|272:264|316:232,1,190,2|0,2:0|0:0,0:0:0:0:
396,196,85076,1,8,0:0:0:0:
488,216,85230,1,0,0:0:0:0:
488,216,85307,1,0,0:0:0:0:
488,216,85384,2,0,P|488:168|460:124,1,95
348,20,85691,2,0,P|348:67|376:111,1,95,8|0,0:0|0:0,0:0:0:0:
464,128,85999,2,0,B|384:95|352:203|272:135,1,190,4|8,0:0|0:0,0:0:0:0:
148,68,86614,5,2,0:0:0:0:
104,152,86768,1,0,0:0:0:0:
124,244,86922,1,8,0:0:0:0:
200,304,87076,1,0,0:0:0:0:
416,116,87384,5,0,0:0:0:0:
340,172,87538,1,8,0:0:0:0:
244,180,87691,1,0,0:0:0:0:
84,76,87999,5,0,0:0:0:0:
172,44,88153,1,8,0:0:0:0:
264,64,88307,1,0,0:0:0:0:
320,140,88461,1,2,0:0:0:0:
320,140,88614,2,0,P|336:184|376:208,1,95,0|8,0:0|0:0,0:0:0:0:
460,164,88922,1,0,0:0:0:0:
460,164,89076,2,0,P|476:208|464:256,1,95
400,324,89384,5,8,0:0:0:0:
292,336,89538,1,0,0:0:0:0:
156,252,89691,2,0,P|192:212|196:164,1,95,2|0,0:0|0:0,0:0:0:0:
176,140,89922,1,0,0:0:0:0:
176,140,89999,2,0,L|272:176,1,95,8|0,0:0|0:0,0:0:0:0:
356,204,90307,1,0,0:0:0:0:
256,44,90614,5,8,0:0:0:0:
256,72,90768,1,0,0:0:0:0:
256,156,91230,5,4,0:0:0:0:
220,308,99538,6,0,L|246:276,3,40.375000770092,4|0|0|0,0:0|0:0|0:0|0:0,0:0:0:0:
283,283,99845,2,0,L|309:251,3,40.375000770092,8|0|0|0,0:0|0:0|0:0|0:0,0:0:0:0:
348,260,100153,1,2,0:0:0:0:
372,228,100230,1,0,0:0:0:0:
396,196,100307,1,0,0:0:0:0:
444,132,100461,1,8,0:0:0:0:
300,56,100768,5,4,0:0:0:0:
164,144,101076,1,8,0:0:0:0:
164,144,101230,1,8,0:0:0:0:
404,104,101691,1,8,0:0:0:0:
404,104,102307,5,8,0:0:0:0:
404,104,102461,1,8,0:0:0:0:
256,296,102922,1,8,0:0:0:0:
256,296,103538,5,8,0:0:0:0:
256,296,103691,1,8,0:0:0:0:
256,52,104153,1,8,0:0:0:0:
256,52,104768,5,8,0:0:0:0:
256,52,104922,1,8,0:0:0:0:
80,220,105384,1,8,0:0:0:0:
80,220,105999,5,8,0:0:0:0:
80,220,106153,1,8,0:0:0:0:
320,252,106614,1,8,0:0:0:0:
320,252,107230,5,8,0:0:0:0:
320,252,107384,1,8,0:0:0:0:
460,176,107691,6,0,P|436:136|404:116,1,80.750001540184,0|8,0:0|0:0,0:0:0:0:
332,92,107999,1,0,0:0:0:0:
252,88,108153,2,0,B|192:80|152:120|152:120|176:172|136:208,1,201.87500385046,2|0,0:0|0:0,0:0:0:0:
92,156,108614,2,0,P|192:176|272:236,1,201.87500385046,2|0,0:0|0:0,0:0:0:0:
320,284,109076,2,0,B|380:292|420:252|420:252|396:200|432:164,1,201.87500385046,2|0,0:0|0:0,0:3:0:0:
480,216,109537,2,0,P|392:200|336:156,1,161.500003080368,2|0,0:0|0:0,0:3:0:0:
128,76,110614,5,4,0:0:0:0:
128,76,110922,6,8,P|168:92|216:92,1,80.750001540184,8|0,0:0|0:0,0:0:0:0:
284,72,111230,2,0,P|280:124|264:148,1,80.750001540184
200,196,111538,1,8,0:0:0:0:
336,172,111691,1,0,0:0:0:0:
444,260,111845,6,0,P|472:292|476:328,2,80.750001540184,2|0|8,0:0|0:0|0:0,0:0:0:0:
372,220,112307,1,0,0:0:0:0:
372,220,112461,2,0,P|348:264|316:284,1,80.750001540184
244,304,112768,1,8,0:0:0:0:
144,208,112922,5,0,0:0:0:0:
144,208,112999,1,0,0:0:0:0:
144,208,113076,2,0,B|128:164|140:124,1,80.750001540184,2|0,0:0|0:0,0:0:0:0:
252,48,113384,1,8,0:0:0:0:
252,48,113538,2,0,B|267:91|255:131,1,80.750001540184
228,204,113845,1,0,0:0:0:0:
192,276,113999,5,8,0:0:0:0:
192,276,114153,2,0,P|232:284|272:270,1,80.750001540184
340,236,114461,2,0,B|357:274|335:317,2,80.750001540184,0|8|0,0:0|0:0|0:0,0:0:0:0:
276,112,114922,5,2,0:0:0:0:
399,173,115076,1,0,0:0:0:0:
265,196,115230,1,8,0:0:0:0:
360,97,115384,1,0,0:0:0:0:
340,236,115538,1,2,0:0:0:0:
340,236,115614,1,0,0:0:0:0:
340,236,115691,1,0,0:0:0:0:
212,280,115845,6,0,P|240:312|280:328,1,80.750001540184,8|0,0:0|0:0,0:0:0:0:
404,284,116153,1,2,0:0:0:0:
404,284,116307,2,0,P|376:251|336:235,1,80.750001540184,0|8,0:0|0:0,0:0:0:0:
264,216,116614,1,0,0:0:0:0:
256,56,116922,1,0,0:0:0:0:
412,92,117230,5,0,0:0:0:0:
412,92,117307,1,0,0:0:0:0:
412,92,117384,2,0,P|388:128|348:144,1,80.750001540184,2|0,0:0|0:0,0:0:0:0:
188,136,117691,1,8,0:0:0:0:
332,64,117845,1,4,0:0:0:0:
116,304,118153,5,0,0:0:0:0:
216,304,118307,1,8,0:0:0:0:
116,236,118461,1,0,0:0:0:0:
232,196,118614,1,2,0:0:0:0:
96,176,118768,1,0,0:0:0:0:
204,92,118922,1,8,0:0:0:0:
56,128,119076,1,4,0:0:0:0:
356,56,119384,5,4,0:0:0:0:
404,44,119691,1,4,0:0:0:0:
336,192,119999,6,0,P|368:232|404:248,1,80.750001540184,0|8,0:0|0:0,0:0:0:0:
256,232,120307,1,0,0:0:0:0:
256,232,120461,2,0,P|224:192|188:175,1,80.750001540184,2|0,0:0|0:0,0:0:0:0:
120,160,120768,1,8,0:0:0:0:
56,112,120922,5,8,0:0:0:0:
56,112,121076,2,0,P|88:84|128:80,1,80.750001540184,0|0,0:0|0:0,0:0:0:0:
204,92,121384,1,0,0:0:0:0:
280,120,121538,1,0,0:0:0:0:
280,120,121614,1,0,0:0:0:0:
280,120,121691,2,0,P|320:132|368:128,1,80.750001540184,2|0,0:0|0:0,0:0:0:0:
440,116,121999,1,8,0:0:0:0:
440,116,122153,2,0,B|432:72|392:56,2,80.750001540184,8|0|0,0:0|0:0|0:0,0:0:0:0:
452,196,122614,1,0,0:0:0:0:
368,304,122768,1,0,0:0:0:0:
260,220,122922,6,0,P|200:196|152:220,1,121.125002310276,4|0,0:0|0:0,0:0:0:0:
120,248,123230,2,0,L|152:168,1,80.750001540184,8|8,0:0|0:0,0:0:0:0:
149,173,123691,5,0,0:0:0:0:
296,108,123845,1,8,0:0:0:0:
136,100,123999,2,0,P|92:88|64:60,1,80.750001540184,2|0,0:0|0:0,0:0:0:0:
228,68,124307,2,0,P|260:35|298:25,1,80.750001540184,0|8,0:0|0:0,0:0:0:0:
204,160,124614,2,0,P|215:204|205:242,1,80.750001540184,4|0,0:0|0:0,0:0:0:0:
156,300,124922,5,0,0:0:0:0:
256,232,125076,1,8,0:0:0:0:
140,200,125230,1,0,0:0:0:0:
164,80,125384,2,0,P|184:40|216:16,2,80.750001540184,2|0|8,0:0|0:0|0:0,0:0:0:0:
244,92,125845,5,0,0:0:0:0:
244,92,125999,2,0,P|280:104|312:140,1,80.750001540184,2|0,0:0|0:0,0:0:0:0:
344,264,126307,1,8,0:0:0:0:
344,264,126461,2,0,P|308:251|276:215,1,80.750001540184,0|4,0:0|0:0,0:0:0:0:
404,120,126922,5,8,0:0:0:0:
404,120,127076,2,0,P|436:92|448:56,1,80.750001540184,8|0,0:0|0:0,0:0:0:0:
312,88,127384,2,0,P|303:129|315:165,1,80.750001540184,0|8,0:0|0:0,0:0:0:0:
384,284,127691,1,8,0:0:0:0:
384,284,127768,1,0,0:0:0:0:
384,284,127845,2,0,P|344:268|308:272,1,80.750001540184,4|0,0:0|0:0,0:0:0:0:
228,292,128153,1,0,0:0:0:0:
228,292,128307,1,0,0:0:0:0:
128,192,128461,5,2,0:0:0:0:
200,116,128614,1,0,0:0:0:0:
296,156,128768,1,8,0:0:0:0:
384,96,128922,1,0,0:0:0:0:
384,96,129076,6,0,P|400:140|432:164,1,80.750001540184,2|0,0:0|0:0,0:0:0:0:
504,188,129384,1,8,0:0:0:0:
504,188,129538,2,0,P|480:224|436:244,1,80.750001540184,0|0,0:0|0:0,0:0:0:0:
384,292,129845,2,0,P|416:316|464:320,1,80.750001540184,0|8,0:0|0:0,0:0:0:0:
292,188,130153,5,0,0:0:0:0:
292,188,130230,1,0,0:0:0:0:
292,188,130307,2,0,B|288:136|248:120|248:120|212:144|172:132,1,161.500003080368,2|8,0:0|0:0,0:0:0:0:
100,156,130768,2,0,P|99:120|118:80,1,80.750001540184
192,48,131076,1,0,0:0:0:0:
328,56,131230,1,8,0:0:0:0:
416,164,131384,2,0,P|404:204|416:244,1,80.750001540184
344,284,131691,2,0,P|372:311|410:324,2,80.750001540184,0|8|0,0:0|0:0|0:0,0:0:0:0:
288,224,132153,5,4,0:0:0:0:
256,196,132230,1,0,0:0:0:0:
216,184,132307,1,0,0:0:0:0:
176,184,132384,1,0,0:0:0:0:
136,184,132461,1,8,0:0:0:0:
96,180,132538,1,0,0:0:0:0:
60,160,132614,1,0,0:0:0:0:
40,124,132691,1,0,0:0:0:0:
36,84,132768,6,0,B|72:64|68:16|68:16|120:4|176:32,1,190,4|8,0:0|0:0,0:0:0:0:
260,72,133230,1,0,0:0:0:0:
404,192,133538,1,0,0:0:0:0:
404,192,133614,1,0,0:0:0:0:
404,192,133691,2,0,P|424:240|460:264,2,95,8|0|0,0:0|0:0|0:0,0:0:0:0:
392,96,134153,1,0,0:0:0:0:
392,96,134307,6,0,P|344:112|316:148,1,95,8|0,0:0|0:0,0:0:0:0:
156,144,134615,2,0,P|193:177|239:183,1,95
312,328,134922,2,0,P|322:278|304:236,1,95,8|0,0:0|0:0,0:0:0:0:
220,100,135230,6,0,P|179:111|131:93,1,95,4|0,0:0|0:0,0:0:0:0:
36,84,135538,1,8,0:0:0:0:
36,84,135691,2,0,P|68:128|68:172,1,95
40,260,135999,6,0,P|49:307|84:340,2,95,0|8|0,0:0|0:0|0:0,0:0:0:0:
136,260,136461,2,0,P|177:224|186:181,1,95,2|0,0:0|0:0,0:0:0:0:
180,92,136768,1,8,0:0:0:0:
180,92,136922,1,0,0:0:0:0:
252,236,137076,2,0,P|296:260|344:260,1,95
432,240,137384,1,8,0:0:0:0:
332,80,137691,5,4,0:0:0:0:
240,56,137845,2,0,P|240:108|268:152,1,95,0|8,0:0|0:0,0:0:0:0:
344,192,138153,2,0,P|292:192|256:216,1,95
188,284,138461,1,0,0:0:0:0:
264,112,138614,1,8,0:0:0:0:
376,264,138768,1,0,0:0:0:0:
176,176,139076,5,0,0:0:0:0:
288,328,139230,1,8,0:0:0:0:
364,164,139384,1,0,0:0:0:0:
196,72,139691,5,0,0:0:0:0:
196,72,139845,1,8,0:0:0:0:
196,72,139999,2,0,P|164:108|120:124,1,95
24,128,140307,1,0,0:0:0:0:
88,200,140461,1,8,0:0:0:0:
184,204,140614,1,0,0:0:0:0:
264,152,140768,1,2,0:0:0:0:
264,152,140922,1,8,0:0:0:0:
356,128,141076,5,8,0:0:0:0:
356,128,141230,2,0,P|356:176|332:216,1,95
256,272,141538,1,2,0:0:0:0:
424,184,141691,1,8,0:0:0:0:
328,20,141845,1,2,0:0:0:0:
152,96,141999,1,4,0:0:0:0:
72,148,142153,5,0,0:0:0:0:
88,188,142230,1,0,0:0:0:0:
128,204,142307,1,8,0:0:0:0:
172,200,142384,1,0,0:0:0:0:
212,208,142461,1,0,0:0:0:0:
248,232,142538,1,0,0:0:0:0:
264,272,142614,6,0,P|284:312|336:328,2,95,4|0|8,0:0|0:0|0:0,0:0:0:0:
348,224,143076,2,0,P|340:176|308:144,1,95
176,48,143384,2,0,P|192:93|229:119,1,95,0|8,0:0|0:0,0:0:0:0:
388,156,143691,6,0,P|432:176|454:223,2,95
228,152,144153,1,8,0:0:0:0:
464,84,144461,1,2,0:0:0:0:
328,288,144768,1,8,0:0:0:0:
144,340,145076,6,0,P|116:300|116:252,1,95,4|0,0:0|0:0,0:0:0:0:
152,168,145384,1,8,0:0:0:0:
152,168,145461,1,0,0:0:0:0:
152,168,145538,2,0,P|184:208|232:216,1,95
312,180,145845,1,0,0:0:0:0:
228,132,145999,1,8,0:0:0:0:
420,136,146153,1,0,0:0:0:0:
420,136,146230,1,0,0:0:0:0:
420,136,146307,1,2,0:0:0:0:
316,296,146614,6,0,B|372:300|400:248,2,95,8|0|0,0:0|0:0|0:0,0:0:0:0:
220,292,147076,2,0,B|216:348|267:376,2,95,0|8|0,0:0|0:0|0:0,0:0:0:0:
276,216,147538,1,0,0:0:0:0:
276,216,147614,1,0,0:0:0:0:
276,216,147691,2,0,L|276:116,1,95,0|8,0:0|0:0,0:0:0:0:
276,121,148153,5,2,0:0:0:0:
196,172,148307,1,0,0:0:0:0:
356,172,148461,1,8,0:0:0:0:
432,116,148614,1,0,0:0:0:0:
432,116,148922,5,0,0:0:0:0:
288,48,149076,1,8,0:0:0:0:
132,96,149230,2,0,P|80:88|44:60,2,95
224,112,149691,2,0,P|200:160|160:181,1,95,8|0,0:0|0:0,0:0:0:0:
120,336,149999,6,0,P|143:287|183:266,2,95,2|0|8,0:0|0:0|0:0,0:0:0:0:
280,360,150461,2,0,P|322:335|344:295,1,95
344,200,150768,2,0,P|372:244|416:272,1,95,0|8,0:0|0:0,0:0:0:0:
436,176,151076,5,0,0:0:0:0:
436,176,151230,2,0,P|428:128|404:84,1,95,2|0,0:0|0:0,0:0:0:0:
328,32,151538,1,8,0:0:0:0:
272,108,151691,1,0,0:0:0:0:
272,108,151768,1,0,0:0:0:0:
272,108,151845,2,0,L|168:108,1,95
80,108,152153,1,8,0:0:0:0:
204,212,152307,1,2,0:0:0:0:
118,171,157691,5,8,0:0:0:0:
224,232,157845,1,8,0:0:0:0:
224,232,158307,1,8,0:0:0:0:
310,318,158922,5,8,0:0:0:0:
312,200,159076,1,8,0:0:0:0:
312,200,159538,1,8,0:0:0:0:
344,80,160153,5,8,0:0:0:0:
241,139,160307,1,8,0:0:0:0:
241,139,160769,1,8,0:0:0:0:
92,204,161076,5,0,0:0:0:0:
104,220,161153,1,0,0:0:0:0:
120,232,161230,1,0,0:0:0:0:
140,240,161307,1,0,0:0:0:0:
160,244,161384,1,8,0:0:0:0:
180,244,161461,1,0,0:0:0:0:
200,248,161538,1,8,0:0:0:0:
220,256,161614,1,0,0:0:0:0:
236,268,161691,1,8,0:0:0:0:
372,280,161845,1,8,0:0:0:0:
296,52,162307,5,4,0:0:0:0:
299,71,162384,1,0,0:0:0:0:
298,93,162461,1,0,0:0:0:0:
289,111,162538,1,0,0:0:0:0:
277,127,162614,1,8,0:0:0:0:
259,136,162691,1,0,0:0:0:0:
240,140,162768,2,0,P|280:151|315:176,1,80.750001540184,0|2,0:0|0:0,0:0:0:0:
340,248,163076,5,0,0:0:0:0:
340,248,163230,2,0,P|371:269|411:281,2,80.750001540184,8|0|0,0:0|0:0|0:0,0:0:0:0:
228,168,163691,1,0,0:0:0:0:
100,216,163845,1,8,0:0:0:0:
172,100,163999,2,0,P|208:80|248:84,1,80.750001540184
376,132,164307,6,0,P|412:104|424:68,2,80.750001540184,0|8|0,0:0|0:0|0:0,0:0:0:0:
136,251,164922,6,0,P|100:280|88:316,2,80.750001540184,0|8|0,0:0|0:0|0:0,0:0:0:0:
408,204,165538,6,0,L|496:204,2,80.750001540184,0|8|0,0:0|0:0|0:0,0:0:0:0:
136,176,166153,5,0,0:0:0:0:
104,176,166461,5,0,0:0:0:0:
184,64,166614,2,0,P|212:100|248:116,1,80.750001540184,0|0,0:0|0:0,0:0:0:0:
324,124,166922,1,8,0:0:0:0:
396,160,167076,5,0,0:0:0:0:
388,192,167153,1,0,0:0:0:0:
368,216,167230,1,0,0:0:0:0:
340,232,167307,1,0,0:0:0:0:
308,236,167384,1,0,0:0:0:0:
308,236,167461,1,0,0:0:0:0:
308,236,167538,2,0,P|260:240|228:260,1,80.750001540184,8|0,0:0|0:0,0:0:0:0:
168,304,167845,1,0,0:0:0:0:
120,180,167999,5,8,0:0:0:0:
144,160,168076,1,0,0:0:0:0:
164,136,168153,1,8,0:0:0:0:
164,136,168230,1,0,0:0:0:0:
164,136,168307,2,0,B|194:109|190:68|190:68|230:52|277:82,1,161.500003080368
336,128,168768,5,8,0:0:0:0:
392,188,168922,1,0,0:0:0:0:
436,312,169076,1,0,0:0:0:0:
480,200,169230,1,0,0:0:0:0:
428,92,169384,1,8,0:0:0:0:
316,44,169538,1,0,0:0:0:0:
96,148,169845,5,0,0:0:0:0:
96,148,169922,1,0,0:0:0:0:
96,148,169999,1,8,0:0:0:0:
204,204,170153,1,0,0:0:0:0:
204,204,170230,1,0,0:0:0:0:
204,204,170307,1,2,0:0:0:0:
252,92,170461,1,0,0:0:0:0:
252,92,170538,1,0,0:0:0:0:
252,92,170614,1,8,0:0:0:0:
358,144,170768,2,0,P|406:198|378:275,1,161.500003080368
314,321,171230,5,8,0:0:0:0:
314,321,171384,2,0,P|276:308|232:308,1,80.750001540184
216,308,171614,1,0,0:0:0:0:
196,308,171691,1,0,0:0:0:0:
176,308,171768,1,0,0:0:0:0:
156,308,171845,1,8,0:0:0:0:
136,308,171922,1,0,0:0:0:0:
116,308,171999,1,0,0:0:0:0:
96,308,172076,1,0,0:0:0:0:
76,308,172153,1,0,0:0:0:0:
116,56,172768,5,4,0:0:0:0:
132,68,172845,1,0,0:0:0:0:
144,84,172922,1,0,0:0:0:0:
152,100,172999,1,0,0:0:0:0:
156,120,173076,1,8,0:0:0:0:
156,140,173153,1,0,0:0:0:0:
152,160,173230,2,0,P|192:140|236:136,1,80.750001540184,0|2,0:0|0:0,0:0:0:0:
308,140,173538,1,0,0:0:0:0:
308,140,173691,6,0,P|300:96|272:68,1,80.750001540184,8|0,0:0|0:0,0:0:0:0:
360,212,173999,2,0,P|402:227|440:216,1,80.750001540184,2|0,0:0|0:0,0:0:0:0:
272,216,174307,2,0,P|237:244|227:283,1,80.750001540184,8|0,0:0|0:0,0:0:0:0:
144,320,174614,6,0,P|136:268|152:220,1,95,4|0,0:0|0:0,0:0:0:0:
52,228,174922,1,8,0:0:0:0:
52,228,175076,2,0,P|67:177|103:141,1,95,0|0,0:0|0:0,0:0:0:0:
148,68,175384,2,0,L|240:40,1,95,0|8,0:0|0:0,0:0:0:0:
396,84,175691,5,0,0:0:0:0:
396,84,175768,1,0,0:0:0:0:
396,84,175845,2,0,L|304:112,1,95,4|0,0:0|0:0,0:0:0:0:
212,124,176153,2,0,P|236:172|228:212,1,95,8|0,0:0|0:0,0:0:0:0:
240,304,176461,2,0,P|186:300|155:273,1,95,0|0,0:0|0:0,0:0:0:0:
68,244,176768,2,0,P|97:199|136:186,1,95,8|4,0:0|0:0,0:0:0:0:
324,172,177076,5,4,0:0:0:0:
324,172,177384,1,8,0:0:0:0:
324,172,177538,2,0,P|312:120|284:92,1,95,0|0,0:0|0:0,0:0:0:0:
128,132,177845,1,0,0:0:0:0:
128,132,177999,1,8,0:0:0:0:
128,132,178153,2,0,P|168:160|212:164,1,95,0|2,0:0|0:0,0:0:0:0:
376,152,178461,5,0,0:0:0:0:
376,152,178615,1,8,0:0:0:0:
376,152,178769,2,0,P|361:198|329:228,1,95,0|2,0:0|0:0,0:0:0:0:
240,268,179076,5,0,0:0:0:0:
144,268,179230,1,8,0:0:0:0:
56,232,179384,1,0,0:0:0:0:
56,232,179691,5,0,0:0:0:0:
188,180,179845,1,8,0:0:0:0:
72,96,179999,1,0,0:0:0:0:
204,44,180153,1,0,0:0:0:0:
204,44,180307,6,0,P|248:28|296:44,2,95,0|8|0,0:0|0:0|0:0,0:0:0:0:
132,104,180768,1,0,0:0:0:0:
267,236,180922,1,2,0:0:0:0:
78,209,181076,1,10,0:0:0:0:
249,128,181230,1,2,0:0:0:0:
160,296,181384,1,4,0:0:0:0:
296,336,181538,5,0,0:0:0:0:
330,325,181614,1,0,0:0:0:0:
362,302,181691,1,0,0:0:0:0:
381,270,181768,1,0,0:0:0:0:
382,233,181845,1,0,0:0:0:0:
371,199,181922,1,0,0:0:0:0:
345,171,181999,2,0,P|311:135|309:80,1,95,4|0,0:0|0:0,0:0:0:0:
384,104,182307,5,8,0:0:0:0:
384,104,182461,2,0,P|428:88|472:108,1,95,0|0,0:0|0:0,0:0:0:0:
428,168,182768,2,0,L|428:264,1,95,0|8,0:0|0:0,0:0:0:0:
408,336,183076,2,0,B|352:316|352:256|352:256|312:228|272:236,1,190,4|0,0:0|0:0,0:0:0:0:
208,280,183538,2,0,P|188:236|204:188,1,95,8|0,0:0|0:0,0:0:0:0:
124,180,183845,2,0,P|144:136|191:117,1,95
260,112,184153,1,8,0:0:0:0:
392,192,184461,6,0,B|416:240|472:240,2,95,4|0|8,0:0|0:0|0:0,0:0:0:0:
452,120,184922,2,0,P|404:96|364:100,1,95
256,216,185230,1,0,0:0:0:0:
256,216,185538,6,0,P|268:168|248:128,1,95
164,84,185845,1,0,0:0:0:0:
164,84,185999,2,0,P|212:92|256:72,1,95,8|0,0:0|0:0,0:0:0:0:
344,40,186307,2,0,P|349:84|328:128,1,95
420,148,186614,2,0,P|402:189|362:217,1,95,8|0,0:0|0:0,0:0:0:0:
280,264,186922,2,0,P|264:308|284:352,2,95,4|0|8,0:0|0:0|0:0,0:0:0:0:
280,72,187538,5,0,0:0:0:0:
188,92,187691,1,0,0:0:0:0:
128,168,187845,1,8,0:0:0:0:
124,264,187999,1,0,0:0:0:0:
300,192,188307,6,0,P|345:180|392:189,2,95,0|8|0,0:0|0:0|0:0,0:0:0:0:
168,328,188922,6,0,P|208:296|216:244,1,95,0|8,0:0|0:0,0:0:0:0:
188,92,189230,1,0,0:0:0:0:
188,92,189307,1,0,0:0:0:0:
188,92,189384,2,0,P|148:124|140:176,2,95,2|0|8,0:0|0:0|0:0,0:0:0:0:
280,76,189845,1,0,0:0:0:0:
248,164,189999,2,0,P|268:208|304:240,1,95,0|0,0:0|0:0,0:0:0:0:
392,276,190307,1,8,0:0:0:0:
488,264,190461,1,0,0:0:0:0:
400,128,190614,6,0,P|375:87|372:40,1,95,4|0,0:0|0:0,0:0:0:0:
468,60,190922,1,8,0:0:0:0:
372,40,191076,1,0,0:0:0:0:
280,60,191230,2,0,P|240:84|214:124,1,95,0|0,0:0|0:0,0:0:0:0:
168,208,191538,1,8,0:0:0:0:
152,300,191691,1,0,0:0:0:0:
88,152,191845,6,0,P|124:108|133:63,1,95,4|0,0:0|0:0,0:0:0:0:
36,68,192153,1,8,0:0:0:0:
132,72,192307,1,0,0:0:0:0:
208,128,192461,2,0,P|236:167|279:188,1,95,0|0,0:0|0:0,0:0:0:0:
372,184,192768,1,8,0:0:0:0:
464,156,192922,1,0,0:0:0:0:
380,292,193076,6,0,P|345:324|300:337,1,95,4|0,0:0|0:0,0:0:0:0:
140,304,193384,1,8,0:0:0:0:
188,148,193538,1,0,0:0:0:0:
188,148,193614,1,0,0:0:0:0:
188,148,193691,2,0,P|215:104|268:88,1,95
96,124,193999,5,8,0:0:0:0:
96,124,194153,2,0,P|91:170|116:211,1,95,0|4,0:0|0:0,0:0:0:0:
256,292,194614,5,4,0:0:0:0:
392,204,194922,5,8,0:0:0:0:
380,124,195076,2,0,P|421:125|459:157,2,80.750001540184
220,148,195691,1,0,0:0:0:0:
164,208,195845,1,8,0:0:0:0:
160,288,195999,1,0,0:0:0:0:
320,324,196307,5,0,0:0:0:0:
424,264,196461,1,8,0:0:0:0:
440,144,196614,2,0,P|410:172|372:186,1,80.750001540184
256,216,196922,5,0,0:0:0:0:
140,184,197076,1,8,0:0:0:0:
88,76,197230,2,0,P|125:92|168:89,1,80.750001540184
280,52,197538,5,0,0:0:0:0:
377,122,197692,1,8,0:0:0:0:
392,244,197846,2,0,P|349:245|311:267,1,80.750001540184
212,324,198153,5,0,0:0:0:0:
84,256,198307,1,8,0:0:0:0:
64,112,198461,2,0,P|106:110|144:88,1,80.750001540184
248,44,198768,5,0,0:0:0:0:
248,44,198845,1,0,0:0:0:0:
248,44,198922,2,0,B|260:88|240:128|240:128|244:172|280:196,1,161.500003080368,8|0,0:0|0:0,0:0:0:0:
274,192,199538,5,4,0:0:0:0:
324,348,199845,5,0,0:0:0:0:
324,348,199999,2,0,P|367:325|386:294,1,80.750001540184,0|8,0:0|0:0,0:0:0:0:
404,180,200307,1,0,0:0:0:0:
404,180,200384,1,0,0:0:0:0:
404,180,200461,2,0,P|368:152|356:112,1,80.750001540184,0|0,0:0|0:0,0:0:0:0:
340,40,200768,1,8,0:0:0:0:
180,80,201076,5,0,0:0:0:0:
112,128,201230,1,0,0:0:0:0:
112,128,201384,2,0,P|89:165|89:210,1,80.750001540184,8|0,0:0|0:0,0:0:0:0:
168,188,201691,1,0,0:0:0:0:
232,236,201845,1,0,0:0:0:0:
344,192,201999,1,8,0:0:0:0:
372,76,202153,1,0,0:0:0:0:
132,56,202461,5,0,0:0:0:0:
236,116,202614,1,8,0:0:0:0:
232,236,202768,2,0,P|224:280|236:320,1,80.750001540184,4|0,0:0|0:0,0:0:0:0:
320,272,203076,2,0,L|400:272,2,80.750001540184,0|8|0,0:0|0:0|0:0,0:0:0:0:
160,268,203691,2,0,B|121:287|112:332,2,80.750001540184,0|8|0,0:0|0:0|0:0,0:0:0:0:
92,224,204153,2,0,P|128:192|172:188,1,80.750001540184
240,184,204461,1,4,0:0:0:0:
396,224,204768,5,0,0:0:0:0:
396,224,204922,2,0,P|420:192|424:144,1,80.750001540184,0|8,0:0|0:0,0:0:0:0:
288,124,205230,2,0,P|265:98|221:90,1,80.750001540184,2|0,0:0|0:0,0:0:0:0:
140,100,205538,2,0,P|142:63|166:28,2,80.750001540184,0|8|0,0:0|0:0|0:0,0:0:0:0:
176,256,206153,5,0,0:0:0:0:
256,240,206307,1,8,0:0:0:0:
332,264,206461,2,0,P|360:232|396:220,1,80.750001540184
392,84,206768,5,0,0:0:0:0:
256,56,206922,1,8,0:0:0:0:
120,84,207076,2,0,P|156:112|172:148,1,80.750001540184
256,252,207384,6,0,L|256:332,2,80.750001540184,0|8|0,0:0|0:0|0:0,0:0:0:0:
256,92,207999,5,0,0:0:0:0:
256,92,208076,1,0,0:0:0:0:
256,92,208153,2,0,P|220:124|180:128,1,80.750001540184,8|0,0:0|0:0,0:0:0:0:
108,116,208461,1,0,0:0:0:0:
28,100,208614,1,0,0:0:0:0:
28,100,208768,2,0,P|28:140|60:180,1,80.750001540184,8|0,0:0|0:0,0:0:0:0:
60,252,209076,6,0,B|108:248|128:204|128:204|172:212|188:252,1,161.500003080368,0|4,0:0|0:0,0:0:0:0:
228,316,209538,2,0,P|258:287|273:245,1,80.750001540184,0|0,0:0|0:0,0:0:0:0:
344,288,209845,2,0,P|350:246|336:204,1,80.750001540184,0|8,0:0|0:0,0:0:0:0:
268,88,210153,5,0,0:0:0:0:
268,88,210230,1,0,0:0:0:0:
268,88,210307,2,0,P|312:96|360:84,1,80.750001540184
412,40,210614,2,0,P|428:76|424:120,1,80.750001540184,8|0,0:0|0:0,0:0:0:0:
388,188,210922,1,0,0:0:0:0:
256,192,211076,12,0,212614,0:0:0:0:
392,316,212922,5,0,0:0:0:0:
392,316,213076,1,8,0:0:0:0:
408,220,213230,1,0,0:0:0:0:
300,280,213384,1,2,0:0:0:0:
324,152,213538,1,0,0:0:0:0:
212,240,213691,1,8,0:0:0:0:
236,80,213845,1,0,0:0:0:0:
236,80,214307,5,4,0:0:0:0:
