osu file format v14

[General]
AudioFilename: IA - Lost Time Memory.mp3
AudioLeadIn: 2000
PreviewTime: 93931
Countdown: 0
SampleSet: Soft
StackLeniency: 0.7
Mode: 0
LetterboxInBreaks: 0
WidescreenStoryboard: 0

[Editor]
DistanceSpacing: 1.4
BeatDivisor: 4
GridSize: 4
TimelineZoom: 2.599999

[Metadata]
Title:Lost Time Memory
TitleUnicode:ロスタイムメモリー
Artist:Jin
ArtistUnicode:じん
Creator:luxoDeh
Version:Hard
Source:
Tags:Kagerou Project days vocaloid IA Mekakucity Records Actors 自然の敵P Shizen no Teki Shizu しづ leon1341414 Xinchii Irreversible
BeatmapID:389880
BeatmapSetID:157617

[Difficulty]
HPDrainRate:5
CircleSize:4
OverallDifficulty:6
ApproachRate:8
SliderMultiplier:1.2
SliderTickRate:1

[Events]
//Background and Video events
0,0,"687474703a2f2f7075752e73682f38743443662e6a7067.jpg",0,0
Video,0,"Lost+time+memory.flv"
//Break Periods
2,48560,56752
2,190274,193610
2,208560,216467
2,226703,228181
//Storyboard Layer 0 (Background)
//Storyboard Layer 1 (Fail)
//Storyboard Layer 2 (Pass)
//Storyboard Layer 3 (Foreground)
//Storyboard Sound Samples

[TimingPoints]
360,285.714285714286,4,2,0,70,1,0
38360,-100,4,3,0,70,0,0
38788,-100,4,2,0,70,0,0
38931,-100,4,2,1,70,0,0
94074,-100,4,2,1,70,0,1
100931,-133.333333333333,4,2,1,70,0,1
102645,-100,4,2,1,70,0,1
112074,-100,4,2,1,70,0,0
148002,-100,4,2,1,70,0,0
149217,-100,4,2,1,70,0,1
155788,-133.333333333333,4,2,1,70,0,1
157502,-100,4,2,1,70,0,1
164931,-133.333333333333,4,2,1,70,0,1
166217,-100,4,2,1,70,0,1
167074,-100,4,2,1,70,0,0
185574,-100,4,2,1,10,0,0
194360,-166.666666666667,4,2,0,50,0,0
217217,-100,4,2,1,70,0,0
229217,285.714285714286,4,2,0,70,1,0
229217,-100,4,2,1,70,0,1
236074,-133.333333333333,4,2,1,70,0,1
237788,-100,4,2,1,70,0,1
261074,-100,4,2,1,70,0,0
271217,-100,4,2,1,50,0,0
272788,-100,4,2,1,30,0,0
273931,-100,4,2,1,20,0,0
275360,-100,4,2,0,10,0,0

[Colours]
Combo1 : 255,128,128
Combo2 : 255,0,0
Combo3 : 128,128,192
Combo4 : 255,128,64

[HitObjects]
120,48,360,6,0,P|92:80|96:164,1,120,2|0,0:0|0:0,0:0:0:0:
124,320,931,2,0,P|152:288|148:204,1,120,0|0,0:0|0:0,0:0:0:0:
76,248,1360,1,0,0:0:0:0:
153,213,1502,2,0,L|213:185,1,60
288,232,1788,2,0,L|233:257,1,60
280,156,2074,2,0,P|332:168|364:232,1,120
336,304,2502,1,0,0:0:0:0:
288,232,2645,6,0,P|240:224|204:152,1,120,2|0,0:0|0:0,0:0:0:0:
92,40,3217,2,0,L|48:160,1,120
84,232,3645,2,0,P|114:212|149:207,1,60
140,288,3931,2,0,L|87:317,1,60
84,232,4217,2,0,P|128:208|204:244,1,120
433,138,4788,1,0,0:0:0:0:
433,138,4931,6,0,P|397:154|301:130,1,120,2|0,0:0|0:0,0:0:0:0:
180,76,5502,2,0,P|216:60|312:84,1,120
244,140,5931,2,0,L|196:196,1,60
228,268,6217,2,0,L|276:216,1,60
293,71,6502,2,0,P|235:57|179:75,1,120
116,132,6931,2,0,L|76:176,1,60
68,260,7217,6,0,P|16:236|-8:160,1,120
104,56,7788,2,0,P|152:64|192:132,1,120
216,200,8217,2,0,P|244:240|336:240,1,120
292,172,8645,2,0,L|280:104,2,60
312,252,9074,1,0,0:0:0:0:
336,332,9217,2,0,P|372:312|388:288,1,60
312,252,9502,6,0,P|264:280|256:356,1,120,2|0,0:0|0:0,0:0:0:0:
392,248,10074,2,0,P|432:236|452:148,1,120
376,164,10502,2,0,L|352:104,1,60
368,24,10788,2,0,L|300:16,1,60
268,92,11074,2,0,L|216:124,1,60
192,204,11360,2,0,P|140:164|136:92,1,120
104,32,11788,6,0,P|96:96|36:128,1,120,2|0,0:0|0:0,0:0:0:0:
24,292,12360,2,0,P|68:276|144:296,1,120
204,340,12788,2,0,P|236:352|268:352,2,60
137,292,13217,1,0,0:0:0:0:
212,256,13360,2,0,P|268:276|340:244,1,120
404,276,13788,2,0,P|432:252|464:244,1,60
468,328,14074,6,0,P|428:356|344:332,1,120,2|0,0:0|0:0,0:0:0:0:
316,184,14645,2,0,B|328:144|356:124|356:124|384:140|428:136,1,120
412,52,15074,2,0,P|372:36|344:36,1,60
280,72,15360,2,0,P|240:92|224:92,1,60
140,92,15645,2,0,P|80:104|48:160,1,120
132,176,16074,1,0,0:0:0:0:
136,87,16217,6,0,P|72:103|56:211,1,180
180,320,16931,2,0,L|288:244,1,120
428,324,17502,2,0,L|440:192,1,120
476,40,18074,2,0,L|296:140,1,180
244,164,18645,6,0,P|236:120|252:84,2,60,2|0|0,0:0|0:0|0:0,0:0:0:0:
256,332,19217,2,0,P|216:352|136:332,1,120
88,276,19645,2,0,P|104:220|72:164,2,120
20,228,20360,2,0,P|-4:196|-8:168,1,60
12,96,20645,1,0,0:0:0:0:
96,92,20788,6,0,P|148:112|212:88,1,120,2|0,0:0|0:0,0:0:0:0:
284,56,21217,2,0,P|336:40|412:68,2,120,0|2|0,0:0|0:0|0:0,0:0:0:0:
348,160,21931,2,0,L|424:272,1,120
480,312,22360,2,0,P|444:336|356:316,1,120
292,296,22788,2,0,P|256:288|224:300,2,60
264,376,23217,6,0,P|224:380|152:268,1,180,2|0,0:0|0:0,0:0:0:0:
164,196,23788,2,0,P|164:136|56:96,1,180
20,252,24502,2,0,P|32:296|104:332,1,120
104,248,24931,2,0,P|92:208|68:184,1,60
40,120,25217,1,0,0:0:0:0:
124,136,25360,6,0,P|160:184|176:256,1,120
228,308,25788,2,0,P|276:328|352:304,2,120
288,248,26502,2,0,P|336:232|412:276,1,120
460,312,26931,2,0,P|496:248|480:188,1,120
460,124,27360,2,0,P|456:92|464:60,2,60
360,184,27788,6,0,P|308:204|180:180,1,180,2|0,0:0|0:0,0:0:0:0:
160,104,28360,2,0,P|116:132|132:252,2,180
328,124,29502,2,0,P|360:128|392:120,2,60
160,104,29931,6,0,P|112:108|52:168,1,120
76,236,30360,2,0,P|104:280|92:348,2,120
24,304,31074,2,0,L|156:276,1,120
224,260,31502,1,0,0:0:0:0:
368,344,31788,2,0,P|404:320|400:232,1,120
380,168,32217,6,0,B|356:112|284:120|284:120|224:168|156:124,1,240,2|0,0:0|0:0,0:0:0:0:
104,80,32931,2,0,P|72:56|48:56,2,60
168,132,33360,2,0,P|192:192|160:264,1,120,2|0,0:0|0:0,0:0:0:0:
76,352,33788,2,0,P|136:332|192:356,1,120
356,332,34360,2,0,L|408:280,1,60
340,180,34645,6,0,P|384:208|452:200,1,120,4|0,0:0|0:0,0:0:0:0:
408,128,35074,2,0,P|396:92|376:72,2,60
340,180,35502,2,0,P|332:220|344:248,2,60
272,128,35931,2,0,P|240:136|204:124,2,60
180,56,36360,2,0,P|140:48|108:60,1,60
64,116,36645,2,0,P|56:148|68:176,1,60
88,308,36931,6,0,P|96:264|184:240,1,120,4|0,0:0|0:0,0:0:0:0:
240,248,37360,2,0,P|288:260|312:252,2,60
280,172,37788,2,0,P|316:172|352:192,2,60,0|0|0,0:0|0:0|0:0,0:0:0:0:
164,308,38360,1,8,0:0:0:0:
328,340,38645,2,0,P|364:344|388:340,1,60,8|0,0:0|0:0,0:0:0:0:
464,308,38931,1,8,0:0:0:0:
400,152,39217,6,0,P|356:168|272:152,1,120,4|8,0:0|0:0,0:0:0:0:
216,112,39645,2,0,P|156:104|96:124,1,120
44,184,40074,2,0,P|28:220|32:248,2,60,8|0|0,0:0|0:0|0:0,0:0:0:0:
112,232,40502,2,0,P|108:276|24:316,1,120
112,232,40931,2,0,P|160:228|184:240,1,60
280,296,41217,2,0,P|232:300|208:288,1,60,8|0,0:0|0:0,0:0:0:0:
252,216,41502,6,0,P|296:212|364:272,1,120,4|8,0:0|0:0,0:0:0:0:
384,336,41931,2,0,L|440:296,1,60
444,216,42217,2,0,L|456:156,1,60,0|8,0:0|0:0,0:0:0:0:
408,88,42502,1,0,0:0:0:0:
408,88,42645,2,0,L|288:44,1,120,0|8,0:0|0:0,0:0:0:0:
244,114,43074,2,0,L|116:146,2,120,4|0|0,0:0|0:0|0:0,0:0:0:0:
92,70,43788,6,0,P|52:106|64:190,1,120,4|8,0:0|0:0,0:0:0:0:
96,238,44217,2,0,P|104:278|92:314,1,60
44,358,44502,2,0,P|100:378|168:346,1,120
228,316,44931,2,0,P|272:300|352:324,1,120,4|8,0:0|0:0,0:0:0:0:
416,356,45360,2,0,P|424:316|412:284,1,60
396,216,45645,2,0,P|388:172|400:148,1,60,0|8,0:0|0:0,0:0:0:0:
440,88,45931,1,0,0:0:0:0:
396,216,46074,6,0,P|348:232|276:216,1,120,4|8,0:0|0:0,0:0:0:0:
212,172,46502,2,0,P|172:164|136:180,1,60
80,197,46788,2,0,P|44:201|12:193,2,60,0|8|0,0:0|0:0|0:0,0:0:0:0:
136,284,47217,2,0,L|104:304,2,30
220,288,47502,2,0,L|276:248,1,60,8|0,0:0|0:0,0:0:0:0:
332,304,47788,2,0,L|384:340,1,60
436,272,48074,2,0,L|492:232,1,60,8|0,0:0|0:0,0:0:0:0:
440,164,48360,5,4,0:0:0:0:
256,192,57502,6,0,P|312:212|384:176,1,120,4|8,0:0|0:0,0:0:0:0:
212,260,58074,2,0,P|156:240|84:276,1,120,0|8,0:0|0:0,0:0:0:0:
156,324,58502,1,0,0:0:0:0:
240,336,58645,2,0,P|276:312|288:280,1,60
325,161,58931,2,0,P|309:186|304:216,1,60,8|0,0:0|0:0,0:0:0:0:
400,120,59217,2,0,P|416:84|416:52,1,60
332,64,59502,1,8,0:0:0:0:
136,32,59788,6,0,P|128:76|176:140,1,120,4|8,0:0|0:0,0:0:0:0:
236,184,60217,1,0,0:0:0:0:
133,281,60360,2,0,P|173:323|232:332,1,120,0|8,0:0|0:0,0:0:0:0:
320,288,60788,2,0,P|352:272|396:276,2,60
368,356,61217,1,8,0:0:0:0:
239,315,61360,2,0,P|180:306|140:264,1,120,2|2,0:0|0:0,0:0:0:0:
140,264,61931,1,0,0:0:0:0:
85,174,62074,6,0,P|49:174|13:198,1,60,4|0,0:0|0:0,0:0:0:0:
140,264,62360,2,0,P|192:257|236:188,1,120,8|0,0:0|0:0,0:0:0:0:
256,124,62788,1,0,0:0:0:0:
320,68,62931,2,0,P|352:60|392:72,1,60,8|0,0:0|0:0,0:0:0:0:
439,122,63217,2,0,P|450:150|449:180,1,60
412,256,63502,1,8,0:0:0:0:
340,300,63645,2,0,P|327:244|372:180,1,120
412,256,64074,1,8,0:0:0:0:
340,300,64217,6,0,P|292:312|216:300,1,120
160,248,64645,2,0,P|112:216|48:232,2,120,8|0|8,0:0|0:0|0:0,0:0:0:0:
96,300,65360,1,0,0:0:0:0:
160,248,65502,2,0,L|208:204,2,60,0|0|8,0:0|0:0|0:0,0:0:0:0:
96,300,65931,2,0,P|31:311|-20:270,1,120,2|2,0:0|0:0,0:0:0:0:
54,228,66360,2,0,L|94:108,1,120,8|4,0:0|0:0,0:0:0:0:
252,68,66931,6,0,P|296:80|376:60,1,120,12|0,0:0|0:0,0:0:0:0:
444,32,67360,1,0,0:0:0:0:
444,32,67502,2,0,L|476:92,1,60,8|0,0:0|0:0,0:0:0:0:
412,144,67788,2,0,L|392:208,1,60
464,248,68074,2,0,L|488:320,1,60,8|0,0:0|0:0,0:0:0:0:
404,332,68360,1,0,0:0:0:0:
404,332,68502,2,0,P|344:352|284:332,1,120
156,268,68931,6,0,P|216:248|276:272,1,120,4|8,0:0|0:0,0:0:0:0:
216,332,69360,1,0,0:0:0:0:
216,332,69502,2,0,P|176:352|140:344,1,60
84,316,69788,2,0,P|68:280|72:252,1,60,8|0,0:0|0:0,0:0:0:0:
80,176,70074,2,0,P|84:132|72:104,2,60,0|0|8,0:0|0:0|0:0,0:0:0:0:
0,148,70502,2,0,P|4:68|44:36,1,120,4|0,0:0|0:0,0:0:0:0:
30,42,71074,1,0,0:0:0:0:
152,88,71217,6,0,P|188:96|216:80,1,60,4|0,0:0|0:0,0:0:0:0:
284,52,71502,2,0,P|332:36|404:56,1,120,8|0,0:0|0:0,0:0:0:0:
460,108,71931,1,0,0:0:0:0:
408,176,72074,2,0,L|364:232,1,60,8|0,0:0|0:0,0:0:0:0:
288,224,72360,2,0,L|250:176,2,60,0|0|8,0:0|0:0|0:0,0:0:0:0:
332,296,72788,2,0,P|272:308|216:268,1,120
164,224,73217,1,8,0:0:0:0:
149,306,73360,6,0,P|97:276|81:206,1,120
104,141,73788,1,8,0:0:0:0:
104,141,74074,2,0,P|152:121|180:129,1,60
280,152,74360,2,0,P|232:172|204:164,1,60,12|0,0:0|0:0,0:0:0:0:
228,88,74645,2,0,P|276:68|304:76,1,60,4|0,0:0|0:0,0:0:0:0:
404,92,74931,2,0,P|356:112|328:104,1,60,8|0,0:0|0:0,0:0:0:0:
476,124,75217,1,0,0:0:0:0:
494,203,75360,1,0,0:0:0:0:
464,282,75502,1,8,0:0:0:0:
392,332,75645,6,0,P|434:363|512:354,1,120,4|0,0:0|0:0,0:0:0:0:
464,282,76074,1,8,0:0:0:0:
392,332,76217,2,0,P|342:299|272:308,1,120
320,380,76645,1,8,0:0:0:0:
220,360,76788,2,0,P|200:312|224:244,1,120
260,176,77217,2,0,P|268:128|256:96,1,60,8|0,0:0|0:0,0:0:0:0:
224,44,77502,2,0,P|260:32|292:40,2,60,0|0|8,0:0|0:0|0:0,0:0:0:0:
140,128,77931,6,0,P|88:152|16:128,1,120,4|0,0:0|0:0,0:0:0:0:
80,68,78360,2,0,P|112:48|152:48,1,60,8|0,0:0|0:0,0:0:0:0:
140,128,78645,2,0,L|132:188,2,60,0|0|8,0:0|0:0|0:0,0:0:0:0:
224,120,79074,2,0,L|208:252,1,120
164,308,79502,2,0,P|208:320|280:280,1,120,8|0,0:0|0:0,0:0:0:0:
340,240,79931,2,0,P|372:228|400:232,1,60,0|8,0:0|0:0,0:0:0:0:
376,312,80217,6,0,L|360:172,1,120,4|0,0:0|0:0,0:0:0:0:
288,152,80645,1,8,0:0:0:0:
430,133,80788,2,0,L|314:65,1,120
255,56,81217,2,0,P|207:52|183:64,1,60,8|0,0:0|0:0,0:0:0:0:
108,192,81645,2,0,P|128:224|128:260,2,60,0|8|0,0:0|0:0|0:0,0:0:0:0:
44,248,82074,2,0,P|52:292|76:308,2,60,0|0|8,0:0|0:0|0:0,0:0:0:0:
230,307,82502,6,0,P|199:336|118:337,1,120,4|0,0:0|0:0,0:0:0:0:
159,262,82931,1,8,0:0:0:0:
300,232,83217,2,0,P|328:216|368:216,2,60,0|0|8,0:0|0:0|0:0,0:0:0:0:
352,296,83645,2,0,P|400:288|436:224,1,120,4|0,0:0|0:0,0:0:0:0:
428,148,84074,2,0,L|420:68,2,60,12|0|0,0:0|0:0|0:0,0:0:0:0:
436,232,84502,2,0,P|400:228|364:196,1,60,0|8,0:0|0:0,0:0:0:0:
320,144,84788,6,0,P|264:128|192:148,1,120,4|0,0:0|0:0,0:0:0:0:
148,204,85217,1,8,0:0:0:0:
64,196,85360,2,0,P|73:248|144:288,1,120
208,288,85788,1,8,0:0:0:0:
272,344,85931,2,0,P|292:284|252:220,1,120
224,164,86360,2,0,P|220:108|232:88,1,60,8|0,0:0|0:0,0:0:0:0:
288,56,86645,2,0,P|260:32|228:24,2,60,0|0|8,0:0|0:0|0:0,0:0:0:0:
372,144,87074,6,0,P|424:172|488:152,1,120,4|0,0:0|0:0,0:0:0:0:
436,88,87502,2,0,L|400:32,1,60,8|0,0:0|0:0,0:0:0:0:
372,144,87788,2,0,L|404:194,2,60,0|0|8,0:0|0:0|0:0,0:0:0:0:
296,104,88217,2,0,P|248:120|168:92,1,120
112,60,88645,2,0,P|64:56|36:68,1,60,8|0,0:0|0:0,0:0:0:0:
84,140,88931,2,0,L|48:200,2,60,0|0|8,0:0|0:0|0:0,0:0:0:0:
144,200,89360,6,0,L|76:312,1,120,4|0,0:0|0:0,0:0:0:0:
160,328,89788,2,0,L|232:300,1,60,8|0,0:0|0:0,0:0:0:0:
288,352,90074,2,0,L|352:360,1,60
412,304,90360,1,8,0:0:0:0:
456,168,90502,2,0,P|412:212|336:204,1,120,4|0,0:0|0:0,0:0:0:0:
380,132,90931,2,0,L|400:56,1,60,8|0,0:0|0:0,0:0:0:0:
312,56,91217,2,0,L|248:16,1,60
208,88,91502,1,8,0:0:0:0:
80,120,91645,6,0,P|88:168|160:204,1,120,4|0,0:0|0:0,0:0:0:0:
228,228,92074,2,0,P|248:268|248:300,1,60,8|0,0:0|0:0,0:0:0:0:
188,340,92360,2,0,P|156:344|120:328,2,60,0|0|8,0:0|0:0|0:0,0:0:0:0:
256,192,92788,12,8,93788,0:0:0:0:
84,120,94074,6,0,P|108:72|184:56,1,120,4|8,0:0|0:0,0:0:0:0:
164,136,94502,1,0,0:0:0:0:
164,136,94645,2,0,L|124:260,1,120,0|8,0:0|0:0,0:0:0:0:
55,295,95074,2,0,P|93:329|172:321,1,120,4|0,0:0|0:0,0:0:0:0:
236,288,95502,2,0,P|272:276|300:280,2,60,8|0|0,0:0|0:0|0:0,0:0:0:0:
276,364,95931,2,0,P|336:364|376:300,1,120
380,236,96360,6,0,P|376:196|388:168,1,60,4|0,0:0|0:0,0:0:0:0:
356,100,96645,2,0,P|396:96|460:164,1,120,8|0,0:0|0:0,0:0:0:0:
380,236,97074,2,0,P|340:244|308:232,1,60,0|8,0:0|0:0,0:0:0:0:
220,176,97360,2,0,P|176:156|92:192,1,120,4|2,0:0|0:0,0:0:0:0:
164,236,97788,1,8,0:0:0:0:
222,297,97931,2,0,P|167:318|112:300,1,120
56,236,98360,2,0,P|32:200|36:168,1,60,8|0,0:0|0:0,0:0:0:0:
76,68,98645,6,0,P|144:80|204:64,1,120,4|8,0:0|0:0,0:0:0:0:
256,12,99074,1,0,0:0:0:0:
320,68,99217,2,0,P|388:80|448:64,1,120,2|8,0:0|0:0,0:0:0:0:
320,68,99645,2,0,P|296:132|312:192,1,120,4|0,0:0|0:0,0:0:0:0:
356,248,100074,1,8,0:0:0:0:
306,180,100217,2,0,P|250:167|178:191,1,120
124,236,100645,2,0,P|108:196|108:168,1,60,8|0,0:0|0:0,0:0:0:0:
144,104,100931,6,0,L|220:44,1,90.0000034332277,4|0,0:0|0:0,0:0:0:0:
376,124,101360,2,0,L|305:179,1,90.0000034332277,4|0,0:0|0:0,0:0:0:0:
144,104,101788,2,0,L|244:80,1,90.0000034332277,4|0,0:0|0:0,0:0:0:0:
376,124,102217,2,0,L|288:145,1,90.0000034332277,4|0,0:0|0:0,0:0:0:0:
220,196,102645,2,0,P|232:240|220:264,1,60
176,320,102931,2,0,P|168:360|180:380,1,60,8|0,0:0|0:0,0:0:0:0:
256,348,103217,6,0,L|360:284,1,120,4|8,0:0|0:0,0:0:0:0:
432,244,103645,1,0,0:0:0:0:
424,328,103788,2,0,L|312:256,1,120,0|8,0:0|0:0,0:0:0:0:
324,124,104217,2,0,P|308:160|224:184,2,120,4|0|0,0:0|0:0|0:0,0:0:0:0:
360,48,104931,2,0,P|400:44|432:52,1,60
488,128,105217,2,0,P|448:132|416:124,1,60,8|0,0:0|0:0,0:0:0:0:
324,124,105502,6,0,P|264:104|196:136,1,120,4|8,0:0|0:0,0:0:0:0:
160,188,105931,1,0,0:0:0:0:
76,200,106074,2,0,P|98:248|172:270,1,120,0|8,0:0|0:0,0:0:0:0:
280,280,106502,2,0,P|324:280|376:336,1,120,4|0,0:0|0:0,0:0:0:0:
296,364,106931,1,8,0:0:0:0:
280,280,107074,2,0,L|252:140,1,120
208,92,107502,2,0,P|240:80|288:88,1,60,8|0,0:0|0:0,0:0:0:0:
257,162,107788,6,0,P|196:179|137:141,1,120,4|8,0:0|0:0,0:0:0:0:
100,80,108217,1,0,0:0:0:0:
76,200,108360,2,0,L|48:328,1,120,0|8,0:0|0:0,0:0:0:0:
188,288,108788,2,0,L|288:196,1,120,4|0,0:0|0:0,0:0:0:0:
336,148,109217,1,8,0:0:0:0:
360,68,109360,2,0,P|400:92|414:174,1,120
392,240,109788,2,0,P|384:284|404:316,1,60,8|0,0:0|0:0,0:0:0:0:
336,148,110074,6,0,L|225:84,1,120,4|8,0:0|0:0,0:0:0:0:
269,201,110502,2,0,L|293:324,1,120,4|0,0:0|0:0,0:0:0:0:
196,240,110931,2,0,P|160:196|176:128,1,120,12|0,0:0|0:0,0:0:0:0:
224,72,111360,1,0,0:0:0:0:
140,56,111502,1,8,0:0:0:0:
84,120,111645,1,0,0:0:0:0:
55,199,111788,2,0,P|63:239|51:267,2,60,0|0|8,0:0|0:0|0:0,0:0:0:0:
224,192,112360,6,0,P|256:184|296:200,1,60,4|0,0:0|0:0,0:0:0:0:
336,256,112645,2,0,P|360:220|348:140,1,120,8|0,0:0|0:0,0:0:0:0:
288,92,113074,1,0,0:0:0:0:
208,112,113217,2,0,P|168:116|132:108,1,60,8|0,0:0|0:0,0:0:0:0:
44,44,113502,2,0,P|84:40|120:48,1,60
72,124,113788,1,8,0:0:0:0:
40,200,113931,1,0,0:0:0:0:
84,272,114074,1,0,0:0:0:0:
160,308,114217,2,0,P|168:256|120:196,1,120
84,272,114645,6,0,P|76:300|84:352,1,60,4|0,0:0|0:0,0:0:0:0:
132,202,114931,2,0,P|112:152|140:82,1,120,8|0,0:0|0:0,0:0:0:0:
200,44,115360,2,0,P|232:36|264:44,1,60,0|8,0:0|0:0,0:0:0:0:
368,104,115645,2,0,P|336:112|304:104,2,60
444,64,116074,1,8,0:0:0:0:
368,104,116217,2,0,P|352:168|376:224,1,120
371,217,116788,1,0,0:0:0:0:
460,324,116931,6,0,P|424:348|332:344,1,120,4|8,0:0|0:0,0:0:0:0:
276,308,117360,1,0,0:0:0:0:
112,272,117502,2,0,P|160:236|224:240,1,120,0|8,0:0|0:0,0:0:0:0:
184,316,117931,2,0,L|144:368,1,60
64,344,118217,2,0,L|4:320,1,60,0|8,0:0|0:0,0:0:0:0:
28,240,118502,2,0,L|12:108,1,120
60,48,118931,1,8,0:0:0:0:
160,112,119074,6,0,P|204:128|284:104,1,120
348,76,119502,2,0,P|396:52|476:80,1,120,8|0,0:0|0:0,0:0:0:0:
412,136,119931,2,0,L|384:188,1,60,0|8,0:0|0:0,0:0:0:0:
412,356,120360,2,0,L|384:304,2,60,0|0|8,0:0|0:0|0:0,0:0:0:0:
304,296,120788,2,0,P|324:248|408:228,1,120,4|4,0:0|0:0,0:0:0:0:
304,296,121217,2,0,P|272:304|236:292,1,60,8|0,0:0|0:0,0:0:0:0:
180,244,121502,6,0,P|112:228|64:260,1,120,4|8,0:0|0:0,0:0:0:0:
128,312,121931,1,0,0:0:0:0:
128,312,122074,2,0,L|124:176,1,120,0|8,0:0|0:0,0:0:0:0:
76,124,122502,2,0,P|116:108|140:112,1,60
212,140,122788,2,0,P|248:144|272:140,1,60,0|8,0:0|0:0,0:0:0:0:
344,96,123074,2,0,P|376:92|408:100,1,60
272,140,123360,2,0,P|260:76|308:20,1,120
344,96,123788,6,0,P|356:136|344:172,1,60
292,296,124074,2,0,P|340:272|416:300,1,120,8|0,0:0|0:0,0:0:0:0:
352,356,124502,1,0,0:0:0:0:
292,296,124645,2,0,P|268:256|268:232,1,60,8|0,0:0|0:0,0:0:0:0:
268,160,124931,1,0,0:0:0:0:
196,208,125074,2,0,L|156:236,2,30,0|0|8,0:0|0:0|0:0,0:0:0:0:
352,156,125360,2,0,P|340:112|264:76,1,120,4|4,0:0|0:0,0:0:0:0:
280,76,125931,1,0,0:0:0:0:
177,114,126074,6,0,P|137:122|109:110,1,60,4|0,0:0|0:0,0:0:0:0:
65,54,126360,2,0,P|37:102|65:178,1,120,8|0,0:0|0:0,0:0:0:0:
101,230,126788,1,0,0:0:0:0:
61,306,126931,1,8,0:0:0:0:
145,306,127074,2,0,L|165:346,2,30
101,230,127360,2,0,P|153:218|177:230,1,60,0|8,0:0|0:0,0:0:0:0:
233,258,127645,2,0,P|297:274|349:250,1,120
397,190,128074,1,8,0:0:0:0:
445,262,128217,2,0,L|469:298,2,30
397,190,128502,5,0,0:0:0:0:
393,78,128645,1,8,0:0:0:0:
397,190,128931,5,0,0:0:0:0:
329,142,129074,1,0,0:0:0:0:
261,190,129217,2,0,P|225:206|189:198,1,60,12|0,0:0|0:0,0:0:0:0:
93,146,129502,2,0,P|129:130|165:138,1,60,4|0,0:0|0:0,0:0:0:0:
53,226,129788,1,8,0:0:0:0:
9,154,129931,1,0,0:0:0:0:
53,226,130074,2,0,L|-14:260,2,60,0|0|8,0:0|0:0|0:0,0:0:0:0:
208,212,130502,6,0,P|188:148|224:88,1,120,4|0,0:0|0:0,0:0:0:0:
272,156,130931,1,8,0:0:0:0:
336,212,131074,2,0,P|356:148|320:88,1,120
272,156,131502,1,8,0:0:0:0:
336,212,131645,2,0,P|396:228|452:212,1,120
396,148,132074,2,0,L|368:88,1,60,8|0,0:0|0:0,0:0:0:0:
448,56,132360,2,0,L|480:0,2,60,0|0|8,0:0|0:0|0:0,0:0:0:0:
396,148,132788,6,0,L|328:260,1,120,4|0,0:0|0:0,0:0:0:0:
308,332,133217,2,0,P|272:312|256:280,1,60,8|0,0:0|0:0,0:0:0:0:
200,188,133502,2,0,P|236:208|252:240,2,60,0|0|8,0:0|0:0|0:0,0:0:0:0:
116,188,133931,2,0,P|76:200|48:280,1,120
128,268,134360,2,0,L|162:325,1,60,8|0,0:0|0:0,0:0:0:0:
158,319,134645,1,0,0:0:0:0:
114,183,134788,2,0,P|74:195|54:215,1,60,0|8,0:0|0:0,0:0:0:0:
12,280,135074,6,0,L|12:144,1,120,4|0,0:0|0:0,0:0:0:0:
40,80,135502,1,8,0:0:0:0:
112,36,135645,2,0,L|240:36,1,120
304,80,136074,1,8,0:0:0:0:
352,152,136217,2,0,P|386:105|375:32,1,120,4|0,0:0|0:0,0:0:0:0:
304,80,136645,2,0,P|268:124|276:192,1,120,8|0,0:0|0:0,0:0:0:0:
308,260,137074,1,0,0:0:0:0:
387,289,137217,1,8,0:0:0:0:
272,184,137360,6,0,P|236:216|230:292,1,120,4|0,0:0|0:0,0:0:0:0:
236,368,137788,2,0,P|192:356|144:288,1,120,8|0,0:0|0:0,0:0:0:0:
92,236,138217,2,0,P|44:232|20:244,1,60,0|8,0:0|0:0,0:0:0:0:
68,312,138502,2,0,P|120:316|172:264,1,120,4|0,0:0|0:0,0:0:0:0:
188,192,138931,2,0,P|184:148|196:116,2,60,8|0|0,0:0|0:0|0:0,0:0:0:0:
268,160,139360,2,0,P|272:116|260:80,1,60,4|8,0:0|0:0,0:0:0:0:
212,40,139645,6,0,P|256:60|328:40,1,120,4|0,0:0|0:0,0:0:0:0:
404,68,140074,1,8,0:0:0:0:
444,144,140217,2,0,P|424:188|444:260,1,120
496,320,140645,1,8,0:0:0:0:
440,256,140788,2,0,P|384:240|320:264,1,120
256,308,141217,2,0,P|224:316|184:304,2,60,8|0|0,0:0|0:0|0:0,0:0:0:0:
200,208,141645,2,0,P|156:204|120:220,1,60,0|8,0:0|0:0,0:0:0:0:
256,308,141931,6,0,L|304:196,1,120,4|0,0:0|0:0,0:0:0:0:
244,136,142360,2,0,L|236:68,1,60,8|0,0:0|0:0,0:0:0:0:
152,88,142645,2,0,L|100:40,1,60
40,100,142931,1,8,0:0:0:0:
12,179,143074,2,0,P|38:233|100:261,2,120
118,157,143788,1,0,0:0:0:0:
198,129,143931,1,0,0:0:0:0:
277,156,144074,1,8,0:0:0:0:
368,280,144217,6,0,P|408:240|416:176,1,120,4|0,0:0|0:0,0:0:0:0:
392,100,144645,2,0,P|384:64|396:32,1,60,8|0,0:0|0:0,0:0:0:0:
490,191,144931,2,0,P|489:227|477:259,2,60,0|0|8,0:0|0:0|0:0,0:0:0:0:
324,200,145360,2,0,L|212:268,1,120,4|0,0:0|0:0,0:0:0:0:
196,344,145788,2,0,P|160:320|144:292,1,60,8|0,0:0|0:0,0:0:0:0:
104,184,146074,2,0,P|140:208|156:236,2,60,0|0|8,0:0|0:0|0:0,0:0:0:0:
33,101,146502,6,0,P|69:77|149:86,1,120,4|0,0:0|0:0,0:0:0:0:
220,124,146931,2,0,L|276:156,1,60,8|0,0:0|0:0,0:0:0:0:
332,96,147217,2,0,L|396:80,1,60,4|0,0:0|0:0,0:0:0:0:
440,148,147502,1,8,0:0:0:0:
341,231,147645,1,4,0:0:0:0:
256,192,147717,12,0,148931,0:0:0:0:
135,288,149217,6,0,P|112:259|115:169,1,120,4|8,0:0|0:0,0:0:0:0:
180,132,149645,2,0,P|216:128|248:96,1,60,0|8,0:0|0:0,0:0:0:0:
180,48,149931,1,2,0:0:0:0:
208,212,150217,2,0,P|244:208|276:176,1,60,0|8,0:0|0:0,0:0:0:0:
332,144,150502,2,0,P|360:128|396:128,2,60
384,212,150931,2,0,P|428:204|472:136,1,120,10|4,0:0|0:0,0:0:0:0:
387,126,151360,5,0,0:0:0:0:
384,212,151502,2,0,L|376:356,1,120,8|0,0:0|0:0,0:0:0:0:
292,320,151931,2,0,L|280:256,1,60,0|8,0:0|0:0,0:0:0:0:
220,200,152217,2,0,L|156:316,1,120,4|0,0:0|0:0,0:0:0:0:
84,336,152645,1,8,0:0:0:0:
80,252,152788,2,0,L|44:124,2,120,2|0|0,0:0|0:0|0:0,0:0:0:0:
104,72,153502,6,0,P|68:52|36:56,1,60,4|0,0:0|0:0,0:0:0:0:
48,136,153788,2,0,P|92:160|160:136,1,120,8|0,0:0|0:0,0:0:0:0:
224,92,154217,2,0,P|256:84|288:92,1,60,0|8,0:0|0:0,0:0:0:0:
340,152,154502,2,0,P|320:116|360:32,1,120,4|0,0:0|0:0,0:0:0:0:
404,100,154931,1,8,0:0:0:0:
392,220,155074,2,0,P|337:239|284:216,1,120,2|0,0:0|0:0,0:0:0:0:
340,152,155502,2,0,P|384:132|412:140,1,60,8|0,0:0|0:0,0:0:0:0:
392,220,155788,6,0,L|344:304,1,90.0000034332277,4|0,0:0|0:0,0:0:0:0:
156,288,156217,2,0,L|200:209,1,90.0000034332277,4|0,0:0|0:0,0:0:0:0:
347,298,156645,2,0,L|263:338,1,90.0000034332277,4|0,0:0|0:0,0:0:0:0:
200,209,157074,2,0,L|281:170,1,90.0000034332277,4|0,0:0|0:0,0:0:0:0:
156,288,157502,2,0,P|120:260|112:232,1,60
104,164,157788,2,0,P|92:120|64:104,1,60,8|0,0:0|0:0,0:0:0:0:
4,76,158074,6,0,P|48:32|120:36,1,120,4|8,0:0|0:0,0:0:0:0:
176,72,158502,1,0,0:0:0:0:
244,120,158645,2,0,P|308:128|356:92,1,120,2|8,0:0|0:0,0:0:0:0:
284,48,159074,2,0,L|308:180,1,120,4|0,0:0|0:0,0:0:0:0:
305,166,159502,1,8,0:0:0:0:
276,244,159645,2,0,P|308:269|317:349,2,120,0|0|0,0:0|0:0|0:0,0:0:0:0:
144,376,160360,6,0,P|184:328|240:320,1,120,4|8,0:0|0:0,0:0:0:0:
320,344,160788,1,0,0:0:0:0:
238,319,160931,2,0,L|116:290,1,120,2|8,0:0|0:0,0:0:0:0:
121,116,161360,2,0,L|238:89,1,120,4|0,0:0|0:0,0:0:0:0:
312,52,161788,1,8,0:0:0:0:
238,88,161931,2,0,P|278:127|352:124,1,120,2|0,0:0|0:0,0:0:0:0:
424,108,162360,2,0,P|460:128|472:160,1,60,8|0,0:0|0:0,0:0:0:0:
399,295,162645,6,0,P|375:242|396:188,1,120,4|8,0:0|0:0,0:0:0:0:
460,240,163074,1,0,0:0:0:0:
399,295,163217,2,0,L|287:231,1,120,2|8,0:0|0:0,0:0:0:0:
152,264,163645,2,0,P|144:200|196:144,1,120,4|0,0:0|0:0,0:0:0:0:
224,224,164074,1,8,0:0:0:0:
152,264,164217,2,0,L|32:192,1,120,2|0,0:0|0:0,0:0:0:0:
32,120,164645,2,0,P|28:72|48:48,1,60,8|0,0:0|0:0,0:0:0:0:
124,96,164931,6,0,L|208:56,1,90.0000034332277,4|8,0:0|0:0,0:0:0:0:
352,128,165360,2,0,L|270:166,1,90.0000034332277,4|0,0:0|0:0,0:0:0:0:
124,96,165788,2,0,P|168:132|168:208,1,135.000005149841,4|0,0:0|0:0,0:0:0:0:
128,280,166360,2,0,P|112:320|116:344,1,60,8|0,0:0|0:0,0:0:0:0:
260,320,166645,2,0,P|296:336|328:324,2,60,0|0|8,0:0|0:0|0:0,0:0:0:0:
300,244,167074,6,0,P|352:248|400:312,1,120,4|0,0:0|0:0,0:0:0:0:
260,320,167502,2,0,P|224:280|232:200,1,120,8|0,0:0|0:0,0:0:0:0:
276,152,167931,1,0,0:0:0:0:
352,112,168074,1,8,0:0:0:0:
200,40,168360,2,0,P|192:96|132:136,1,120,0|8,0:0|0:0,0:0:0:0:
60,280,168931,2,0,P|52:320|72:352,2,60,0|0|8,0:0|0:0|0:0,0:0:0:0:
108,208,169360,6,0,P|128:168|96:88,1,120,4|0,0:0|0:0,0:0:0:0:
44,156,169788,1,8,0:0:0:0:
176,260,170074,2,0,P|216:200|228:136,1,120,0|8,0:0|0:0,0:0:0:0:
236,72,170502,1,0,0:0:0:0:
300,124,170645,2,0,P|312:168|292:248,1,120,0|8,0:0|0:0,0:0:0:0:
292,324,171074,1,0,0:0:0:0:
364,284,171217,2,0,P|388:252|400:160,1,120,0|8,0:0|0:0,0:0:0:0:
396,92,171645,6,0,P|432:148|504:152,1,120,4|0,0:0|0:0,0:0:0:0:
480,72,172074,1,8,0:0:0:0:
312,92,172360,2,0,P|272:84|240:96,2,60,0|0|8,0:0|0:0|0:0,0:0:0:0:
160,160,172931,2,0,P|140:196|140:224,2,60,0|0|8,0:0|0:0|0:0,0:0:0:0:
224,216,173360,1,0,0:0:0:0:
160,160,173502,2,0,P|204:128|280:152,1,120,0|8,0:0|0:0,0:0:0:0:
224,216,173931,6,0,P|203:261|228:328,1,120,4|0,0:0|0:0,0:0:0:0:
292,272,174360,1,8,0:0:0:0:
412,156,174645,2,0,P|436:124|464:116,2,60,0|0|8,0:0|0:0|0:0,0:0:0:0:
356,220,175074,1,0,0:0:0:0:
324,140,175217,2,0,P|336:84|392:36,1,120,0|8,0:0|0:0,0:0:0:0:
299,15,175645,2,0,L|168:38,1,120,4|2,0:0|0:0,0:0:0:0:
97,50,176074,1,8,0:0:0:0:
83,212,176217,6,0,P|123:184|131:104,1,120,4|0,0:0|0:0,0:0:0:0:
51,132,176645,1,12,0:0:0:0:
115,288,176931,2,0,P|99:328|107:360,1,60
183,332,177217,2,0,P|203:356|235:364,1,60,8|0,0:0|0:0,0:0:0:0:
247,280,177502,2,0,P|295:276|311:264,1,60
255,200,177788,2,0,P|295:184|367:212,1,120,8|2,0:0|0:0,0:0:0:0:
419,272,178217,1,0,0:0:0:0:
395,352,178360,1,8,0:0:0:0:
365,210,178502,6,0,P|411:192|475:216,1,120,4|0,0:0|0:0,0:0:0:0:
419,272,178931,2,0,L|431:132,1,120,8|2,0:0|0:0,0:0:0:0:
293,52,179502,1,8,0:0:0:0:
144,104,179788,2,0,L|36:172,1,120,2|8,0:0|0:0,0:0:0:0:
32,252,180217,1,0,0:0:0:0:
32,252,180360,2,0,P|40:296|28:328,2,60,2|0|8,0:0|0:0|0:0,0:0:0:0:
44,168,180788,6,0,P|96:180|128:236,1,120,4|0,0:0|0:0,0:0:0:0:
136,320,181217,1,8,0:0:0:0:
256,200,181502,2,0,P|256:160|268:144,1,60
340,192,181788,1,8,0:0:0:0:
340,192,181931,2,0,P|332:244|256:284,1,120
248,203,182360,2,0,P|252:155|312:111,1,120,8|0,0:0|0:0,0:0:0:0:
396,116,182788,2,0,P|440:120|468:104,1,60,0|8,0:0|0:0,0:0:0:0:
420,36,183074,6,0,P|320:20|236:40,1,180,4|8,0:0|0:0,0:0:0:0:
169,75,183645,1,0,0:0:0:0:
116,140,183788,2,0,P|90:101|109:21,1,120,0|8,0:0|0:0,0:0:0:0:
169,75,184217,1,0,0:0:0:0:
206,210,184360,6,0,L|177:306,2,80,4|0|0,0:0|0:0|0:0,0:0:0:0:
297,144,184931,2,0,L|347:136,2,40
261,100,185217,2,0,L|205:90,2,40,8|0|0,0:0|0:0|0:0,0:0:0:0:
301,61,185502,5,4,0:0:0:0:
256,192,185574,12,4,190074,0:0:0:0:
376,92,194360,5,0,0:0:0:0:
340,184,194645,2,0,P|300:160|284:128,1,71.9999978027344
196,92,195217,2,0,P|136:96|96:140,1,107.999996704102
80,172,195788,2,0,P|72:196|100:272,1,107.999996704102
144,288,196360,1,0,0:0:0:0:
244,216,196645,1,0,0:0:0:0:
204,332,196931,5,0,0:0:0:0:
168,216,197217,1,0,0:0:0:0:
264,288,197502,1,0,0:0:0:0:
348,232,197788,2,0,P|376:212|416:208,1,71.9999978027344
408,308,198360,2,0,L|360:168,1,143.999995605469
217,102,199217,6,0,P|253:108|288:100,1,71.9999978027344,4|0,0:0|0:0,0:0:0:0:
236,16,199788,2,0,P|188:20|128:88,1,143.999995605469
132,188,200645,2,0,P|140:224|124:264,1,71.9999978027344
64,372,201217,2,0,P|56:336|72:296,2,71.9999978027344
160,344,202074,1,0,0:0:0:0:
224,268,202360,6,0,P|264:228|348:224,1,143.999995605469,0|4,0:0|0:0,0:0:0:0:
312,320,203217,1,0,0:0:0:0:
224,268,203502,1,0,0:0:0:0:
224,168,203788,5,4,0:0:0:0:
388,52,204360,2,0,P|348:84|256:64,1,143.999995605469
164,52,205217,2,0,P|116:64|100:88,1,71.9999978027344
56,244,205788,2,0,P|104:232|120:208,1,71.9999978027344
164,128,206360,5,0,0:0:0:0:
256,88,206645,1,0,0:0:0:0:
344,136,206931,2,0,P|312:176|324:240,1,107.999996704102
348,268,207502,2,0,L|264:252,2,71.9999978027344
448,292,208360,1,4,0:0:0:0:
256,40,217217,5,8,0:0:0:0:
320,196,217502,6,0,P|356:204|384:196,2,60,4|0|8,0:0|0:0|0:0,0:0:0:0:
256,140,217931,2,0,L|228:104,2,30
240,224,218217,1,0,0:0:0:0:
256,308,218360,1,8,0:0:0:0:
88,300,218645,2,0,P|80:332|88:360,2,60,0|0|8,0:0|0:0|0:0,0:0:0:0:
132,228,219074,2,0,L|156:196,2,30
48,228,219360,1,0,0:0:0:0:
28,148,219502,1,8,0:0:0:0:
168,52,219788,6,0,P|128:48|104:52,2,60,0|0|8,0:0|0:0|0:0,0:0:0:0:
232,108,220217,2,0,L|232:140,2,30
296,56,220502,1,0,0:0:0:0:
380,40,220645,1,8,0:0:0:0:
412,208,220931,2,0,P|400:244|416:284,2,60,0|0|8,0:0|0:0|0:0,0:0:0:0:
484,252,221360,2,0,L|524:280,2,30
412,208,221645,1,0,0:0:0:0:
340,164,221788,1,8,0:0:0:0:
244,287,222074,6,0,P|208:295|180:287,2,60,0|0|8,0:0|0:0|0:0,0:0:0:0:
112,287,222502,2,0,L|84:331,2,30
84,211,222788,1,0,0:0:0:0:
84,211,222931,2,0,P|84:171|148:119,1,120,8|0,0:0|0:0,0:0:0:0:
212,79,223360,1,0,0:0:0:0:
284,123,223502,1,8,0:0:0:0:
348,175,223645,2,0,L|380:199,2,30
284,123,223931,1,0,0:0:0:0:
224,183,224074,1,8,0:0:0:0:
313,310,224360,6,0,P|349:326|385:318,2,60,0|0|8,0:0|0:0|0:0,0:0:0:0:
205,226,224788,2,0,P|169:210|133:218,2,60
208,310,225217,2,0,L|188:366,2,60,8|0|0,0:0|0:0|0:0,0:0:0:0:
311,217,225645,2,0,L|331:161,2,60,0|8|0,0:0|0:0|0:0,0:0:0:0:
281,290,226074,1,0,0:0:0:0:
205,227,226217,1,0,0:0:0:0:
255,146,226360,1,8,0:0:0:0:
179,83,226503,1,4,0:0:0:0:
80,48,228931,6,0,P|52:96|60:144,1,90,8|0,0:0|0:0,0:0:0:0:
72,168,229217,6,0,L|192:104,1,120,4|8,0:0|0:0,0:0:0:0:
252,72,229645,1,0,0:0:0:0:
320,212,229788,2,0,P|340:168|420:148,1,120,0|8,0:0|0:0,0:0:0:0:
400,228,230217,2,0,P|372:280|300:288,2,120,4|0|0,0:0|0:0|0:0,0:0:0:0:
320,212,230931,2,0,P|272:224|256:240,1,60
180,324,231217,2,0,P|228:312|244:296,1,60,8|0,0:0|0:0,0:0:0:0:
180,244,231502,6,0,L|88:160,1,120,4|8,0:0|0:0,0:0:0:0:
28,104,231931,1,0,0:0:0:0:
7,185,232074,2,0,L|-11:255,2,60,0|0|8,0:0|0:0|0:0,0:0:0:0:
28,103,232502,2,0,P|68:61|127:56,1,120,4|0,0:0|0:0,0:0:0:0:
208,88,232931,1,8,0:0:0:0:
288,119,233074,2,0,P|347:114|388:72,1,120
388,72,233502,2,0,L|432:112,1,60,8|0,0:0|0:0,0:0:0:0:
436,228,233788,6,0,P|412:256|428:344,1,120,4|8,0:0|0:0,0:0:0:0:
492,292,234217,1,0,0:0:0:0:
436,228,234360,2,0,L|312:256,1,120,0|8,0:0|0:0,0:0:0:0:
196,340,234788,2,0,L|244:220,1,120,4|0,0:0|0:0,0:0:0:0:
280,152,235217,1,8,0:0:0:0:
241,229,235360,2,0,P|181:241|117:229,1,120
68,164,235788,2,0,P|56:132|72:92,1,60,8|0,0:0|0:0,0:0:0:0:
140,132,236074,6,0,L|200:56,1,90.0000034332277,4|0,0:0|0:0,0:0:0:0:
335,81,236502,2,0,L|279:151,1,90.0000034332277,4|0,0:0|0:0,0:0:0:0:
152,240,236931,2,0,L|252:228,1,90.0000034332277,4|0,0:0|0:0,0:0:0:0:
392,312,237360,2,0,L|302:322,1,90.0000034332277,4|0,0:0|0:0,0:0:0:0:
400,232,237788,2,0,P|440:244|460:268,1,60
472,340,238074,1,8,0:0:0:0:
392,312,238217,1,0,0:0:0:0:
400,232,238360,6,0,P|408:192|396:164,1,60,4|0,0:0|0:0,0:0:0:0:
346,120,238645,2,0,P|323:66|344:12,1,120,8|0,0:0|0:0,0:0:0:0:
408,64,239074,2,0,L|456:28,1,60,0|8,0:0|0:0,0:0:0:0:
347,120,239360,2,0,L|250:195,1,120,4|0,0:0|0:0,0:0:0:0:
184,244,239788,1,8,0:0:0:0:
144,320,239931,2,0,P|112:296|108:208,1,120
184,244,240360,2,0,P|216:264|228:304,1,60,8|0,0:0|0:0,0:0:0:0:
102,220,240645,6,0,P|128:176|216:168,1,120,4|8,0:0|0:0,0:0:0:0:
272,184,241074,1,0,0:0:0:0:
352,208,241217,2,0,P|384:220|416:208,2,60,0|0|8,0:0|0:0|0:0,0:0:0:0:
272,184,241645,2,0,L|176:88,1,120,4|0,0:0|0:0,0:0:0:0:
124,44,242074,2,0,P|104:76|104:112,1,60,8|0,0:0|0:0,0:0:0:0:
104,232,242360,2,0,P|124:200|124:164,1,60
44,176,242645,2,0,P|20:216|48:296,1,120,8|4,0:0|0:0,0:0:0:0:
204,300,243217,6,0,P|240:272|324:280,1,120,8|0,0:0|0:0,0:0:0:0:
372,332,243645,2,0,P|392:296|392:264,1,60,0|8,0:0|0:0,0:0:0:0:
380,196,243931,2,0,L|344:68,1,120,4|0,0:0|0:0,0:0:0:0:
347,80,244360,1,8,0:0:0:0:
300,196,244502,2,0,L|264:68,1,120,0|0,0:0|0:0,0:0:0:0:
267,80,244931,2,0,P|232:88|196:76,1,60,8|0,0:0|0:0,0:0:0:0:
140,36,245217,5,4,0:0:0:0:
72,85,245360,2,0,L|36:117,2,30,0|0|8,0:0|0:0|0:0,0:0:0:0:
102,164,245645,2,0,P|86:212|106:288,1,120
149,339,246074,1,8,0:0:0:0:
206,281,246217,2,0,L|234:249,2,30
281,315,246502,2,0,L|323:303,2,30
339,377,246788,2,0,L|381:381,2,30
281,315,247074,5,0,0:0:0:0:
236,220,247217,1,8,0:0:0:0:
240,104,247360,1,0,0:0:0:0:
308,155,247502,6,0,P|328:100|306:46,1,120,4|8,0:0|0:0,0:0:0:0:
240,104,247931,1,0,0:0:0:0:
172,152,248074,2,0,P|144:160|108:152,2,60,0|0|8,0:0|0:0|0:0,0:0:0:0:
240,104,248502,2,0,P|308:84|360:108,1,120,4|0,0:0|0:0,0:0:0:0:
416,156,248931,1,8,0:0:0:0:
416,156,249074,2,0,P|396:216|416:276,1,120
464,332,249502,2,0,P|432:352|396:348,1,60,8|0,0:0|0:0,0:0:0:0:
292,268,249788,6,0,P|256:252|224:260,2,60,4|0|8,0:0|0:0|0:0,0:0:0:0:
208,172,250217,2,0,P|168:192|152:216,2,60
76,180,250645,2,0,P|72:220|120:280,1,120,12|0,0:0|0:0,0:0:0:0:
160,202,251074,2,0,L|196:74,1,120,4|0,0:0|0:0,0:0:0:0:
256,32,251502,1,0,0:0:0:0:
340,28,251645,1,0,0:0:0:0:
400,88,251788,1,8,0:0:0:0:
336,208,251931,6,0,P|300:236|296:316,1,120,4|0,0:0|0:0,0:0:0:0:
372,284,252360,2,0,P|416:240|408:168,1,120,8|0,0:0|0:0,0:0:0:0:
336,208,252788,2,0,L|268:200,1,60,0|8,0:0|0:0,0:0:0:0:
112,248,253074,2,0,L|236:264,1,120,4|0,0:0|0:0,0:0:0:0:
231,263,253502,2,0,P|196:200|228:140,2,120,8|0|8,0:0|0:0|0:0,0:0:0:0:
209,158,254217,6,0,P|140:168|88:160,1,120,4|0,0:0|0:0,0:0:0:0:
76,80,254645,2,0,P|104:52|136:44,1,60,8|0,0:0|0:0,0:0:0:0:
208,60,254931,2,0,P|252:80|276:76,1,60
344,52,255217,1,8,0:0:0:0:
448,148,255360,2,0,P|469:197|457:265,2,120,4|0|0,0:0|0:0|0:0,0:0:0:0:
340,216,256074,2,0,L|232:300,1,120,4|8,0:0|0:0,0:0:0:0:
104,224,256502,6,0,L|198:150,1,120,4|0,0:0|0:0,0:0:0:0:
104,224,256931,2,0,P|116:260|104:292,1,60,8|0,0:0|0:0,0:0:0:0:
28,264,257217,1,0,0:0:0:0:
28,180,257360,1,0,0:0:0:0:
100,140,257502,1,8,0:0:0:0:
180,168,257645,2,0,P|236:176|304:164,1,120,4|0,0:0|0:0,0:0:0:0:
364,116,258074,2,0,L|416:60,1,60,8|0,0:0|0:0,0:0:0:0:
324,44,258360,2,0,L|272:8,1,60
236,84,258645,2,0,L|172:92,1,60,8|0,0:0|0:0,0:0:0:0:
116,200,258931,6,0,P|128:236|108:272,2,60,4|0|8,0:0|0:0|0:0,0:0:0:0:
177,92,259360,2,0,P|213:116|221:144,2,60,4|0|0,0:0|0:0|0:0,0:0:0:0:
324,45,259788,2,0,P|350:70|360:105,2,60,8|2|0,0:0|0:0|0:0,0:0:0:0:
344,168,260217,2,0,P|384:168|436:100,1,120,4|0,0:0|0:0,0:0:0:0:
448,28,260645,1,4,0:0:0:0:
508,88,260788,1,0,0:0:0:0:
496,172,260931,1,8,0:0:0:0:
468,252,261074,6,0,P|424:300|356:300,1,120,0|0,0:0|0:0,0:0:0:0:
196,258,261502,2,0,P|253:242|307:266,2,120,12|0|8,0:0|0:0|0:0,0:0:0:0:
247,326,262217,2,0,L|259:186,1,120
331,166,262645,2,0,L|283:98,1,60,8|0,0:0|0:0,0:0:0:0:
323,38,262931,2,0,L|259:22,1,60
183,10,263217,1,8,0:0:0:0:
84,104,263360,6,0,P|96:144|76:224,1,120,4|0,0:0|0:0,0:0:0:0:
44,296,263788,2,0,P|84:252|156:256,2,120,8|0|8,0:0|0:0|0:0,0:0:0:0:
216,276,264502,2,0,P|248:280|316:224,1,120,4|0,0:0|0:0,0:0:0:0:
236,196,264931,1,8,0:0:0:0:
157,165,265074,2,0,P|140:142|137:108,2,60
236,196,265502,1,8,0:0:0:0:
312,232,265645,1,0,0:0:0:0:
360,164,265788,6,0,P|372:120|448:88,1,120,4|8,0:0|0:0,0:0:0:0:
444,172,266217,2,0,L|472:228,1,60
408,280,266502,2,0,L|396:352,1,60,0|8,0:0|0:0,0:0:0:0:
316,320,266788,2,0,P|264:340|196:320,1,120,4|0,0:0|0:0,0:0:0:0:
128,288,267217,2,0,P|152:256|176:248,1,60,8|0,0:0|0:0,0:0:0:0:
288,184,267502,2,0,P|264:216|240:224,1,60
212,144,267788,1,8,0:0:0:0:
326,111,267931,1,0,0:0:0:0:
366,220,268074,6,0,P|382:248|386:280,2,60,0|0|8,0:0|0:0|0:0,0:0:0:0:
212,144,268502,2,0,P|196:116|192:84,2,60
288,184,268931,1,8,0:0:0:0:
160,214,269074,1,4,0:0:0:0:
256,192,269145,12,2,277324,0:0:0:0:
