osu file format v12

[General]
AudioFilename: IA - Loss Time Memory .mp3
AudioLeadIn: 0
PreviewTime: -1
Countdown: 1
SampleSet: Normal
StackLeniency: 0.7
Mode: 0
LetterboxInBreaks: 1
WidescreenStoryboard: 0

[Editor]
Bookmarks: 34684,102272
DistanceSpacing: 1.4
BeatDivisor: 4
GridSize: 4
TimelineZoom: 1.9

[Metadata]
Title:Lost Time Memory
TitleUnicode:ロスタイムメモリー
Artist:Jin
ArtistUnicode:Jin
Creator:JapanPanda
Version:Insane
Source:Kagerou Project
Tags:Vocaloid IA
BeatmapID:422816
BeatmapSetID:175277

[Difficulty]
HPDrainRate:6
CircleSize:4
OverallDifficulty:8
ApproachRate:9
SliderMultiplier:1.40000000596046
SliderTickRate:1

[Events]
//Background and Video events
0,0,"Lost_Taimu_Memory.jpg",0,0
//Break Periods
2,8043,8957
2,185757,193815
2,209757,216386
2,226829,228386
//Storyboard Layer 0 (Background)
//Storyboard Layer 1 (Fail)
//Storyboard Layer 2 (Pass)
//Storyboard Layer 3 (Foreground)
//Storyboard Sound Samples
//Background Colour Transformations
3,100,163,162,255

[TimingPoints]
415,285.714285714286,4,1,0,100,1,0
415,-100,4,1,0,30,0,0
9410,-100,4,1,0,45,0,0
34684,-62.5,4,1,0,65,0,0
64272,-133.333333333333,4,1,0,65,0,0
64843,-62.5,4,1,0,65,0,0
110986,-50,4,1,0,65,0,0
112057,-62.5,4,1,0,65,0,0
194415,-100,4,2,0,65,0,0
216986,-62.5,4,1,0,65,0,0

[HitObjects]
104,84,415,6,0,P|184:120|240:144,1,140
384,212,986,1,0,0:0:0:0:
372,44,1272,1,0,0:0:0:0:
184,96,1557,1,0,0:0:0:0:
136,180,1700,1,0,0:0:0:0:
176,268,1843,1,0,0:0:0:0:
272,288,1986,1,0,0:0:0:0:
344,220,2129,1,0,0:0:0:0:
328,124,2272,1,0,0:0:0:0:
88,56,2700,6,0,P|64:168|80:180,1,140
196,280,3272,1,0,0:0:0:0:
360,244,3557,1,0,0:0:0:0:
408,156,3700,1,0,0:0:0:0:
348,80,3843,1,0,0:0:0:0:
252,96,3986,2,0,P|176:144|152:216,1,140
156,328,4557,1,0,0:0:0:0:
348,284,4843,5,0,0:0:0:0:
384,192,4986,2,0,P|360:112|280:104,1,140
144,108,5557,1,0,0:0:0:0:
104,272,5843,1,0,0:0:0:0:
200,300,5986,1,0,0:0:0:0:
296,284,6129,2,0,L|356:228,1,70
412,164,6415,1,0,0:0:0:0:
392,68,6557,2,0,L|320:92,1,70
228,76,6843,1,0,0:0:0:0:
136,104,6986,1,0,0:0:0:0:
68,176,7129,1,0,0:0:0:0:
88,260,7272,2,0,P|152:320|336:304,1,280
96,100,9557,6,0,L|216:184,1,140
336,268,10129,1,0,0:0:0:0:
280,80,10415,2,0,L|208:108,1,70
140,172,10700,2,0,L|165:237,1,70
264,260,10986,2,0,L|329:234,1,70
400,168,11272,2,0,L|374:102,1,70
184,48,11700,5,0,0:0:0:0:
104,108,11843,2,0,P|56:184|84:212,1,140
244,316,12415,2,0,L|308:264,1,70
268,68,12700,2,0,L|204:120,1,70
132,180,12986,2,0,L|176:234,1,70
380,204,13272,2,0,L|335:149,1,70
164,56,13700,1,0,0:0:0:0:
356,84,13986,5,0,0:0:0:0:
288,156,14129,2,0,P|256:200|168:188,1,140
44,52,14700,2,0,L|128:172,1,140
176,252,15129,1,0,0:0:0:0:
272,260,15272,1,0,0:0:0:0:
368,236,15415,1,0,0:0:0:0:
424,156,15557,1,0,0:0:0:0:
380,68,15700,2,0,P|316:40|252:68,1,140
188,140,16129,5,0,0:0:0:0:
140,224,16272,2,0,P|120:280|248:316,1,210
280,332,16986,2,0,P|375:319|372:224,1,210
340,132,17557,2,0,P|264:76|204:88,1,140
124,96,17986,1,0,0:0:0:0:
44,156,18129,1,0,0:0:0:0:
308,292,18557,6,0,P|392:244|408:180,1,140
380,112,18986,1,0,0:0:0:0:
204,92,19272,6,0,P|120:140|104:204,1,140
108,276,19700,2,0,P|152:336|232:328,1,140
300,292,20129,1,0,0:0:0:0:
368,220,20272,1,0,0:0:0:0:
396,128,20415,1,0,0:0:0:0:
328,56,20557,1,0,0:0:0:0:
184,56,20843,5,0,0:0:0:0:
116,128,20986,1,0,0:0:0:0:
144,220,21129,1,0,0:0:0:0:
212,292,21272,1,0,0:0:0:0:
300,292,21415,1,0,0:0:0:0:
368,220,21557,2,0,P|408:168|380:80,1,140
328,56,21986,2,0,P|272:56|196:104,1,140
88,152,22843,5,0,0:0:0:0:
124,244,22986,1,0,0:0:0:0:
200,308,23129,2,0,P|256:312|268:296,1,70
261,177,23415,2,0,P|231:162|200:176,1,70
364,284,23843,2,0,P|424:272|432:200,1,140
372,128,24272,1,0,0:0:0:0:
184,72,24557,1,0,0:0:0:0:
88,244,24843,1,0,0:0:0:0:
180,276,24986,1,0,0:0:0:0:
276,300,25129,2,0,P|336:312|400:256,1,140
400,132,25843,5,0,0:0:0:0:
220,52,26129,1,0,0:0:0:0:
124,52,26272,1,0,0:0:0:0:
80,140,26415,1,0,0:0:0:0:
108,236,26557,2,0,P|160:292|228:292,1,140
400,132,27415,5,0,0:0:0:0:
320,84,27557,1,0,0:0:0:0:
224,64,27700,1,0,0:0:0:0:
56,164,27986,1,0,0:0:0:0:
112,248,28415,5,0,0:0:0:0:
192,300,28557,1,0,0:0:0:0:
288,320,28700,1,0,0:0:0:0:
384,292,28843,2,0,P|448:260|444:184,1,140
436,100,29272,1,0,0:0:0:0:
340,80,29415,1,0,0:0:0:0:
244,96,29557,1,0,0:0:0:0:
160,148,29700,1,0,0:0:0:0:
48,308,29986,6,0,L|128:268,1,70
132,204,30272,2,0,L|212:164,1,70
216,96,30557,2,0,L|296:56,1,70
396,108,30843,6,0,L|333:139,1,70
316,224,31129,2,0,L|253:255,1,70,0|0,0:0|0:0,0:0:0:0:
168,304,31415,1,0,0:0:0:0:
428,168,31843,6,0,P|416:116|344:76,1,140
248,68,32272,2,0,P|116:76|64:140,1,210
76,324,32986,1,0,0:0:0:0:
164,284,33129,1,0,0:0:0:0:
248,236,33272,1,0,0:0:0:0:
256,192,33415,12,0,34414,0:0:0:0:
108,144,34700,6,0,P|168:72|308:116,1,220
392,216,35129,1,0,0:0:0:0:
328,320,35272,1,0,0:0:0:0:
164,260,35415,1,0,0:0:0:0:
220,80,35557,1,0,0:0:0:0:
404,120,35700,1,0,0:0:0:0:
408,332,35843,2,0,P|343:303|272:248,1,110
76,152,36129,2,0,L|151:69,1,112
436,232,36415,2,0,L|360:314,1,112
208,280,36700,1,0,0:0:0:0:
172,128,36843,5,0,0:0:0:0:
312,60,36986,1,0,0:0:0:0:
264,208,37129,1,0,0:0:0:0:
356,196,37272,2,0,L|432:108,1,112
156,188,37557,2,0,L|82:272,1,112
312,248,37843,6,0,L|385:163,1,112
156,188,38129,2,0,L|82:272,1,112
268,304,38415,2,0,L|341:219,1,112
432,92,38700,1,0,0:0:0:0:
316,80,38843,1,4,0:0:0:0:
160,100,38986,2,0,P|92:180|172:264,1,224
468,244,39557,1,0,0:0:0:0:
384,112,39700,1,0,0:0:0:0:
248,188,39843,1,0,0:0:0:0:
72,140,39986,1,0,0:0:0:0:
228,156,40129,5,0,0:0:0:0:
104,252,40272,1,0,0:0:0:0:
252,300,40415,2,0,P|312:296|300:156,1,224
172,104,40843,1,0,0:0:0:0:
48,200,40986,1,0,0:0:0:0:
140,328,41129,1,0,0:0:0:0:
292,296,41272,1,0,0:0:0:0:
440,248,41415,1,0,0:0:0:0:
428,92,41557,2,0,P|312:116|228:192,2,224
404,248,42272,5,0,0:0:0:0:
252,288,42415,1,0,0:0:0:0:
112,216,42557,1,0,0:0:0:0:
216,100,42700,1,0,0:0:0:0:
368,144,42843,1,0,0:0:0:0:
356,300,42986,1,0,0:0:0:0:
200,268,43129,2,4,P|100:208|120:96,1,224
248,48,43557,1,0,0:0:0:0:
356,160,43700,5,0,0:0:0:0:
276,296,43843,2,0,P|220:304|84:184,1,224
20,72,44272,1,0,0:0:0:0:
176,76,44415,1,0,0:0:0:0:
304,164,44557,1,0,0:0:0:0:
380,300,44700,1,0,0:0:0:0:
224,316,44843,1,0,0:0:0:0:
80,256,44986,2,0,P|56:200|184:120,1,224
288,208,45415,1,0,0:0:0:0:
416,296,45557,1,0,0:0:0:0:
460,144,45700,5,0,0:0:0:0:
388,284,45843,1,0,0:0:0:0:
256,200,45986,1,0,0:0:0:0:
340,68,46129,1,4,0:0:0:0:
460,144,46272,1,0,0:0:0:0:
256,200,46415,1,0,0:0:0:0:
388,284,46557,1,4,0:0:0:0:
232,308,46700,1,0,0:0:0:0:
100,224,46843,1,0,0:0:0:0:
96,68,46986,1,0,0:0:0:0:
252,92,47129,5,0,0:0:0:0:
372,192,47272,1,0,0:0:0:0:
356,228,47343,1,0,0:0:0:0:
332,260,47415,1,0,0:0:0:0:
296,276,47486,1,0,0:0:0:0:
256,284,47557,1,0,0:0:0:0:
216,280,47629,1,0,0:0:0:0:
180,268,47700,1,0,0:0:0:0:
152,240,47772,1,0,0:0:0:0:
128,208,47843,2,0,L|96:128,1,56
108,116,47986,1,0,0:0:0:0:
132,84,48057,1,0,0:0:0:0:
164,64,48129,1,0,0:0:0:0:
200,56,48200,1,0,0:0:0:0:
240,60,48272,1,0,0:0:0:0:
276,76,48343,2,0,L|324:108,1,56,0|4,0:0|0:0,0:0:0:0:
336,192,48700,6,0,P|328:252|268:272,1,112
176,160,48986,2,0,P|203:113|257:110,1,112
392,224,49272,2,0,P|384:284|324:304,1,112
184,308,49557,2,0,P|108:272|176:160,1,224,0|4,0:0|0:0,0:0:0:0:
304,124,49986,1,0,0:0:0:0:
372,264,50129,1,0,0:0:0:0:
220,304,50272,1,0,0:0:0:0:
112,188,50415,1,0,0:0:0:0:
200,60,50557,1,0,0:0:0:0:
356,84,50700,2,0,P|412:152|348:256,1,224,0|4,0:0|0:0,0:0:0:0:
192,268,51129,5,0,0:0:0:0:
76,164,51272,1,0,0:0:0:0:
192,56,51415,1,0,0:0:0:0:
316,152,51557,1,0,0:0:0:0:
292,308,51700,1,0,0:0:0:0:
136,292,51843,2,0,P|112:188|220:144,1,224
360,144,52272,2,4,P|424:176|284:312,1,336
72,132,52986,5,0,0:0:0:0:
220,76,53129,1,0,0:0:0:0:
304,208,53272,1,0,0:0:0:0:
168,288,53415,1,0,0:0:0:0:
72,168,53557,2,4,P|88:100|136:104,1,112,0|0,0:0|0:0,0:0:0:0:
392,96,53843,2,0,P|441:115|440:168,1,112,0|0,0:0|0:0,0:0:0:0:
320,268,54129,1,0,0:0:0:0:
164,256,54272,1,0,0:0:0:0:
64,136,54415,1,0,0:0:0:0:
200,60,54557,5,0,0:0:0:0:
340,132,54700,1,0,0:0:0:0:
288,280,54843,1,0,0:0:0:0:
140,228,54986,2,0,P|104:172|216:92,1,224
320,268,55700,1,4,0:0:0:0:
68,140,56129,1,4,0:0:0:0:
424,48,56557,1,4,0:0:0:0:
348,236,56986,2,0,P|272:264|144:192,1,224,0|4,0:0|0:0,0:0:0:0:
272,76,57557,6,0,P|344:96|328:248,1,224
224,316,57986,1,0,0:0:0:0:
76,264,58129,1,0,0:0:0:0:
64,108,58272,1,0,0:0:0:0:
208,48,58415,2,0,P|276:52|296:96,2,112
88,148,58843,1,0,0:0:0:0:
156,288,58986,1,0,0:0:0:0:
308,252,59129,1,0,0:0:0:0:
424,148,59272,2,0,P|412:72|348:76,1,112
76,68,59700,5,0,0:0:0:0:
232,56,59843,2,0,P|308:84|256:212,1,224
156,288,60415,2,0,P|256:284|292:252,2,112
60,164,60843,1,0,0:0:0:0:
200,92,60986,1,0,0:0:0:0:
356,104,61129,2,4,P|404:164|312:260,1,224
40,124,61700,1,4,0:0:0:0:
348,64,61986,5,0,0:0:0:0:
444,188,62129,2,0,P|404:264|336:252,2,112
392,40,62557,1,0,0:0:0:0:
252,112,62700,2,0,P|184:144|256:264,1,224
384,264,63129,1,0,0:0:0:0:
420,112,63272,1,0,0:0:0:0:
268,68,63415,1,0,0:0:0:0:
132,144,63557,1,0,0:0:0:0:
176,296,63700,2,0,B|228:336|228:336|248:252|248:252|320:264|320:264|340:224,1,224
476,272,64129,5,0,0:0:0:0:
412,152,64272,2,0,B|408:88|408:88|344:64|344:64|308:96,1,157.500006008148,0|4,0:0|0:0,0:0:0:0:
268,124,64843,1,0,0:0:0:0:
212,172,64986,1,0,0:0:0:0:
188,200,65057,1,0,0:0:0:0:
164,228,65129,1,0,0:0:0:0:
304,300,65272,1,2,0:0:0:0:
440,220,65415,1,0,0:0:0:0:
360,96,65557,5,0,0:0:0:0:
224,72,65700,1,4,0:0:0:0:
180,96,65772,1,0,0:0:0:0:
144,132,65843,1,0,0:0:0:0:
124,180,65915,1,0,0:0:0:0:
132,228,65986,2,0,P|176:300|252:304,2,112,0|0|4,0:0|0:0|0:0,0:0:0:0:
432,260,66700,6,0,P|452:176|408:156,1,112
368,100,66986,1,0,0:0:0:0:
248,112,67129,2,0,P|216:155|236:204,1,112
311,272,67415,1,0,0:0:0:0:
432,260,67557,2,0,P|452:176|408:156,1,112
368,100,67843,1,0,0:0:0:0:
248,112,67986,2,0,P|216:155|236:204,1,112
311,272,68272,1,0,0:0:0:0:
432,260,68415,2,0,P|452:176|408:156,1,112
368,100,68700,1,0,0:0:0:0:
216,64,68843,6,0,P|132:64|104:96,2,112
360,128,69272,1,0,0:0:0:0:
311,272,69415,1,0,0:0:0:0:
156,296,69557,2,0,P|100:260|152:128,1,224
292,84,69986,1,0,0:0:0:0:
400,196,70129,1,0,0:0:0:0:
320,332,70272,1,0,0:0:0:0:
320,332,70343,1,0,0:0:0:0:
320,332,70415,1,0,0:0:0:0:
320,332,70486,1,0,0:0:0:0:
320,332,70557,2,0,P|236:324|180:284,2,112,4|0|4,0:0|0:0|0:0,0:0:0:0:
44,180,71129,5,4,0:0:0:0:
188,116,71272,2,0,P|248:104|328:136,2,112
44,180,71700,1,0,0:0:0:0:
144,300,71843,2,0,P|248:320|328:240,1,224
384,96,72272,1,0,0:0:0:0:
232,64,72415,1,0,0:0:0:0:
124,176,72557,1,0,0:0:0:0:
168,328,72700,2,0,P|292:304|316:280,1,112
343,55,72986,2,0,P|288:51|235:69,1,112
88,124,73272,2,0,P|56:176|184:296,1,224
288,284,73700,5,0,0:0:0:0:
372,152,73843,1,0,0:0:0:0:
232,64,73986,1,0,0:0:0:0:
376,276,74129,2,0,P|416:220|312:104,1,224
184,92,74557,1,0,0:0:0:0:
80,212,74700,2,0,P|96:288|320:280,1,336
396,164,75272,2,0,P|392:96|236:56,1,224
140,140,75700,1,0,0:0:0:0:
140,296,75843,5,0,0:0:0:0:
296,304,75986,1,0,0:0:0:0:
436,236,76129,1,0,0:0:0:0:
356,100,76272,1,0,0:0:0:0:
212,40,76415,2,0,P|120:56|100:104,1,112
60,212,76700,1,0,0:0:0:0:
188,304,76843,2,0,P|256:296|280:252,1,112
364,132,77129,1,0,0:0:0:0:
208,108,77272,5,0,0:0:0:0:
132,244,77415,1,0,0:0:0:0:
284,280,77557,2,0,P|288:196|240:184,1,112
284,280,77843,1,4,0:0:0:0:
376,152,77986,2,0,P|312:92|176:120,1,224
72,220,78415,1,0,0:0:0:0:
204,304,78557,1,0,0:0:0:0:
360,296,78700,1,0,0:0:0:0:
432,156,78843,1,0,0:0:0:0:
320,48,78986,5,0,0:0:0:0:
168,80,79129,2,0,P|92:132|88:172,2,112
320,48,79557,1,4,0:0:0:0:
432,156,79700,1,0,0:0:0:0:
360,296,79843,1,0,0:0:0:0:
204,304,79986,2,0,P|108:260|96:208,1,112
88,104,80272,2,0,P|160:40|240:124,1,224
316,248,80700,1,0,0:0:0:0:
172,308,80843,1,0,0:0:0:0:
396,88,81129,6,0,P|328:68|280:96,1,112
144,136,81415,2,0,P|88:168|160:300,2,224
128,296,82272,1,0,0:0:0:0:
368,120,82557,1,0,0:0:0:0:
336,220,82700,5,0,0:0:0:0:
312,272,82772,1,0,0:0:0:0:
256,268,82843,1,0,0:0:0:0:
144,264,82986,1,0,0:0:0:0:
176,164,83129,1,0,0:0:0:0:
200,112,83200,1,0,0:0:0:0:
256,116,83272,1,0,0:0:0:0:
368,120,83415,2,0,P|432:136|416:172,2,112,0|0|4,0:0|0:0|0:0,0:0:0:0:
264,76,83843,1,0,0:0:0:0:
152,64,83986,6,0,P|80:96|96:228,1,224
132,264,84343,1,0,0:0:0:0:
184,288,84415,1,0,0:0:0:0:
236,308,84486,1,0,0:0:0:0:
292,308,84557,2,0,P|352:280|380:216,1,112
380,84,84843,1,0,0:0:0:0:
224,56,84986,2,0,P|148:60|136:96,1,112
84,232,85272,1,0,0:0:0:0:
192,344,85415,2,0,P|248:356|324:312,1,112
420,240,85700,5,0,0:0:0:0:
356,96,85843,1,0,0:0:0:0:
200,72,85986,2,0,P|108:64|84:188,1,224
144,316,86415,1,0,0:0:0:0:
300,300,86557,1,0,0:0:0:0:
364,156,86700,1,0,0:0:0:0:
388,100,86772,1,0,0:0:0:0:
360,44,86843,2,0,P|304:36|232:68,1,112
144,88,87129,6,0,P|88:128|180:240,1,224,4|0,0:0|0:0,0:0:0:0:
256,268,87557,1,0,0:0:0:0:
348,204,87700,1,0,0:0:0:0:
336,92,87843,2,0,P|248:68|216:88,2,112
416,172,88272,1,0,0:0:0:0:
392,280,88415,2,0,P|336:336|264:328,1,112
164,272,88700,1,2,0:0:0:0:
104,128,88843,2,2,P|104:56|168:48,1,112,0|0,0:0|0:0,0:0:0:0:
379,41,89129,2,0,P|420:76|408:128,2,112,0|0|4,0:0|0:0|0:0,0:0:0:0:
224,48,89557,6,0,P|148:72|136:108,1,112
128,140,89772,1,0,0:0:0:0:
140,184,89843,1,0,0:0:0:0:
160,220,89915,1,0,0:0:0:0:
192,256,89986,2,0,P|280:248|300:220,1,112
412,112,90272,1,0,0:0:0:0:
256,84,90415,1,0,0:0:0:0:
128,172,90557,2,4,P|124:284|232:288,1,224,4|0,0:0|0:0,0:0:0:0:
352,224,90986,1,0,0:0:0:0:
348,68,91129,1,0,0:0:0:0:
192,92,91272,5,0,0:0:0:0:
64,184,91415,1,0,0:0:0:0:
160,308,91557,1,0,0:0:0:0:
316,332,91700,2,0,P|408:300|416:176,1,224,4|0,0:0|0:0,0:0:0:0:
320,68,92129,1,0,0:0:0:0:
164,68,92272,1,0,0:0:0:0:
76,196,92415,1,0,0:0:0:0:
212,272,92557,1,0,0:0:0:0:
256,192,92700,12,0,93557,0:0:0:0:
60,228,93843,6,0,P|120:256|288:260,1,224,0|4,0:0|0:0,0:0:0:0:
451,155,94415,6,0,P|347:117|236:120,1,224,0|4,0:0|0:0,0:0:0:0:
152,104,94986,1,0,0:0:0:0:
88,248,95129,2,0,P|128:312|304:316,1,224,0|4,0:0|0:0,0:0:0:0:
423,135,95700,2,0,P|354:52|246:46,1,224,0|4,0:0|0:0,0:0:0:0:
200,64,96057,1,0,0:0:0:0:
160,96,96129,1,0,0:0:0:0:
132,136,96200,1,0,0:0:0:0:
148,184,96272,2,0,P|188:248|236:264,2,112
219,261,96700,2,0,P|276:300|416:244,1,224
408,92,97129,1,0,0:0:0:0:
256,48,97272,5,0,0:0:0:0:
116,120,97415,1,0,0:0:0:0:
96,256,97557,2,0,P|160:296|228:256,1,112
324,200,97843,1,0,0:0:0:0:
320,44,97986,2,0,P|180:68|120:120,1,224
72,268,98415,1,0,0:0:0:0:
220,324,98557,2,0,P|324:316|356:288,2,112
327,313,98986,2,0,P|380:284|368:132,1,224
220,100,99415,1,0,0:0:0:0:
88,184,99557,2,0,P|68:248|112:312,2,112
83,287,99986,5,0,0:0:0:0:
236,252,100129,1,0,0:0:0:0:
356,152,100272,2,0,P|324:96|160:84,1,224
72,192,100700,1,0,0:0:0:0:
184,300,100843,1,0,0:0:0:0:
240,316,100915,1,0,0:0:0:0:
296,312,100986,2,0,P|368:304|368:168,1,224,4|0,0:0|0:0,0:0:0:0:
215,71,101415,2,0,P|118:106|134:208,1,224,4|0,0:0|0:0,0:0:0:0:
296,312,101843,2,0,P|368:304|368:168,1,224,4|0,0:0|0:0,0:0:0:0:
215,71,102272,2,0,P|118:106|134:208,1,224,4|0,0:0|0:0,0:0:0:0:
172,252,102629,5,0,0:0:0:0:
220,276,102700,1,0,0:0:0:0:
276,284,102772,1,0,0:0:0:0:
332,284,102843,1,0,0:0:0:0:
380,264,102915,1,0,0:0:0:0:
420,228,102986,2,0,P|440:172|376:140,2,112,0|0|4,0:0|0:0|0:0,0:0:0:0:
407,139,103415,1,0,0:0:0:0:
308,84,103557,1,0,0:0:0:0:
252,88,103629,1,0,0:0:0:0:
196,96,103700,1,0,0:0:0:0:
92,140,103843,6,0,P|28:232|100:304,1,224
248,328,104272,1,0,0:0:0:0:
396,280,104415,2,0,P|448:220|392:196,1,112
344,84,104700,1,0,0:0:0:0:
192,44,104843,2,0,P|116:72|92:208,1,224
380,324,105415,5,0,0:0:0:0:
428,176,105557,2,0,P|424:112|368:112,1,112
232,132,105843,2,0,P|136:160|148:276,2,224
352,232,106557,2,0,P|408:248|424:104,1,224,4|0,0:0|0:0,0:0:0:0:
300,80,106986,1,0,0:0:0:0:
144,84,107129,2,0,P|84:116|148:236,1,224
232,112,107557,1,0,0:0:0:0:
300,256,107700,1,0,0:0:0:0:
320,100,107843,2,0,P|380:84|424:224,1,224
316,308,108272,1,0,0:0:0:0:
180,232,108415,5,0,0:0:0:0:
208,80,108557,1,0,0:0:0:0:
360,48,108700,2,0,P|420:72|424:160,2,112
204,64,109129,2,0,P|104:104|124:208,2,224
352,120,109843,1,0,0:0:0:0:
328,276,109986,2,0,P|264:324|216:316,1,112
196,312,110200,1,0,0:0:0:0:
160,292,110272,1,0,0:0:0:0:
136,260,110343,1,0,0:0:0:0:
120,224,110415,1,0,0:0:0:0:
120,184,110486,5,0,0:0:0:0:
128,144,110557,1,0,0:0:0:0:
144,108,110629,1,0,0:0:0:0:
164,76,110700,1,0,0:0:0:0:
200,64,110772,1,0,0:0:0:0:
240,56,110843,1,0,0:0:0:0:
280,60,110915,1,0,0:0:0:0:
324,80,110986,2,0,P|352:112|392:112,13,70
360,272,112129,6,0,P|308:328|152:268,1,224
68,144,112557,1,0,0:0:0:0:
236,40,112700,2,0,P|320:56|328:88,1,112
228,268,112986,1,0,0:0:0:0:
168,244,113057,1,0,0:0:0:0:
124,192,113129,1,0,0:0:0:0:
92,76,113272,2,0,P|144:44|216:60,1,112
404,116,113557,1,0,0:0:0:0:
400,312,113700,2,0,P|288:332|268:308,1,112
108,224,113986,1,0,0:0:0:0:
196,48,114129,6,0,P|276:56|316:120,1,112
328,104,114343,1,0,0:0:0:0:
336,152,114415,1,0,0:0:0:0:
312,196,114486,1,0,0:0:0:0:
268,212,114557,1,0,0:0:0:0:
80,260,114700,6,0,P|8:212|20:184,1,112
192,84,114986,1,0,0:0:0:0:
376,148,115129,1,0,0:0:0:0:
400,304,115272,2,0,P|316:332|276:316,1,112
128,284,115557,1,0,0:0:0:0:
92,92,115700,1,0,0:0:0:0:
284,60,115843,5,0,0:0:0:0:
284,60,115915,1,0,0:0:0:0:
284,60,115986,1,0,0:0:0:0:
284,60,116057,1,0,0:0:0:0:
284,60,116129,2,0,P|368:52|388:108,1,112
316,276,116415,1,0,0:0:0:0:
128,284,116557,2,0,P|104:212|136:168,1,112
240,80,116843,2,0,P|356:80|384:104,1,112,0|4,0:0|0:0,0:0:0:0:
384,224,117057,5,0,0:0:0:0:
384,224,117129,1,0,0:0:0:0:
384,224,117200,1,0,0:0:0:0:
384,224,117272,2,0,P|320:288|192:256,1,224
84,156,117700,1,0,0:0:0:0:
188,40,117843,2,0,P|280:48|304:88,1,112
428,0,118129,1,0,0:0:0:0:
396,312,118272,2,0,P|336:336|264:320,1,112
152,256,118557,2,0,P|112:192|216:96,1,224
236,88,118915,5,0,0:0:0:0:
276,92,118986,1,0,0:0:0:0:
308,116,119057,1,0,0:0:0:0:
324,152,119129,2,0,P|340:240|312:252,1,112
196,312,119415,1,0,0:0:0:0:
68,224,119557,1,0,0:0:0:0:
80,180,119629,1,0,0:0:0:0:
100,140,119700,1,0,0:0:0:0:
160,72,119843,1,0,0:0:0:0:
256,44,119986,5,0,0:0:0:0:
300,48,120057,1,0,0:0:0:0:
340,72,120129,1,0,0:0:0:0:
332,228,120272,2,0,P|200:216|204:136,1,224
212,116,120629,1,0,0:0:0:0:
248,96,120700,1,0,0:0:0:0:
288,96,120772,1,0,0:0:0:0:
324,108,120843,1,4,0:0:0:0:
436,284,121129,1,4,0:0:0:0:
124,276,121415,5,0,0:0:0:0:
108,120,121557,1,0,0:0:0:0:
252,60,121700,1,0,0:0:0:0:
392,136,121843,2,0,P|432:192|392:232,1,112
268,284,122129,1,0,0:0:0:0:
112,308,122272,2,0,P|64:264|76:216,1,112
176,104,122557,1,0,0:0:0:0:
332,92,122700,2,0,P|384:112|380:192,1,112
300,288,122986,5,0,0:0:0:0:
256,312,123057,1,0,0:0:0:0:
208,304,123129,1,0,0:0:0:0:
88,172,123272,1,0,0:0:0:0:
100,44,123415,2,0,P|176:36|236:88,1,112
356,96,123700,6,0,P|420:128|400:176,2,112
200,64,124129,1,0,0:0:0:0:
92,180,124272,1,0,0:0:0:0:
176,312,124415,2,0,P|272:328|324:300,1,112
392,212,124700,1,0,0:0:0:0:
340,64,124843,2,0,P|268:48|216:76,1,112
96,140,125129,1,0,0:0:0:0:
96,140,125200,1,0,0:0:0:0:
96,140,125272,1,0,0:0:0:0:
96,140,125343,1,0,0:0:0:0:
96,140,125415,2,0,P|172:152|288:240,1,224,4|0,0:0|0:0,0:0:0:0:
388,248,125772,5,0,0:0:0:0:
388,248,125843,1,0,0:0:0:0:
388,248,125915,1,0,0:0:0:0:
388,248,125986,2,0,P|356:172|284:148,1,112,0|4,0:0|0:0,0:0:0:0:
188,92,126272,1,0,0:0:0:0:
52,172,126415,2,0,P|32:248|80:288,2,112
128,152,126772,1,0,0:0:0:0:
180,128,126843,1,0,0:0:0:0:
228,112,126915,1,0,0:0:0:0:
288,96,126986,2,0,P|384:88|396:200,1,224
340,292,127415,5,0,0:0:0:0:
272,256,127557,1,0,0:0:0:0:
112,120,127700,2,0,P|144:40|272:52,1,224
404,120,128129,2,0,P|448:192|356:296,1,224
336,292,128486,1,0,0:0:0:0:
296,284,128557,1,0,0:0:0:0:
260,268,128629,1,0,0:0:0:0:
260,268,128700,1,0,0:0:0:0:
260,268,128772,1,0,0:0:0:0:
260,268,128843,1,0,0:0:0:0:
260,268,128915,1,0,0:0:0:0:
260,268,128986,6,0,B|164:248|116:272|116:272|135:118|135:118|224:114|224:114|232:192,1,448
268,176,129629,1,0,0:0:0:0:
300,200,129700,1,0,0:0:0:0:
332,224,129772,1,0,0:0:0:0:
372,228,129843,2,0,P|456:208|432:88,1,224
284,64,130272,1,0,0:0:0:0:
136,112,130415,2,0,P|64:192|64:204,1,112
168,308,130700,1,0,0:0:0:0:
324,320,130843,2,0,P|400:308|424:276,1,112
448,128,131129,2,0,P|392:84|344:92,1,112
188,320,131415,6,0,P|112:308|88:276,1,112
354,87,131700,2,0,P|409:89|447:127,1,112
360,260,131986,1,0,0:0:0:0:
212,212,132129,1,0,0:0:0:0:
56,188,132272,2,0,P|56:132|112:112,1,112
252,72,132557,1,0,0:0:0:0:
308,108,132629,1,0,0:0:0:0:
344,164,132700,1,0,0:0:0:0:
280,296,132843,2,0,P|184:320|144:296,1,112
88,188,133129,5,0,0:0:0:0:
112,32,133272,2,0,P|184:28|212:60,3,112
328,156,133843,1,0,0:0:0:0:
288,308,133986,1,0,0:0:0:0:
132,300,134129,2,0,P|56:264|48:196,2,112
160,144,134557,1,0,0:0:0:0:
304,80,134700,6,0,P|408:92|424:132,1,112
424,244,134986,1,0,0:0:0:0:
268,252,135129,1,0,0:0:0:0:
132,172,135272,2,0,P|84:104|132:88,1,112
426,101,135557,2,0,P|429:154|380:172,2,112
276,56,135986,2,0,P|184:64|136:104,1,112
68,196,136272,1,4,0:0:0:0:
180,308,136415,1,0,0:0:0:0:
336,296,136557,1,0,0:0:0:0:
444,180,136700,6,0,P|392:132|232:80,2,224
376,320,137415,1,0,0:0:0:0:
224,284,137557,1,0,0:0:0:0:
108,180,137700,2,0,P|104:96|152:80,1,112
276,92,137986,1,0,0:0:0:0:
420,152,138129,1,0,0:0:0:0:
404,308,138272,2,0,P|316:304|260:280,1,112
156,224,138557,1,0,0:0:0:0:
120,72,138700,2,0,P|204:48|320:112,1,224
56,324,139272,6,0,L|176:256,1,112
128,196,139557,6,0,L|225:140,1,112
288,220,139843,6,0,L|385:164,1,112
408,56,140129,6,0,L|310:111,1,112
168,176,140415,1,0,0:0:0:0:
288,220,140557,2,0,L|385:164,1,112
472,296,140843,2,0,P|408:300|344:268,1,112
212,240,141129,1,0,0:0:0:0:
108,124,141272,2,0,P|176:88|192:104,2,112
116,280,141700,1,0,0:0:0:0:
268,324,141843,2,0,P|360:320|440:176,1,224
360,84,142272,1,0,0:0:0:0:
204,72,142415,6,0,P|124:120|108:164,2,112
360,76,142843,1,0,0:0:0:0:
444,208,142986,2,0,P|420:316|296:320,1,224
184,252,143415,1,0,0:0:0:0:
160,208,143486,1,0,0:0:0:0:
176,160,143557,1,0,0:0:0:0:
216,128,143629,1,0,0:0:0:0:
264,116,143700,1,0,0:0:0:0:
316,116,143772,1,0,0:0:0:0:
364,132,143843,2,0,P|416:148|392:224,2,112
212,180,144272,5,4,0:0:0:0:
304,308,144415,1,0,0:0:0:0:
444,240,144557,2,0,P|476:148|456:120,1,112
344,52,144843,1,0,0:0:0:0:
188,64,144986,1,0,0:0:0:0:
80,176,145129,2,0,P|72:236|120:256,1,112,0|4,0:0|0:0,0:0:0:0:
268,244,145415,2,0,P|352:224|308:112,1,224
168,88,145843,2,0,P|112:92|84:140,1,112
84,248,146129,2,0,P|114:293|167:296,1,112
344,296,146415,2,0,P|397:293|427:248,1,112,4|4,0:0|0:0,0:0:0:0:
384,96,146700,5,0,0:0:0:0:
228,84,146843,1,0,0:0:0:0:
104,180,146986,1,0,0:0:0:0:
176,320,147129,1,0,0:0:0:0:
332,312,147272,1,0,0:0:0:0:
400,172,147415,1,0,0:0:0:0:
292,60,147557,1,0,0:0:0:0:
136,128,147700,2,0,P|44:228|100:268,1,224
132,276,148057,5,0,0:0:0:0:
176,272,148129,1,0,0:0:0:0:
220,264,148200,1,0,0:0:0:0:
260,248,148272,1,0,0:0:0:0:
300,224,148343,1,0,0:0:0:0:
336,196,148415,1,0,0:0:0:0:
52,68,148986,6,0,B|56:160|148:84|216:120|220:204,1,224,4|0,0:0|0:0,0:0:0:0:
320,300,149414,1,0,0:0:0:0:
416,176,149557,1,0,0:0:0:0:
376,144,149629,1,0,0:0:0:0:
336,112,149700,1,0,0:0:0:0:
288,96,149772,1,0,0:0:0:0:
240,92,149843,1,0,0:0:0:0:
88,132,149986,1,0,0:0:0:0:
188,252,150129,2,0,P|258:331|362:305,1,224
448,176,150557,1,0,0:0:0:0:
284,84,150700,5,0,0:0:0:0:
128,112,150843,2,0,P|152:192|180:180,1,112
308,220,151129,2,0,P|384:216|388:188,1,112,0|4,0:0|0:0,0:0:0:0:
308,60,151415,1,0,0:0:0:0:
232,68,151486,1,0,0:0:0:0:
164,108,151557,2,0,P|152:176|176:212,1,112
232,268,151772,1,0,0:0:0:0:
308,288,151843,2,0,P|400:296|408:272,1,112
448,176,152129,1,0,0:0:0:0:
304,112,152272,6,0,P|236:100|104:196,1,224,4|0,0:0|0:0,0:0:0:0:
184,320,152700,1,0,0:0:0:0:
340,316,152843,2,0,P|424:276|432:248,1,112
171,67,153129,2,0,P|117:76|83:119,1,112
83,264,153415,2,0,P|117:307|171:316,2,112,0|4|0,0:0|0:0|0:0,0:0:0:0:
124,112,153843,2,0,P|172:80|244:92,1,112
372,140,154129,1,0,0:0:0:0:
332,292,154272,2,0,P|252:304|208:288,1,112
84,228,154557,2,0,P|80:148|232:132,1,224,0|4,0:0|0:0,0:0:0:0:
352,144,154986,1,0,0:0:0:0:
404,292,155129,6,0,P|320:312|284:296,1,112
144,280,155415,1,0,0:0:0:0:
112,128,155557,2,0,P|164:88|216:108,1,112
360,68,155843,6,4,B|248:140|248:140|348:212|348:212|248:276,1,336
152,316,156700,6,4,B|264:244|264:244|164:172|164:172|231:129,1,336
288,76,157557,6,4,P|360:76|368:216,1,224
380,288,158129,6,0,P|304:304|264:280,1,112
148,200,158415,1,0,0:0:0:0:
212,56,158557,2,0,P|276:60|324:104,2,112
92,160,158986,1,4,0:0:0:0:
152,304,159129,2,0,P|252:304|340:216,1,224
368,140,159557,1,4,0:0:0:0:
460,160,159700,2,0,P|428:88|288:80,1,224
164,160,160129,5,4,0:0:0:0:
284,264,160272,2,0,P|352:304|392:280,1,112
476,172,160557,1,0,0:0:0:0:
368,60,160700,2,0,P|280:40|256:56,1,112
144,148,160986,1,0,0:0:0:0:
224,284,161129,2,0,P|320:320|364:304,1,112
224,284,161415,2,0,P|168:224|224:100,1,224
368,68,161843,1,0,0:0:0:0:
460,192,161986,2,0,P|436:280|312:312,1,224
176,248,162415,1,0,0:0:0:0:
104,112,162557,5,0,0:0:0:0:
256,68,162700,2,0,P|320:112|300:140,1,112
248,268,162986,2,0,P|176:304|120:180,1,224
200,76,163415,1,0,0:0:0:0:
352,100,163557,2,0,P|380:192|352:240,1,112
224,240,163843,1,0,0:0:0:0:
96,148,163986,2,0,P|176:92|320:148,1,224
396,236,164415,1,0,0:0:0:0:
336,288,164486,1,0,0:0:0:0:
260,280,164557,1,0,0:0:0:0:
144,176,164700,5,0,0:0:0:0:
284,104,164843,1,0,0:0:0:0:
440,84,164986,2,4,P|452:168|312:260,1,224
152,259,165415,2,4,P|68:191|72:84,1,224
256,192,165843,12,4,167129,0:0:0:0:
140,92,167415,6,0,P|208:64|232:88,1,112
408,180,167700,2,0,P|400:280|364:292,1,112
248,304,167986,2,0,P|160:284|164:252,1,112
180,128,168272,1,0,0:0:0:0:
324,68,168415,2,0,P|420:88|424:112,1,112
368,232,168700,1,0,0:0:0:0:
212,236,168843,2,0,P|152:212|152:160,1,112
260,60,169129,2,0,P|328:56|376:92,1,112
408,228,169415,1,0,0:0:0:0:
380,300,169486,1,0,0:0:0:0:
304,292,169557,5,0,0:0:0:0:
172,208,169700,2,0,P|160:148|212:128,1,112
356,132,169986,2,0,P|424:176|400:216,1,112
264,216,170272,2,0,P|172:156|168:124,1,112
316,96,170557,1,0,0:0:0:0:
376,112,170629,1,0,0:0:0:0:
416,152,170700,1,0,0:0:0:0:
324,300,170843,2,0,P|264:292|220:256,1,112
152,120,171129,2,0,P|192:80|260:96,1,112
368,184,171415,2,0,P|380:248|340:280,1,112
196,244,171700,5,0,0:0:0:0:
176,168,171772,1,0,0:0:0:0:
192,92,171843,1,0,0:0:0:0:
348,68,171986,2,0,P|396:104|380:172,1,112
308,284,172272,1,0,0:0:0:0:
152,260,172415,2,0,P|64:200|72:176,1,112
152,88,172700,1,0,0:0:0:0:
308,96,172843,1,0,0:0:0:0:
368,120,172915,1,0,0:0:0:0:
404,172,172986,1,0,0:0:0:0:
364,300,173129,6,0,P|292:336|256:320,1,112
116,276,173415,2,0,P|96:216|132:208,1,112
284,212,173700,2,0,P|376:200|376:172,1,112
376,48,173986,1,0,0:0:0:0:
300,40,174057,1,0,0:0:0:0:
228,68,174129,1,0,0:0:0:0:
88,140,174272,6,0,P|72:196|112:232,1,112
248,292,174557,2,0,P|324:288|336:256,1,112
376,112,174843,2,0,P|308:104|248:124,1,112
132,196,175129,1,0,0:0:0:0:
152,272,175200,1,0,0:0:0:0:
220,316,175272,1,0,0:0:0:0:
376,288,175415,2,0,P|464:224|328:84,1,336
276,60,175915,2,0,L|204:80,1,56
76,104,176129,2,0,P|32:160|48:208,1,112
156,304,176415,6,0,P|224:300|272:272,1,112
376,172,176700,1,0,0:0:0:0:
336,104,176772,1,0,0:0:0:0:
264,72,176843,1,0,0:0:0:0:
108,80,176986,2,0,P|60:128|88:176,1,112
188,272,177272,2,0,P|256:264|312:236,1,112
332,96,177557,1,0,0:0:0:0:
368,164,177629,1,0,0:0:0:0:
352,240,177700,1,0,0:0:0:0:
204,296,177843,6,0,L|328:244,1,112
380,112,178129,2,0,L|260:160,1,112
128,204,178415,1,0,0:0:0:0:
204,184,178486,1,0,0:0:0:0:
276,152,178557,1,0,0:0:0:0:
400,60,178700,2,0,P|440:128|424:168,1,112
316,264,178986,1,0,0:0:0:0:
160,280,179129,1,0,0:0:0:0:
140,124,179272,1,0,0:0:0:0:
212,96,179343,1,0,0:0:0:0:
288,84,179415,1,0,0:0:0:0:
424,156,179557,6,0,P|440:232|404:272,1,112
276,308,179843,2,0,P|196:316|168:280,1,112
212,144,180129,1,0,0:0:0:0:
284,116,180200,1,0,0:0:0:0:
360,144,180272,1,0,0:0:0:0:
388,300,180415,2,0,P|420:232|396:188,1,112
72,280,180700,1,0,0:0:0:0:
72,280,180772,1,0,0:0:0:0:
70,278,180843,6,0,B|56:228|32:48|424:8|408:260,1,560
340,300,181629,1,0,0:0:0:0:
264,320,181700,1,0,0:0:0:0:
176,316,181843,2,0,P|80:284|72:244,1,112
112,112,182129,2,0,P|164:64|220:68,1,112
396,60,182415,2,0,L|280:120,1,112
148,328,182700,2,0,L|260:272,1,112
468,168,182986,6,0,L|332:212,1,112
236,108,183272,2,0,L|308:68,32,56,0|0|0|0|0|0|0|0|0|0|0|0|0|0|0|0|0|0|0|0|0|0|0|0|0|0|0|0|0|0|0|0|4,0:0|0:0|0:0|0:0|0:0|0:0|0:0|0:0|0:0|0:0|0:0|0:0|0:0|0:0|0:0|0:0|0:0|0:0|0:0|0:0|0:0|0:0|0:0|0:0|0:0|0:0|0:0|0:0|0:0|0:0|0:0|0:0|0:0,0:0:0:0:
196,148,194415,5,0,2:0:0:0:
376,224,194700,2,0,P|384:124|336:96,1,140
264,108,195129,1,0,0:0:0:0:
288,172,195272,1,0,0:0:0:0:
88,84,195843,6,0,P|72:148|88:168,1,70
336,276,196415,5,0,0:0:0:0:
404,208,196557,2,0,P|432:156|408:128,1,70
244,92,196986,6,0,P|168:104|132:168,1,140
152,252,197415,1,0,0:0:0:0:
240,292,197557,2,0,L|336:320,1,70
400,280,197843,1,0,0:0:0:0:
304,108,198129,2,0,P|380:96|412:156,1,140
36,260,198986,6,0,P|44:176|88:164,1,140
184,148,199415,1,0,0:0:0:0:
280,156,199557,1,0,0:0:0:0:
472,196,199843,6,0,P|480:144|412:96,1,140
224,52,200415,2,0,P|124:80|116:136,1,140
108,200,200843,1,0,0:0:0:0:
200,280,200986,1,0,0:0:0:0:
384,212,201272,1,0,0:0:0:0:
252,68,201557,6,0,P|184:104|196:168,1,140
276,204,201986,1,0,0:0:0:0:
180,212,202129,1,0,0:0:0:0:
112,268,202415,2,0,P|188:304|396:312,1,280
420,156,203557,5,0,0:0:0:0:
236,84,203843,2,0,P|148:96|148:136,1,140
332,264,204272,1,0,0:0:0:0:
240,300,204415,1,0,0:0:0:0:
416,276,204986,6,0,P|448:212|392:176,1,140
212,128,205557,1,0,0:0:0:0:
308,152,205843,1,0,0:0:0:0:
136,248,206129,1,0,0:0:0:0:
324,308,206415,1,0,0:0:0:0:
448,156,206700,2,0,P|392:92|324:104,1,140
116,96,207557,6,0,P|76:132|112:208,1,140
260,324,208129,2,0,P|408:300|184:64,1,700.000002980232
144,256,216986,6,0,P|200:280|360:232,1,224.000000953674
252,200,217415,1,0,0:0:0:0:
420,96,217557,1,0,0:0:0:0:
180,104,217700,1,0,0:0:0:0:
264,108,217843,1,0,0:0:0:0:
340,120,217915,1,0,0:0:0:0:
400,172,217986,1,0,0:0:0:0:
260,268,218129,1,0,0:0:0:0:
336,316,218272,2,0,P|428:264|424:240,1,112.000000476837
468,116,218557,5,0,0:0:0:0:
312,56,218700,2,0,P|228:60|200:84,1,112.000000476837
116,216,218986,1,0,0:0:0:0:
172,276,219057,1,0,0:0:0:0:
248,316,219129,1,0,0:0:0:0:
416,308,219272,2,0,P|448:240|416:228,1,112.000000476837
296,136,219557,1,0,0:0:0:0:
212,128,219629,1,0,0:0:0:0:
156,188,219700,1,0,0:0:0:0:
316,236,219843,5,0,0:0:0:0:
396,212,219915,1,0,0:0:0:0:
456,152,219986,2,0,P|432:88|296:96,1,224.000000953674
220,132,220343,1,0,0:0:0:0:
156,184,220415,1,0,0:0:0:0:
48,312,220557,2,0,P|168:328|172:328,1,112.000000476837
320,276,220843,2,0,P|392:264|432:236,1,112.000000476837
464,80,221129,2,0,P|408:76|332:104,1,112.000000476837
232,208,221415,2,0,P|176:224|124:264,1,112.000000476837
104,88,221700,6,0,P|200:104|196:132,1,112.000000476837
317,296,221986,2,0,P|362:323|408:296,1,112.000000476837
148,160,222272,2,0,P|193:132|238:159,1,112.000000476837
296,220,222557,2,0,P|341:247|386:219,1,112.000000476837
456,64,222843,2,0,L|352:124,1,112.000000476837
388,288,223129,2,0,L|296:200,1,112.000000476837
168,112,223415,2,0,L|84:208,1,112.000000476837
204,324,223700,2,0,L|288:236,1,112.000000476837
372,100,223986,2,0,L|252:124,1,112.000000476837
172,112,224415,5,0,0:0:0:0:
172,112,224557,1,0,0:0:0:0:
496,208,224843,5,0,0:0:0:0:
496,208,224986,1,0,0:0:0:0:
56,332,225272,5,0,0:0:0:0:
56,332,225415,1,0,0:0:0:0:
336,64,225700,5,0,0:0:0:0:
336,64,225843,1,0,0:0:0:0:
460,336,226129,5,0,0:0:0:0:
320,244,226272,1,0,0:0:0:0:
280,216,226343,1,0,0:0:0:0:
256,172,226415,1,0,0:0:0:0:
268,124,226486,1,0,0:0:0:0:
248,80,226557,1,0,0:0:0:0:
200,68,226629,1,4,0:0:0:0:
44,316,228986,6,0,P|156:316|272:280,1,224.000000953674,4|0,0:0|0:0,0:0:0:0:
344,220,229415,2,0,P|400:156|360:120,1,112.000000476837
308,92,229700,2,0,P|200:88|116:176,1,224.000000953674
164,256,230129,2,0,P|244:304|304:296,1,112.000000476837
360,304,230415,1,0,0:0:0:0:
432,236,230557,2,0,P|460:160|428:140,1,112.000000476837
348,136,230843,1,0,0:0:0:0:
252,160,230986,1,0,0:0:0:0:
152,160,231129,1,0,0:0:0:0:
364,304,231415,6,0,P|444:280|432:228,1,112.000000476837
412,112,231700,1,0,0:0:0:0:
256,84,231843,2,0,P|144:96|140:108,1,112.000000476837
64,204,232129,1,0,0:0:0:0:
176,312,232272,2,0,P|256:320|288:296,1,112.000000476837
408,216,232557,2,4,P|448:144|336:92,1,224.000000953674
76,252,233129,1,0,0:0:0:0:
384,304,233415,1,0,0:0:0:0:
176,72,233700,5,0,0:0:0:0:
116,216,233843,2,0,P|160:280|296:288,1,224.000000953674
436,212,234272,1,0,0:0:0:0:
344,84,234415,2,0,P|216:84|144:160,1,224.000000953674
108,296,234843,1,0,0:0:0:0:
264,300,234986,1,0,0:0:0:0:
416,260,235129,2,0,P|424:188|272:108,1,224.000000953674
236,108,235486,1,0,0:0:0:0:
160,124,235557,1,0,0:0:0:0:
88,152,235629,1,0,0:0:0:0:
52,220,235700,6,0,P|60:280|216:328,1,224.000000953674
352,308,236129,2,0,P|456:256|424:156,1,224.000000953674
308,80,236557,2,0,L|156:56,1,112.000000476837
44,96,236843,1,0,0:0:0:0:
136,220,236986,2,0,P|200:288|416:232,1,336.000001430512
436,80,237557,1,0,0:0:0:0:
280,84,237700,2,0,P|168:112|160:136,2,112.000000476837
416,164,238129,1,0,0:0:0:0:
260,192,238272,5,0,0:0:0:0:
184,208,238343,1,0,0:0:0:0:
108,184,238415,2,0,P|92:128|232:92,1,224.000000953674
360,136,238843,1,0,0:0:0:0:
388,292,238986,2,0,P|320:336|164:280,1,224.000000953674
96,176,239415,2,0,P|140:104|268:128,1,224.000000953674
392,212,239843,1,0,0:0:0:0:
256,288,239986,6,0,P|148:264|148:152,1,224.000000953674
268,76,240415,1,0,0:0:0:0:
340,100,240486,1,0,0:0:0:0:
376,168,240557,2,0,P|284:168|284:144,1,112.000000476837
140,124,240843,1,0,0:0:0:0:
132,280,240986,2,0,P|176:332|232:336,1,112.000000476837
368,300,241272,1,0,0:0:0:0:
452,168,241415,2,0,P|404:104|336:84,1,112.000000476837
224,120,241700,2,0,P|168:144|136:224,1,112.000000476837,4|0,0:0|0:0,0:0:0:0:
224,320,241986,6,0,P|296:320|432:224,1,224.000000953674
400,84,242415,1,0,0:0:0:0:
244,80,242557,2,0,L|128:120,1,112.000000476837
80,264,242843,2,0,P|128:324|184:320,1,112.000000476837
312,288,243129,1,0,0:0:0:0:
380,248,243200,1,0,0:0:0:0:
428,184,243272,2,0,P|416:120|276:80,1,224.000000953674
140,148,243700,2,0,P|140:248|264:280,1,224.000000953674
392,236,244129,2,0,P|436:160|316:88,1,224.000000953674
196,104,244557,2,0,P|152:180|240:272,1,224.000000953674
380,216,244986,6,0,L|260:208,1,112.000000476837
272,52,245272,2,0,P|136:68|144:248,1,336.000001430512
168,256,245772,1,0,0:0:0:0:
200,280,245843,1,0,0:0:0:0:
236,296,245915,2,0,L|304:300,1,56.0000002384186
328,288,246057,1,0,0:0:0:0:
364,268,246129,1,0,0:0:0:0:
392,240,246200,1,0,0:0:0:0:
416,208,246272,1,0,0:0:0:0:
424,168,246343,6,0,P|436:104|428:80,1,56.0000002384186
432,76,246486,1,0,0:0:0:0:
404,48,246557,1,0,0:0:0:0:
368,36,246629,1,0,0:0:0:0:
328,36,246700,2,0,P|240:40|120:120,1,224.000000953674
104,72,247415,6,0,P|56:124|88:192,1,112.000000476837
144,292,247700,1,0,0:0:0:0:
300,304,247843,2,0,P|364:304|416:252,1,112.000000476837
436,124,248129,1,0,0:0:0:0:
296,52,248272,2,0,P|228:76|172:112,1,112.000000476837
80,204,248557,1,4,0:0:0:0:
220,280,248700,2,0,P|300:264|324:224,1,112.000000476837
380,100,248986,1,0,0:0:0:0:
228,64,249129,2,0,P|136:92|136:128,1,112.000000476837
112,248,249415,5,0,0:0:0:0:
268,260,249557,1,0,0:0:0:0:
416,208,249700,1,0,0:0:0:0:
456,56,249843,2,0,P|384:52|232:120,1,224.000000953674
112,192,250272,2,0,P|168:288|280:304,1,224.000000953674
388,200,250700,2,0,P|356:112|20:228,1,560.000002384186
132,324,251557,2,0,P|204:332|256:328,1,112.000000476837
396,292,251843,1,0,0:0:0:0:
256,192,251986,12,0,254415,0:0:0:0:
256,192,254557,5,0,0:0:0:0:
120,268,254700,2,0,P|208:312|248:316,1,112.000000476837
360,240,254986,2,0,P|284:184|220:176,1,112.000000476837
132,104,255272,2,0,P|188:76|264:88,1,112.000000476837
376,148,255557,2,0,P|312:188|268:200,1,112.000000476837
124,244,255843,1,0,0:0:0:0:
184,296,255915,1,0,0:0:0:0:
260,308,255986,1,0,0:0:0:0:
412,276,256129,2,0,P|436:212|328:96,1,224.000000953674
192,108,256557,1,0,0:0:0:0:
256,192,256700,12,0,258557,0:0:0:0:
256,192,258700,5,4,0:0:0:0:
212,220,258772,1,0,0:0:0:0:
216,268,258843,1,0,0:0:0:0:
260,296,258915,1,0,0:0:0:0:
308,316,258986,2,4,P|408:320|448:212,1,224.000000953674
203,67,259415,2,4,P|98:67|62:165,1,224.000000953674
308,316,259843,2,4,P|408:320|448:212,1,224.000000953674
203,67,260272,2,4,P|98:67|62:165,1,224.000000953674
156,200,260700,2,4,P|256:204|296:96,1,224.000000953674
449,218,261129,1,0,0:0:0:0:
449,218,261272,1,0,0:0:0:0:
144,288,261557,6,0,P|92:172|176:132,1,224.000000953674
308,96,261986,1,0,0:0:0:0:
368,148,262057,1,0,0:0:0:0:
400,220,262129,1,0,0:0:0:0:
288,332,262272,2,0,P|184:292|168:180,1,224.000000953674
236,52,262700,1,0,0:0:0:0:
392,68,262843,2,0,P|448:144|452:272,1,224.000000953674
296,280,263272,1,0,0:0:0:0:
172,184,263415,2,4,P|176:96|220:64,1,112.000000476837
344,104,263700,1,0,0:0:0:0:
384,256,263843,1,0,0:0:0:0:
232,292,263986,5,0,0:0:0:0:
124,180,264129,1,0,0:0:0:0:
264,108,264272,1,0,0:0:0:0:
420,136,264415,1,0,0:0:0:0:
400,292,264557,2,4,P|328:336|268:316,1,112.000000476837
160,268,264843,1,0,0:0:0:0:
112,120,264986,1,0,0:0:0:0:
264,80,265129,1,0,0:0:0:0:
400,156,265272,2,0,P|448:224|428:264,1,112.000000476837
288,280,265557,5,0,0:0:0:0:
132,308,265700,1,0,0:0:0:0:
124,152,265843,2,4,P|108:96|148:20,1,112.000000476837
276,92,266129,1,0,0:0:0:0:
388,337,266272,2,0,P|404:284|388:232,1,112.000000476837
92,192,266557,2,0,P|75:139|91:86,1,112.000000476837
248,80,266843,2,4,P|328:120|356:172,1,112.000000476837
456,244,267129,1,0,0:0:0:0:
300,268,267272,2,0,P|264:188|292:156,1,112.000000476837
176,48,267557,2,0,P|120:96|120:136,1,112.000000476837
148,284,267843,6,0,P|204:316|260:304,1,112.000000476837
384,228,268129,2,4,P|384:160|340:120,1,112.000000476837
204,88,268415,1,0,0:0:0:0:
108,332,268557,2,4,P|172:352|240:336,1,112.000000476837
368,300,268843,1,0,0:0:0:0:
400,148,268986,2,4,P|312:96|256:108,1,112.000000476837
