osu file format v10

[General]
AudioFilename: IAPV.mp3
AudioLeadIn: 2000
PreviewTime: 195104
Countdown: 0
SampleSet: Soft
StackLeniency: 0.7
Mode: 0
LetterboxInBreaks: 0

[Editor]
Bookmarks: 14421,19910,43910,64310,83510,93110,117110,137510,156710,175910,185510,188204,191654,191804,195110,198704,214310,233510
DistanceSpacing: 1
BeatDivisor: 4
GridSize: 4

[Metadata]
Title:Kisaragi Attention
TitleUnicode:Kisaragi Attention
Artist:Jin
ArtistUnicode:Jin
Creator:S o r d a
Version:Lan
Source:Vocaloid
Tags:vocaloid3 y_u_c_a yuca saymun sorda collab collaboration lan wings IA
BeatmapID:195667
BeatmapSetID:51765

[Difficulty]
HPDrainRate:5
CircleSize:4
OverallDifficulty:6
ApproachRate:7
SliderMultiplier:1.6
SliderTickRate:2

[Events]
//Background and Video events
0,0,"BG.jpg"
//Break Periods
2,39304,43004
2,83704,92204
2,112504,116204
2,176104,184454
//Storyboard Layer 0 (Background)
//Storyboard Layer 1 (Fail)
//Storyboard Layer 2 (Pass)
//Storyboard Layer 3 (Foreground)
//Storyboard Sound Samples
//Background Colour Transformations
3,100,163,162,255

[TimingPoints]
704,300,4,2,0,20,1,0
9854,-100,4,2,1,60,0,0
18629,-100,4,2,1,30,0,0
19904,-100,4,2,1,60,0,0
23879,-133.333333333333,4,2,1,60,0,0
24404,-100,4,2,1,60,0,0
28979,-100,4,2,1,30,0,0
29129,-100,4,2,1,35,0,0
29279,-100,4,2,1,40,0,0
29429,-100,4,2,1,45,0,0
29579,-100,4,2,1,60,0,0
37829,-100,4,2,1,50,0,0
38429,-100,4,2,1,60,0,0
48479,-133.333333333333,4,2,1,60,0,0
49304,-100,4,2,1,60,0,0
53279,-90.9090909090909,4,2,1,70,0,0
53654,-100,4,2,1,60,0,0
54179,-100,4,2,0,60,0,0
54479,-100,4,2,1,60,0,0
55379,-100,4,2,0,60,0,0
55679,-100,4,2,1,60,0,0
62879,-100,4,2,1,80,0,0
63092,300,4,2,1,20,1,0
64067,-100,4,2,1,60,0,0
64304,300,4,2,1,80,1,0
64304,-100,4,2,1,80,0,1
83504,-100,4,2,1,80,0,0
93104,-133.333333333333,4,2,1,50,0,0
101654,-200,4,2,1,50,0,0
102404,-100,4,2,1,60,0,0
121679,-133.333333333333,4,2,1,60,0,0
122504,-100,4,2,1,60,0,0
126479,-90.9090909090909,4,2,1,70,0,0
126854,-100,4,2,1,70,0,0
127379,-100,4,2,0,70,0,0
128129,-100,4,2,1,70,0,0
128579,-100,4,2,0,70,0,0
128879,-100,4,2,1,70,0,0
130229,-100,4,2,1,90,0,0
130904,-100,4,2,1,60,0,0
136829,-200,4,2,1,60,0,0
137204,-100,4,2,1,60,0,0
137504,-100,4,2,1,80,0,1
142229,-100,4,2,1,65,0,1
143054,-100,4,2,1,80,0,1
146429,-100,4,2,1,50,0,1
146579,-100,4,2,1,60,0,1
146729,-100,4,2,1,80,0,1
156704,-100,4,2,1,60,0,0
185204,-133.333333333333,4,2,0,50,0,0
185654,-133.333333333333,4,2,0,30,0,0
187904,-133.333333333333,4,2,0,35,0,0
190304,-133.333333333333,4,2,0,40,0,0
191504,-133.333333333333,4,2,0,45,0,0
192554,-133.333333333333,4,2,1,60,0,0
193754,-133.333333333333,4,2,1,50,0,0
194129,-133.333333333333,4,2,1,55,0,0
194429,-133.333333333333,4,2,1,60,0,0
194729,-133.333333333333,4,2,1,65,0,0
195029,-200,4,2,1,70,0,0
195404,-200,4,2,1,70,0,1
195554,-100,4,2,1,80,0,1
214304,-100,4,2,1,60,0,0
216179,-100,4,2,0,40,0,0
216554,-100,4,2,1,60,0,0
221504,-100,4,2,0,30,0,0
223904,-100,4,2,1,60,0,0
235229,-100,4,2,1,50,0,0
235754,-100,4,2,1,60,0,0
238154,-100,4,2,1,45,0,0
238454,-100,4,2,1,60,0,0
240029,-100,4,2,1,50,0,0
240554,-100,4,2,1,60,0,0

[Colours]
Combo1 : 255,255,255
Combo2 : 255,149,98
Combo3 : 255,255,151
Combo4 : 95,181,66

[HitObjects]
72,140,704,2,0,P|144:108|232:120,1,160,4|0,0:3|0:0,0:0:0
204,40,1154,2,0,P|233:76|284:92,1,80,8|0,3:3|0:0,0:0:0
336,52,1454,1,8,0:3:0
472,276,1754,1,8,0:3:0
472,276,1904,1,0,0:0:0
472,276,2054,2,0,P|312:296,1,160,8|4,0:3|3:3,0:0:0
198,295,2504,2,0,P|40:276,1,160,8|8,0:3|0:3,0:0:0
256,108,3104,5,4,0:3:0
416,124,3404,1,0,0:0:0
416,124,3554,1,0,3:0:0
416,124,3704,2,0,P|336:192,1,80,4|8,0:3|0:3,0:0:0
208,236,4154,1,0,0:0:0
208,236,4304,2,0,P|280:172,1,80,4|8,0:3|0:3,0:0:0
360,280,4754,1,0,3:0:0
360,280,4904,2,0,P|440:264|504:212,2,160,8|8|8,0:3|0:3|0:3,0:0:0
180,120,5804,5,0,0:0:0
180,120,5954,2,0,P|100:100,2,80,8|8|8,3:3|0:3|0:3,0:0:0
0,188,6554,2,0,P|77:207,2,80,8|8|8,0:3|0:3|0:3,0:0:0
140,320,7154,1,0,1:0:0
176,336,7304,2,0,P|252:324|288:256,1,160,8|12,0:3|0:3,0:0:0
192,244,7904,5,8,0:3:0
192,244,8204,1,0,0:0:0
240,252,8354,1,0,3:0:0
288,256,8504,2,0,P|320:164,1,80,8|8,0:3|0:3,0:0:0
420,36,8954,2,0,P|432:76|436:140,1,80,8|8,0:3|0:3,0:0:0
504,68,9254,2,0,P|453:119|424:232,1,160,0|8,1:0|0:3,0:0:0
424,248,9704,1,12,0:3:0
192,332,10004,6,0,P|120:345|74:277,2,160,2|4|8,0:0|0:0|0:0,0:0:0
168,224,10904,1,0,0:0:0
276,256,11204,1,8,0:0:0
276,256,11354,1,0,0:0:0
260,144,11654,1,0,0:0:0
260,144,11804,2,0,P|344:196,1,80,8|0,0:0|0:0,0:0:0
348,252,12104,2,0,P|400:168,1,80,2|0,0:0|0:0,0:0:0
456,164,12404,2,0,P|372:112,1,80,8|0,0:0|0:0,0:0:0
368,56,12704,6,0,P|288:52|212:8,2,160,2|8|0,0:0|0:0|0:0,0:0:0
232,140,13604,1,8,0:0:0
84,80,13904,2,0,P|12:24,1,80,0|2,0:0|0:0,0:0:0
128,248,14354,2,0,P|56:192,1,80,2|0,0:0|0:0,0:0:0
192,212,14654,2,0,P|255:261,1,80,0|8,1:0|0:0,0:0:0
424,216,15104,6,0,P|516:224,2,80,2|0|8,0:0|0:0|0:0,0:0:0
332,207,15554,2,0,P|372:140|448:128,2,160,0|2|2,0:0|0:0|0:0,0:0:0
200,116,16454,2,0,P|228:149|260:164,1,80,2|8,0:0|0:0,0:0:0
104,220,16904,6,0,P|180:244|272:236,1,160,0|8,0:0|0:0,0:0:0
448,328,17504,1,2,0:0:0
448,328,17654,1,0,0:0:0
448,328,17804,2,0,P|372:304|280:312,1,160,8|0,0:0|0:0,0:0:0
136,344,18404,1,8,0:0:0
136,344,18554,1,2,1:2:0
256,192,18704,12,4,19904,0:0:0
304,284,20204,5,8,0:0:0
304,284,20354,2,0,P|344:215|344:215|424:184,1,160
264,200,20804,1,8,0:0:0
264,200,20954,2,0,P|192:232|192:232|112:196,1,160
0,228,21404,6,0,P|80:264,1,80,8|0,0:0|0:0,0:0:0
144,292,21704,2,0,P|204:240|200:152,1,160,2|8,0:0|0:0,0:0:0
168,96,22154,1,0,0:0:0
128,164,22304,2,0,P|204:164|248:100,2,160,0|8|0,0:0|0:0|0:0,0:0:0
84,96,23054,1,0,0:0:0
84,96,23204,1,8,0:0:0
256,28,23504,6,0,P|332:48|332:48|371:54|416:40,1,160,2|8,0:0|0:0,0:0:0
396,104,23954,2,0,P|456:92|488:32|488:32|512:60|516:96,1,180.000006866455,2|8,0:0|0:0,0:0:0
512,288,24704,2,0,P|408:332|316:256,1,240,4|8,0:0|0:0,0:0:0
248,224,25304,2,0,P|192:300,1,80
164,216,25604,2,8,P|85:268,1,80,8|0,0:0|0:0,0:0:0
40,148,25904,6,0,P|117:162|168:108,1,160,4|8,0:0|0:0,0:0:0
180,68,26354,1,2,0:0:0
328,40,26654,1,0,0:0:0
328,40,26804,2,0,P|371:114|372:204,1,160,8|4,0:0|0:0,0:0:0
456,84,27404,1,8,0:0:0
456,84,27554,2,0,P|384:121|344:196,1,160,2|0,0:0|0:0,0:0:0
340,228,28004,1,8,0:0:0
500,208,28304,5,2,0:3:0
500,208,28604,1,2,0:3:0
416,344,28904,1,8,0:0:0
416,344,29054,1,8,0:3:0
416,344,29204,1,8,0:3:0
416,344,29354,1,8,0:3:0
416,344,29504,1,6,1:2:0
336,360,29654,6,0,P|296:364|248:356,2,80,2|8|0,0:0|0:0|0:0,0:0:0
296,292,30104,2,0,P|220:265|140:256,1,160,2|8,0:0|0:0,0:0:0
284,208,30554,2,0,P|359:234|440:244,1,160,2|8,0:0|0:3,0:0:0
328,140,31004,6,0,P|276:80,1,80,8|8,0:0|0:0,0:0:0
160,92,31304,2,0,P|108:32,2,80,2|0|8,0:0|0:0|0:0,0:0:0
216,156,31754,1,2,0:0:0
216,156,31904,1,8,0:3:0
216,156,32054,2,0,P|216:200|200:240,1,80,2|8,0:0|0:0,0:0:0
124,188,32354,1,8,0:3:0
124,188,32504,2,0,P|76:252|96:332,1,160,2|8,0:0|0:0,0:0:0
11,311,32954,6,0,P|70:255|145:266,1,160
176,340,33404,2,0,P|208:312|224:260,1,80,8|8,0:0|0:0,0:0:0
284,332,33704,2,0,P|300:256|244:196,1,160,2|8,0:0|0:0,0:0:0
176,184,34154,1,0,0:0:0
228,128,34304,6,0,P|296:84|384:64,1,160,6|8,0:0|0:0,0:0:0
480,96,34754,2,0,P|412:140|324:160,1,160,8|0,0:3|0:0,0:0:0
256,164,35204,1,8,0:0:0
28,104,35504,2,0,P|52:179|52:179|108:264,1,160,2|8,0:0|0:0,0:0:0
144,312,35954,1,8,1:3:0
176,240,36104,2,0,P|208:156,1,80,2|0,0:0|0:0,0:0:0
256,228,36404,2,0,P|314:160,1,80,10|2,0:0|0:0,3:0:0
352,236,36704,6,0,P|468:248|504:148,1,240,4|0,0:0|3:0,0:0:0
468,76,37304,1,2,0:0:0
388,80,37454,2,0,P|308:72|232:24,1,160,2|0,0:0|0:0,0:0:0
212,108,37904,6,0,P|180:84|160:48,1,80,10|0,0:0|3:0,0:0:0
28,88,38204,2,0,P|67:88|105:105,1,80,10|0,0:0|3:0,3:0:0
156,156,38504,1,8,1:3:0
156,156,38804,5,8,0:3:0
84,192,38954,1,8,0:3:0
8,164,39104,1,4,0:0:0
144,240,43904,6,0,P|224:256|304:252,1,160,4|8,0:0|0:0,0:0:0
164,168,44504,2,0,P|124:168|88:192,2,80,0|0|8,0:0|0:0|0:0,0:0:0
244,180,44954,2,0,P|220:108|144:88,1,160,2|0,3:2|0:0,0:0:0
164,168,45404,2,0,P|188:240|264:260,1,160,8|2,0:0|0:0,0:0:0
440,224,46004,5,8,0:0:0
440,224,46154,2,0,P|448:59|297:135,1,400,2|8,0:0|0:3,0:0:0
396,136,47204,5,8,0:0:0
396,136,47354,2,0,P|352:204|352:204|276:236,1,160
156,252,47804,2,0,P|200:184|200:184|276:152,1,160,8|0,0:0|0:0,0:0:0
441,217,48404,5,8,0:0:0
441,217,48554,2,0,P|349:209|273:153|273:153|281:213|256:268,1,300.000011444092,2|0,0:0|0:0,0:0:0
360,308,49604,1,8,0:0:0
360,308,49754,2,0,P|256:360|152:308,1,240,0|8,0:0|0:0,0:0:0
8,208,50504,2,0,P|44:219|80:239,1,80,0|0,1:0|0:0,0:0:0
56,144,50804,2,0,P|73:181|96:212,1,80,8|4,0:0|0:0,0:0:0
232,128,51254,6,0,P|312:164|384:108|384:108|424:124|440:164,2,240,2|0|2,3:2|0:0|0:0,0:0:0
128,236,52454,2,0,P|256:364|384:236,1,400,2|8,0:0|0:0,0:0:0
256,268,53354,6,0,P|258:255|258:255|254:251|254:251|258:247|258:247|254:243|254:243|258:239|258:239|254:235|254:235|258:231|258:231|254:227|254:227|258:223|258:223|254:219|254:219|258:215|258:215|254:211|254:211|258:207|258:207|254:203|254:203|258:199|258:199|254:195|254:195|258:191|258:191|254:187|254:187|258:183|258:183|254:179|254:179|258:175|258:175|254:171|254:171|258:167|258:167|254:163|254:163|258:159|258:159|254:155|254:155|258:151|258:151|254:147|254:147|258:143|258:143|252:132,1,176.000005371094,10|0,0:0|0:0,0:0:0
256,100,53804,1,8,1:3:0
476,72,54104,5,0,0:0:0
472,112,54254,2,0,P|476:148|504:216,1,80,8|8,0:0|0:0,0:0:0
408,192,54554,2,0,P|356:248|288:220,1,160,8|0,0:3|0:0,0:0:0
104,192,55004,2,0,P|156:248|224:220,1,160,8|0,0:0|0:0,0:0:0
256,144,55454,2,0,P|256:52,1,80,8|8,0:0|0:0,0:0:0
188,96,55754,6,0,P|256:60|324:96,1,160,8|0,0:3|0:0,0:0:0
368,164,56204,2,0,P|396:192|456:220,1,80,8|8,0:0|0:0,0:0:0
300,224,56504,2,0,P|335:240|401:246,1,80,8|0,0:3|0:0,0:0:0
260,308,56804,2,0,P|299:311|363:294,1,80,8|0,0:0|0:0,0:0:0
200,236,57104,5,4,0:3:0
200,236,57254,2,0,P|121:254|121:254|64:312,1,160,8|0,0:3|0:0,0:0:0
60,168,57854,1,12,0:3:0
60,168,58004,1,8,0:0:0
60,168,58154,1,8,0:0:0
60,168,58304,6,0,P|136:140|192:80,1,160,8|8,0:3|0:0,0:0:0
452,168,58904,2,0,P|376:140|320:80,1,160,0|8,0:0|0:0,0:0:0
148,256,59504,2,0,P|188:236|200:196|200:196|218:157|256:144,1,160,0|8,0:0|0:0,0:0:0
364,256,60104,2,0,P|324:236|312:196|312:196|293:157|256:144,1,160,0|8,0:0|0:0,0:0:0
220,328,60704,2,0,P|144:348|64:320,1,160,2|8,0:0|0:0,0:0:0
292,328,61304,2,0,P|368:348|448:320,1,160,2|8,0:0|0:0,0:0:0
256,260,61904,5,4,0:0:0
256,228,62204,1,6,0:0:0
256,196,62504,1,4,0:0:0
256,164,62804,1,8,0:3:0
256,164,62954,1,2,0:2:0
256,164,64292,5,4,0:0:0
256,164,64604,1,2,0:0:0
412,196,64904,2,0,P|500:216,1,80,2|2,0:0|0:0,0:0:0
388,128,65204,2,0,P|288:104,1,80,8|0,0:0|3:0,0:0:0
432,268,65654,2,0,P|332:244,1,80,0|8,0:0|0:0,0:0:0
200,260,66104,1,8,0:3:0
200,260,66254,1,8,0:3:0
200,260,66404,1,8,0:0:0
200,260,66704,6,0,P|120:276|44:256,1,160,2|8,0:0|0:0,0:0:0
300,152,67304,2,0,P|220:168|144:148,1,160,0|8,0:0|0:0,0:0:0
400,44,67904,1,2,0:0:0
400,44,68204,6,0,P|460:116,1,80,8|8,0:0|0:3,0:0:0
368,112,68504,2,0,P|428:184,1,80,0|0,3:0|0:0,0:0:0
336,180,68804,1,8,0:0:0
336,180,68954,2,0,P|360:256|328:340,1,160
304,352,69404,5,8,0:0:0
264,352,69554,1,0,0:0:0
232,332,69704,1,2,0:0:0
220,296,69854,1,2,0:0:0
228,256,70004,1,8,0:0:0
256,224,70154,6,0,P|188:180|108:172,1,160,2|0,0:0|0:0,0:0:0
256,160,70604,1,8,0:0:0
256,160,70754,2,0,P|324:204|404:212,1,160,2|0,0:0|0:0,0:0:0
440,288,71204,6,0,P|472:264|484:224,1,80,8|0,0:0|0:0,0:0:0
456,152,71504,1,4,0:0:0
348,72,71804,6,0,P|352:111|381:142,1,80,8|0,0:0|0:0,0:0:0
456,152,72104,1,2,3:2:0
352,276,72404,6,0,P|347:236|318:205,1,80,8|0,0:0|0:0,0:0:0
244,196,72704,1,4,0:0:0
244,196,72854,1,0,0:0:0
176,236,73004,2,0,P|203:265|245:273,1,80,8|0,0:0|0:0,0:0:0
112,200,73304,5,8,0:3:0
88,200,73454,1,8,0:3:0
64,204,73604,1,8,0:0:0
44,216,73754,1,0,0:0:0
28,232,73904,2,0,P|20:312|72:368,2,160,4|8|0,0:0|0:0|0:0,0:0:0
112,280,74654,5,8,0:0:0
112,280,74804,2,0,P|200:296,1,80,10|2,0:0|0:0,0:0:0
196,220,75104,2,0,P|284:236,1,80,0|0,0:0|0:0,0:0:0
284,160,75404,1,8,0:0:0
444,144,75704,1,8,0:3:0
444,144,75854,1,8,0:3:0
444,144,76004,1,8,0:0:0
488,300,76304,6,0,P|416:320|344:280,1,160,2|8,0:0|0:0,0:0:0
360,128,76904,2,0,P|380:200|340:272,1,160,2|8,0:0|0:0,0:0:0
192,260,77504,2,0,P|263:299|335:279,1,160,2|8,0:0|0:0,0:0:0
248,152,78104,1,2,0:0:0
248,152,78404,5,8,0:0:0
248,152,78554,2,0,P|144:112|92:212,1,240,2|8,0:0|0:0,0:0:0
104,244,79154,1,0,0:0:0
140,264,79304,2,0,P|168:192|116:136,1,160,2|8,0:0|0:0,0:0:0
44,104,79754,2,0,P|116:48|184:36,1,160,2|2,0:0|0:0,0:0:0
264,40,80204,1,8,0:0:0
420,80,80504,5,4,0:0:0
420,80,80804,1,8,0:0:0
388,240,81104,2,0,P|434:248|468:232,2,80,2|2|8,0:0|0:0|0:0,0:0:0
416,160,81554,2,0,P|348:120|352:40,1,160,2|0,0:0|0:0,0:0:0
272,108,82004,2,0,P|250:142|208:153|208:153|183:118|189:77,1,160,8|2,0:0|3:2,0:0:0
16,132,82604,6,0,P|128:152,1,80,8|0,0:0|0:0,0:0:0
72,224,82904,2,0,P|184:244,1,80,0|0,0:0|0:0,0:0:0
128,316,83204,1,8,1:3:0
128,316,83354,1,8,0:3:0
128,316,83504,1,4,0:0:0
200,296,93104,6,0,P|140:296|140:296|88:268|88:268|12:296,2,180.000006866455,8|0|0,3:0|0:0|0:0,0:0:0
312,244,94304,2,0,P|372:244|372:244|424:272|424:272|500:244,2,180.000006866455,0|0|0,3:0|0:0|0:0,0:0:0
212,180,95504,2,0,P|148:120|148:120|60:108,1,180.000006866455,2|0,3:2|0:0,0:0:0
96,220,96254,1,0,0:0:0
96,220,96404,1,2,3:2:0
200,284,96704,6,0,P|260:288|320:272,1,120.000004577637,0|0,3:0|0:0,0:0:0
316,332,97154,2,0,P|362:292|428:264,1,120.000004577637,0|0,3:0|0:0,0:0:0
464,260,97604,1,2,0:0:0
492,144,97904,6,0,P|408:136|320:88,1,180.000006866455,2|0,0:0|0:0,0:0:0
256,192,98654,1,0,0:0:0
256,192,98804,1,2,3:2:0
20,240,99104,6,0,P|104:248|192:296,1,180.000006866455,2|0,0:0|0:0,0:0:0
256,192,99854,1,0,0:0:0
256,192,100004,1,2,3:2:0
280,260,100154,6,0,P|308:244|324:220,2,60.0000022888184,8|8|8,0:3|0:3|0:0,0:0:0
304,328,100604,2,0,P|276:333|240:320,1,60.0000022888184,0|8,0:0|0:0,0:0:0
116,312,100904,5,8,0:3:0
116,312,101054,2,0,P|200:308,1,60.0000022888184
72,244,101354,2,0,P|156:240,1,60.0000022888184,8|8,1:3|0:3,0:0:0
364,228,101804,6,0,P|204:236,1,160,2|4,0:0|1:3,0:0:0
28,176,102704,6,0,P|16:72,1,80,4|0,0:0|0:0,0:0:0
92,124,103004,2,0,P|116:22,1,80,8|8,0:0|0:0,0:0:0
168,100,103304,2,0,P|240:64|328:80,1,160,2|8,0:0|0:0,0:0:0
492,112,103754,2,0,P|420:148|332:132,1,160,2|0,0:0|0:0,0:0:0
408,68,104204,1,8,0:0:0
408,68,104354,1,8,0:0:0
408,68,104504,6,0,P|412:148|472:204,1,160,2|8,0:0|0:0,0:0:0
400,244,104954,1,2,0:0:0
328,284,105104,2,0,P|250:293|168:272,1,160,8|8,0:3|0:0,0:0:0
188,352,105554,5,8,0:0:0
188,352,105704,2,0,P|160:276|104:216,1,160,0|8,0:0|0:0,0:0:0
40,176,106154,2,0,P|24:144|12:100,1,80,2|0,0:0|0:0,0:0:0
112,140,106454,2,0,P|127:98|133:63,1,80,0|10,0:0|0:0,0:0:0
180,176,106754,2,0,P|205:150|242:126,1,80,8|0,0:0|0:0,0:0:0
452,116,107204,5,8,0:0:0
452,116,107354,1,2,0:0:0
452,116,107504,2,0,P|426:141|389:165,1,80,4|0,0:0|0:0,0:0:0
480,192,107804,1,8,0:0:0
480,192,107954,2,0,P|415:176|308:188,1,160,8|0,0:0|0:0,0:0:0
244,204,108404,1,8,0:0:0
288,272,108554,2,0,P|212:280|160:216,1,160,2|0,0:0|0:0,0:0:0
180,144,109004,6,0,P|200:116|252:112|252:112|282:89|288:40,1,160,8|2,0:0|0:0,0:0:0
208,40,109454,2,0,P|168:52|136:72,1,80,2|8,0:0|0:0,0:0:0
60,44,109754,2,0,P|48:88|68:120|68:120|28:144|24:204,1,160,6|0,0:0|0:0,0:0:0
108,192,110204,1,8,0:0:0
108,192,110354,2,0,P|168:240|248:248,1,160,8|0,0:0|0:0,0:0:0
236,168,110804,2,0,P|189:161|168:136,1,80,8|8,0:0|0:0,0:0:0
228,96,111104,5,8,0:3:0
228,96,111404,1,10,0:0:0
228,96,111704,1,4,0:3:0
376,36,112004,5,8,0:0:0
308,80,112154,1,0,0:0:0
380,116,112304,1,4,0:0:0
180,320,117104,6,0,P|256:344|332:320,2,160,4|8|2,0:0|0:0|0:0,0:0:0
96,152,118004,2,0,P|52:256,1,80,8|0,0:0|0:0,0:0:0
256,192,118454,2,0,P|292:100,1,80,0|8,0:0|0:0,0:0:0
416,232,118904,1,8,0:3:0
416,232,119054,1,8,0:3:0
416,232,119204,1,8,0:0:0
416,232,119354,6,0,P|356:288|280:288,1,160,4|0,0:0|0:0,0:0:0
204,264,119804,1,8,0:0:0
96,152,120104,2,0,P|156:96|232:96,1,160,2|8,0:0|0:0,0:0:0
308,120,120554,1,0,0:0:0
184,168,120854,5,2,0:0:0
184,168,121004,2,0,P|304:96|328:232,1,320,8|10,0:0|0:0,0:0:0
268,168,121754,2,0,P|220:264|312:320|312:320|376:296|432:344,1,300.000011444092,4|0,0:0|3:0,0:0:0
236,352,122804,5,8,0:0:0
236,352,122954,2,0,P|156:360|80:324,1,160,0|0,0:0|0:0,0:0:0
40,264,123404,1,8,0:0:0
40,264,123554,1,0,0:0:0
28,184,123704,2,0,P|20:100,2,80,2|2|8,0:0|0:0|0:0,0:0:0
40,264,124154,6,0,P|120:264|176:208,1,160,4|0,0:0|0:0,0:0:0
92,200,124604,2,0,P|128:276|216:280,1,160,8|0,0:0|3:0,0:0:0
252,228,125054,2,0,P|252:188|228:152,2,80,0|8|2,0:0|0:0|0:0,0:0:0
384,296,125654,5,2,0:0:0
384,296,125804,2,0,P|363:258|327:242|327:242|319:282|277:301,1,160,8|0,0:0|0:0,0:0:0
252,228,126254,2,0,P|252:124,1,80,0|10,0:0|0:0,0:0:0
176,212,126554,6,0,P|178:199|178:199|174:195|174:195|178:191|178:191|174:187|174:187|178:183|178:183|174:179|174:179|178:175|178:175|174:171|174:171|178:167|178:167|174:163|174:163|178:159|178:159|174:155|174:155|178:151|178:151|174:147|174:147|178:143|178:143|174:139|174:139|178:135|178:135|174:131|174:131|178:127|178:127|174:123|174:123|178:119|178:119|174:115|174:115|178:111|178:111|174:107|174:107|178:103|178:103|174:99|174:99|178:95|178:95|174:91|174:91|178:87|178:87|172:76,1,176.000005371094,10|0,0:0|0:0,0:0:0
104,44,127004,2,0,P|84:79|40:99,1,80,8|0,0:0|0:0,0:0:0
28,20,127304,1,0,0:0:0
0,152,127454,2,0,P|32:168|76:168,1,80,8|8,0:0|0:0,0:0:0
0,236,127754,6,0,P|72:244|152:208,1,160,8|0,0:3|0:0,0:0:0
216,160,128204,2,0,P|240:200|272:216,1,80,8|0,0:0|0:0,0:0:0
292,140,128504,1,0,0:0:0
268,292,128654,2,0,P|306:282|340:244,1,80,8|8,0:0|0:0,0:0:0
288,372,128954,6,0,P|364:340|416:272,1,160,8|0,0:3|0:0,0:0:0
448,356,129404,2,0,P|437:312|448:268,1,80,8|0,0:0|0:0,0:0:0
484,204,129704,1,0,3:0:0
484,204,130004,1,8,0:0:0
400,68,130304,5,4,0:0:0
400,68,130454,2,0,P|332:96|332:96|324:88|324:88|232:128,1,160,0|0,3:0|3:0,0:0:0
96,100,131054,1,8,0:3:0
96,100,131204,1,8,0:0:0
96,100,131354,1,8,0:3:0
96,100,131504,6,0,P|92:176|160:212,1,160,0|8,3:0|0:0,0:0:0
416,100,132104,2,0,P|420:176|353:212,1,160,0|8,3:0|0:0,0:0:0
156,140,132704,2,0,P|160:216|93:252,1,160,0|8,0:0|0:0,0:0:0
356,140,133304,2,0,P|352:216|418:252,1,160,0|8,0:0|0:0,0:0:0
72,328,133904,2,0,P|152:320|214:273,1,160,2|8,0:0|0:0,0:0:0
440,328,134504,2,0,P|360:320|297:273,1,160,2|8,0:0|0:0,0:0:0
256,204,135104,5,4,0:0:0
256,156,135404,1,8,0:0:0
264,116,135704,1,8,0:0:0
264,116,135854,1,8,0:3:0
264,116,136004,1,8,1:3:0
264,116,136154,1,4,0:0:0
428,296,136454,5,2,0:0:0
464,232,136604,1,0,0:0:0
392,232,136754,1,0,0:0:0
428,168,136904,2,0,P|384:88,1,80,2|12,0:0|1:3,0:0:0
220,52,137504,5,4,0:0:0
220,52,137804,1,10,0:0:0
120,172,138104,1,2,0:0:0
120,172,138254,2,0,P|48:192|0:128,1,160,0|2,1:3|0:0,0:0:0
92,264,138854,5,0,0:0:0
92,264,139004,2,0,P|144:320|220:308,1,160,8|0,0:0|0:0,0:0:0
292,308,139454,1,2,0:0:0
292,308,139604,2,0,P|368:320|420:264,2,160,8|0|8,0:0|0:0|0:0,0:0:0
140,152,140504,6,0,P|156:192|180:220,1,80,2|0,0:0|0:0,0:0:0
220,152,140804,2,0,P|256:80|256:80|292:152,2,160,8|0|8,0:0|0:0|0:0,0:0:0
372,152,141704,2,0,P|356:192|332:220,1,80,2|0,0:0|0:0,0:0:0
360,320,142004,2,0,P|376:280|400:252,1,80,8|0,0:0|0:0,0:0:0
468,208,142304,6,0,P|416:68|260:64,1,320,8|8,0:3|0:3,0:0:0
96,112,143204,1,8,0:0:0
76,188,143354,2,0,P|152:168|172:96,1,160,2|0,0:0|0:0,0:0:0
120,36,143804,5,8,0:0:0
40,32,143954,2,0,P|72:100|160:104,1,160,2|0,0:0|0:0,0:0:0
220,68,144404,2,0,P|260:56|312:60,1,80,8|0,0:0|0:0,0:0:0
268,132,144704,6,0,P|344:160|424:160,1,160,4|8,0:0|0:0,0:0:0
460,148,145154,1,0,0:0:0
492,124,145304,1,0,3:0:0
320,232,145604,2,0,P|280:224|244:208,1,80,8|0,0:0|0:0,0:0:0
188,152,145904,1,4,0:0:0
188,152,146204,6,0,P|172:192|172:232,1,80,8|0,0:0|0:0,0:0:0
184,268,146504,1,8,0:3:0
216,288,146654,1,8,0:3:0
256,284,146804,1,8,0:0:0
288,260,146954,1,2,0:0:0
300,220,147104,6,0,P|348:160|428:160,1,160,4|8,0:0|0:0,0:0:0
268,120,147704,1,0,3:0:0
268,120,147854,2,0,P|248:88|208:68,1,80,2|8,0:0|0:0,0:0:0
188,152,148154,6,0,P|114:117|114:117|68:108|32:144,1,160
96,196,148604,2,0,P|169:230|169:230|216:240|252:204,1,160,8|0,0:0|0:0,0:0:0
308,164,149054,1,2,3:2:0
308,164,149204,1,8,0:0:0
352,316,149504,6,0,P|396:312|420:276|420:276|512:304,2,160,0|8|0,0:0|0:0|0:0,0:0:0
160,316,150404,2,0,P|116:312|92:276|92:276|0:304,2,160,8|0|8,0:0|0:0|0:0,0:0:0
336,232,151304,2,0,P|256:224|176:232,2,160,0|10|0,0:0|0:0|0:0,0:0:0
448,156,152204,6,0,P|440:196|408:228,1,80,8|0,0:0|0:0,0:0:0
368,160,152504,2,0,P|288:148|200:152,1,160,2|8,0:0|0:0,0:0:0
136,64,152954,2,0,P|216:76|304:72,1,160
372,56,153404,2,0,P|412:68|448:96,1,80,8|0,0:0|0:0,0:0:0
500,148,153704,5,4,0:0:0
500,148,154004,1,8,0:0:0
452,300,154304,2,0,P|424:388,1,80
392,256,154604,2,0,P|364:344,1,80,8|0,0:0|0:0,0:0:0
216,240,155054,6,0,P|139:215,1,80,0|8,0:0|0:0,0:0:0
260,180,155354,2,0,P|183:155,1,80,0|4,0:0|0:0,0:0:0
304,264,155804,5,8,0:0:0
304,264,155954,1,0,0:0:0
304,264,156104,2,0,P|252:320|168:320,1,160,0|8,0:0|0:0,0:0:0
100,284,156554,1,0,3:0:0
112,92,156854,6,0,P|146:117|196:128,1,80,2|8,0:0|0:0,0:0:0
156,204,157154,2,0,P|232:192|264:120,1,160
248,44,157604,2,0,P|292:48|332:80,1,80,8|0,0:0|0:0,0:0:0
400,52,157904,2,0,P|396:95|364:135,1,80,2|0,0:0|0:0,0:0:0
392,204,158204,2,0,P|348:200|308:168,1,80,10|0,0:0|0:0,0:0:0
152,288,158654,6,0,P|228:304|284:248,1,160,2|8,0:0|0:3,0:0:0
96,240,159254,1,2,0:0:0
96,240,159404,6,0,P|44:164,1,80,10|0,0:0|0:0,0:0:0
168,216,159704,2,0,P|116:140,1,80,2|0,0:0|0:0,0:0:0
240,192,160004,2,0,P|188:116,1,80,10|0,0:0|0:0,0:0:0
312,168,160304,2,0,P|260:92,1,80,2|0,0:0|0:0,0:0:0
384,144,160604,2,0,P|332:68,1,80,10|0,0:0|0:0,0:0:0
436,204,161054,6,0,P|512:228,2,80,2|8|4,0:0|0:0|0:0,0:0:0
300,288,161654,2,0,P|224:264,2,80,2|8|2,0:0|0:0|0:0,0:0:0
184,176,162254,2,0,P|260:200,2,80,2|8|0,0:0|0:0|0:0,0:0:0
116,220,162704,2,0,P|92:139|44:76,1,160,2|8,0:0|0:0,0:0:0
208,100,163304,1,0,0:0:0
208,100,163454,2,0,P|288:104|360:72,1,160,2|4,0:0|0:0,0:0:0
468,192,164054,6,0,P|496:164|512:124,2,80,2|8|0,0:0|0:0|0:0,0:0:0
428,124,164504,2,0,P|392:156|392:196|392:196|351:203|316:188,1,160,2|8,0:0|0:0,0:0:0
308,268,164954,2,0,P|264:264|240:228|240:228|204:248|160:240,1,160,2|2,0:0|0:0,0:0:0
188,164,165404,1,8,0:0:0
72,56,165704,6,0,P|40:76|16:116,2,80,8|8|8,0:3|0:3|0:0,0:0:0
96,132,166154,2,0,P|140:112|148:72|148:72|196:48|244:80,1,160
300,88,166604,6,0,P|340:84|380:64,1,80,10|0,0:2|3:0,0:0:0
332,109,166904,2,0,P|371:119|416:114,1,80,2|0,0:2|3:0,0:0:0
356,140,167204,2,0,P|389:163|433:173,1,80,10|0,0:2|3:0,0:0:0
368,178,167504,2,0,P|391:210|428:235,1,80,2|0,3:2|0:0,3:0:0
366,217,167804,2,0,P|376:255|403:291,1,80,10|0,3:2|0:0,3:0:0
350,253,168104,2,0,P|347:293|360:336,1,80,2|0,3:2|0:0,3:0:0
324,282,168404,2,0,P|307:318|304:363,1,80,10|0,3:2|0:0,3:0:0
256,172,168854,6,0,P|252:211|235:247,1,80,0|10,0:0|0:0,3:0:0
176,188,169154,2,0,P|179:148|196:112,1,80,0|2,0:0|0:0,3:0:0
156,264,169604,5,8,0:0:0
156,264,169754,2,0,P|80:272|80:272|12:216,1,160,2|0,0:0|0:0,0:0:0
28,136,170204,2,0,P|92:188,1,80,10|0,0:0|0:0,0:0:0
112,108,170504,2,0,P|176:152|176:152|219:159|260:152,1,160,2|8,0:0|0:0,0:0:0
208,212,170954,2,0,P|284:180|364:172,1,160,4|0,0:0|0:0,0:0:0
440,184,171404,2,0,P|420:224|388:244,2,80,8|0|2,0:0|0:0|0:0,0:0:0
412,108,171854,1,0,0:0:0
260,56,172154,6,0,P|344:64,2,80,0|2|0,0:0|0:0|0:0,0:0:0
192,96,172604,2,0,P|104:104,2,80,10|0|2,0:0|0:0|0:0,0:0:0
260,136,173054,2,0,P|344:144,2,80,0|10|4,0:0|0:0|0:0,0:0:0
192,176,173504,2,0,P|104:184,2,80,2|0|10,0:0|0:0|0:0,0:0:0
264,212,173954,2,0,P|348:220,1,80,0|8,0:0|0:3,0:0:0
304,288,174254,2,0,P|216:296,1,80,8|8,0:3|1:3,0:0:0
144,300,174554,1,4,0:0:0
256,192,174704,12,0,175904,3:0:0
256,132,185354,6,0,P|256:208,1,60.0000022888184,12|2,0:3|0:0,0:0:0
168,292,185804,6,0,P|256:360|344:292,3,240.000009155274,8|8|8|8,0:0|0:0|0:0|0:0,0:0:0
168,92,188204,6,0,P|256:24|344:92,3,240.000009155274,8|8|8|8,0:0|0:0|0:0|0:0,0:0:0
208,352,190604,6,0,P|128:308|116:240|116:240|148:212|160:152,1,240.000009155274,8|8,0:0|0:0,0:0:0
304,352,191804,2,0,P|384:308|396:240|396:240|364:212|352:152,1,240.000009155274,8|8,0:0|0:0,0:0:0
256,228,192704,2,0,P|284:140|228:140|256:48,2,180.000006866455,8|8|8,3:3|0:0|1:3,0:0:0
360,332,193904,6,0,P|344:308|332:272,1,60.0000022888184,0|8,0:0|3:3,0:0:0
292,352,194204,2,0,P|286:323|287:286,1,60.0000022888184,0|0,3:0|3:0,0:0:0
220,352,194504,2,0,P|227:323|226:286,1,60.0000022888184,2|0,3:2|3:0,0:0:0
153,332,194804,2,0,P|169:308|181:272,1,60.0000022888184,2|2,3:2|3:2,0:0:0
188,208,195104,6,0,P|188:124,1,80,8|4,1:3|0:0,0:0:0
60,32,195704,6,0,P|60:132,1,80,2|0,0:0|0:0,0:0:0
60,192,196004,1,8,0:0:0
60,192,196154,2,0,P|76:268|136:320,1,160
40,340,196604,2,0,P|116:328|192:276,1,160,8|2,0:0|0:0,0:0:0
188,208,197054,1,0,0:0:0
188,208,197204,2,0,P|228:224|280:216,1,80,8|0,0:0|0:0,0:0:0
328,272,197504,6,0,P|384:216|384:216|404:136,3,160,2|8|0|8,0:0|0:0|0:0|0:0,0:0:0
184,112,198704,2,0,P|128:168|128:168|108:248,3,160,2|8|0|8,0:0|0:0|0:0|0:0,0:0:0
124,288,199754,6,0,P|188:328|236:324|236:324|288:288|352:300,1,240,2|8,0:0|0:0,0:0:0
388,312,200354,1,0,0:0:0
428,324,200504,1,0,0:0:0
468,316,200654,1,0,0:0:0
496,288,200804,1,8,0:0:0
496,248,200954,6,0,P|448:184|368:180,1,160,2|0,0:0|0:0,0:0:0
336,196,201404,1,8,0:0:0
308,224,201554,2,0,P|222:237|128:196,1,160
96,160,202004,1,8,0:0:0
96,160,202154,1,8,0:3:0
48,96,202304,6,0,P|109:77|208:84,1,160,4|8,0:0|0:0,0:0:0
260,28,202754,2,0,P|272:64|304:108,1,80
344,36,203054,1,0,0:0:0
344,36,203204,2,0,P|367:65|412:96,1,80,8|0,0:0|0:0,0:0:0
432,16,203504,6,0,P|480:84|452:156,1,160,4|8,0:0|0:0,0:0:0
472,232,203954,2,0,P|428:228|396:204,1,80
348,144,204254,1,2,3:2:0
348,144,204404,1,2,0:2:0
320,220,204554,1,0,3:0:0
320,220,204704,2,0,P|244:228|144:216,1,160,4|8,0:0|0:0,0:0:0
20,92,205304,6,0,P|52:116|96:128,1,80
88,52,205604,1,8,0:0:0
88,52,205754,2,0,P|160:72|244:68,1,160,2|0,0:0|0:0,0:0:0
356,164,206204,2,0,P|284:144|200:148,1,160,8|0,0:0|0:0,0:0:0
160,160,206654,1,0,0:0:0
128,184,206804,1,8,0:0:0
264,272,207104,6,0,P|348:252|348:252|412:200,1,160,4|8,0:0|0:0,0:0:0
248,112,207704,2,0,P|164:132|164:132|100:184,1,160,0|8,0:0|0:0,0:0:0
210,258,208304,6,0,P|287:297|287:297|370:298,1,160,2|8,0:0|0:0,0:0:0
301,125,208904,2,0,P|224:86|224:86|141:85,1,160,2|8,0:0|0:0,0:0:0
184,156,209354,6,0,P|104:92|-4:156,1,240,2|8,0:0|0:0,0:0:0
88,192,209954,1,0,0:0:0
24,264,210104,2,0,P|96:292|164:244,1,160,2|8,0:0|0:0,0:0:0
88,192,210554,1,0,0:0:0
216,308,210854,6,0,P|236:272|240:232,1,80,2|8,0:0|0:0,0:0:0
192,168,211154,1,0,0:0:0
192,168,211304,2,0,P|264:120|288:52,1,160,2|8,0:0|0:0,0:0:0
320,216,211904,2,0,P|248:264|224:332,1,160,8|8,0:3|0:0,0:0:0
232,368,212354,1,0,0:0:0
364,276,212654,6,0,P|388:239|392:196,1,80,0|8,0:0|0:0,0:0:0
348,144,212954,2,0,P|323:180|320:224,1,80,0|2,0:0|0:0,0:0:0
416,332,213404,2,0,P|376:352|336:344,2,80,8|8|8,0:0|0:3|0:3,0:0:0
464,280,213854,1,8,0:3:0
464,280,214004,1,8,0:0:0
464,280,214154,1,0,0:0:0
488,212,214304,6,0,P|416:200|380:120,1,160,4|8,0:0|0:0,0:0:0
460,136,214754,2,0,P|380:208|300:124,1,240,2|8,0:0|0:0,0:0:0
380,128,215354,6,0,P|300:200|220:116,1,240,2|8,0:0|0:0,0:0:0
60,128,216104,1,0,0:0:0
12,180,216254,1,8,0:0:0
84,196,216404,1,8,1:2:0
104,360,216704,6,0,P|192:368|256:320|256:320|320:368|408:360,2,320,4|2|0,0:0|0:0|3:0,0:0:0
188,248,218204,2,0,P|232:244|256:208|256:208|280:244|324:248,2,160,8|2|8,0:0|0:0|0:0,0:0:0
328,168,219104,6,0,P|256:54|184:168,1,320,4|0,0:0|3:0,0:0:0
256,308,220004,1,8,0:0:0
256,308,220154,1,6,0:0:0
256,136,220454,5,2,0:0:0
256,136,220604,1,8,0:0:0
256,136,220754,1,4,0:0:0
256,308,221054,1,2,0:0:0
256,308,221204,1,4,1:0:0
256,192,221504,12,8,222404,0:0:0
256,192,222704,12,4,223904,0:0:0
488,212,224204,6,0,P|412:192|348:144,1,160,8|2,0:0|0:0,0:0:0
304,248,224654,2,0,P|328:212|340:176,1,80,2|8,0:0|0:0,0:0:0
388,256,224954,2,0,P|356:172|360:92,1,160,2|0,3:2|0:0,0:0:0
380,28,225404,1,8,0:0:0
460,24,225554,6,8,P|456:64|422:97,2,80,0|2|2,0:0|0:0|0:0,0:0:0
500,128,226004,2,8,P|510:209,1,80,8|0,0:0|0:0,0:0:0
432,200,226304,2,0,P|421:281,1,80,2|2,0:0|0:0,0:0:0
348,248,226604,1,8,0:0:0
276,212,226754,2,0,P|208:176|208:176|180:144|188:96,1,160,2|2,0:0|0:0,0:0:0
200,260,227354,6,0,P|296:304,2,80,0|2|2,0:0|0:0|0:0,0:0:0
112,124,227954,2,0,P|39:90,2,80,2|2|0,0:0|0:0|0:0,0:0:0
64,192,228404,2,0,P|140:200|196:140,1,160,8|2,0:0|0:0,0:0:0
204,64,228854,6,0,P|240:76|268:108,1,80,2|8,0:0|0:0,0:0:0
312,172,229154,2,0,P|364:112|364:112|388:36,2,160,2|2|2,0:0|0:0|0:0,0:0:0
188,272,230054,1,2,0:0:0
188,272,230204,1,8,0:0:0
348,268,230504,6,0,P|188:271,1,160,2|8,0:0|0:0,0:0:0
280,140,231104,2,0,P|328:68,1,80,2|0,0:2|0:0,0:0:0
364,144,231404,2,0,P|384:59,1,80,8|2,0:0|0:0,3:0:0
256,192,231704,12,8,232604,0:0:0
256,192,232904,5,8,0:3:0
256,192,233054,1,0,3:0:0
256,192,233204,1,8,1:3:0
256,192,233354,1,8,0:3:0
256,192,233504,6,0,P|166:202|112:144|112:144|129:94|164:72,1,240,4|0,0:0|0:0,0:0:0
192,56,234104,1,2,0:0:0
232,44,234254,1,0,0:0:0
388,80,234554,1,0,0:0:0
356,104,234704,1,2,0:0:0
320,124,234854,2,0,P|244:152|136:124,1,160
100,96,235304,1,4,0:0:0
100,96,235604,1,12,0:0:0
8,228,235904,6,0,P|80:200|160:224,1,160,2|8,0:0|0:0,0:0:0
225,270,236354,2,0,P|200:292|156:304,2,80,0|2|0,0:0|0:0|0:0,0:0:0
284,120,236954,6,0,P|255:102|230:63,2,80,0|2|0,0:0|0:0|0:0,0:0:0
312,44,237404,2,0,P|340:61|365:100,1,80,8|0,0:0|0:0,0:0:0
384,180,237704,1,4,0:0:0
384,180,238004,6,0,P|316:220|232:224,1,160,8|4,0:0|0:0,0:0:0
108,132,238604,2,0,P|128:168|156:196,1,80,8|0,0:0|0:0,0:0:0
36,164,238904,2,0,P|67:190|102:207,1,80,2|0,0:0|0:0,0:0:0
0,312,239354,5,0,0:0:0
36,328,239504,1,2,0:0:0
76,336,239654,2,0,P|152:331|232:304,1,160
296,256,240104,1,4,0:0:0
296,256,240404,1,12,0:0:0
452,216,240704,6,0,P|368:196|336:116|336:116|300:148|240:144,1,240,2|0,0:0|0:0,0:0:0
264,64,241304,2,0,P|224:72|176:64,1,80,2|0,0:0|0:0,0:0:0
44,144,241754,1,0,0:0:0
80,216,241904,2,0,P|159:223,1,80,10|0,0:0|0:0,0:0:0
116,288,242204,2,0,P|208:296,1,80,12|0,0:3|0:0,0:0:0
276,300,242504,1,4,3:2:0
