osu file format v10

[General]
AudioFilename: IAPV.mp3
AudioLeadIn: 2000
PreviewTime: 195104
Countdown: 0
SampleSet: Soft
StackLeniency: 0.7
Mode: 0
LetterboxInBreaks: 0

[Editor]
Bookmarks: 19910,43910,64310,83510,93110,117110,137510,156710,175910,185510,195110,214310,233510,14421
DistanceSpacing: 1
BeatDivisor: 4
GridSize: 4

[Metadata]
Title:Kisaragi Attention
TitleUnicode:Kisaragi Attention
Artist:Jin
ArtistUnicode:Jin
Creator:S o r d a
Version:Attention
Source:Vocaloid
Tags:vocaloid3 y_u_c_a yuca saymun sorda collab collaboration lan wings IA
BeatmapID:195665
BeatmapSetID:51765

[Difficulty]
HPDrainRate:8
CircleSize:4
OverallDifficulty:8
ApproachRate:9
SliderMultiplier:1.8
SliderTickRate:2

[Events]
//Background and Video events
0,0,"BG.jpg"
//Break Periods
2,83704,92504
2,176104,185204
//Storyboard Layer 0 (Background)
//Storyboard Layer 1 (Fail)
//Storyboard Layer 2 (Pass)
//Storyboard Layer 3 (Foreground)
//Storyboard Sound Samples
//Background Colour Transformations
3,100,163,162,255

[TimingPoints]
704,300,4,2,0,60,1,0
9848,-100,4,2,1,60,0,0
18473,-200,4,1,0,60,0,0
18623,-200,4,2,1,30,0,0
19823,-100,4,2,1,60,0,0
53348,-100,4,2,1,70,0,0
53423,-100,4,2,1,60,0,0
54248,-100,4,2,0,60,0,0
54548,-100,4,2,1,60,0,0
55448,-100,4,2,0,60,0,0
55748,-100,4,2,1,60,0,0
63092,300,4,2,1,20,1,0
64067,-100,4,2,1,60,0,0
64304,300,4,2,1,80,1,0
64304,-100,4,2,1,80,0,1
83504,-100,4,2,1,80,0,0
93104,-133.333333333333,4,2,1,50,0,0
101804,-200,4,2,1,50,0,0
102404,-100,4,2,1,60,0,0
126479,-100,4,2,1,70,0,0
127379,-100,4,2,0,70,0,0
128129,-100,4,2,1,70,0,0
128579,-100,4,2,0,70,0,0
128879,-100,4,2,1,70,0,0
130229,-100,4,2,1,90,0,0
130904,-100,4,2,1,60,0,0
137504,-100,4,2,1,80,0,1
143354,-100,4,2,1,50,0,1
143429,-100,4,2,1,80,0,1
144704,-100,4,2,1,50,0,1
144779,-100,4,2,1,80,0,1
145904,-100,4,2,1,50,0,1
145979,-100,4,2,1,80,0,1
146504,-100,4,2,1,60,0,1
146579,-100,4,2,1,80,0,1
153704,-100,4,2,1,50,0,1
153779,-100,4,2,1,80,0,1
154304,-100,4,2,1,50,0,1
154379,-100,4,2,1,80,0,1
156704,-100,4,2,1,60,0,0
185804,-133.333333333333,4,2,0,35,0,0
192704,-133.333333333333,4,2,1,60,0,0
192779,-133.333333333333,4,2,1,50,0,0
193904,-133.333333333333,4,2,1,60,0,0
194504,-133.333333333333,4,2,1,70,0,0
195029,-200,4,2,1,70,0,0
195404,-200,4,2,1,70,0,1
195479,-100,4,2,1,80,0,1
214304,-100,4,2,1,60,0,0
242429,-100,4,1,1,60,0,0

[Colours]
Combo1 : 255,255,255
Combo2 : 255,149,98
Combo3 : 255,255,151
Combo4 : 95,181,66

[HitObjects]
256,192,1004,1,8,0:0:0
256,192,1154,1,8,0:0:0
92,284,1604,1,8,0:0:0
344,256,2204,5,8,0:0:0
344,256,2354,1,8,0:0:0
452,100,2804,1,8,0:0:0
416,348,3404,5,8,0:0:0
416,348,3554,1,8,0:0:0
288,208,4004,1,8,0:0:0
72,336,4604,5,8,0:0:0
72,336,4754,1,8,0:0:0
40,148,5204,1,8,0:0:0
220,328,5804,5,8,0:0:0
220,328,5954,1,8,0:0:0
296,156,6404,1,8,0:0:0
480,336,7004,5,8,0:0:0
480,336,7154,1,8,0:0:0
308,256,7604,1,8,0:0:0
60,204,8204,5,8,0:0:0
60,204,8354,1,8,0:0:0
224,300,8804,1,8,0:0:0
348,300,9104,5,8,0:0:0
348,300,9254,1,8,0:0:0
448,220,9554,1,8,0:0:0
448,220,9704,1,8,0:0:0
244,292,10004,5,0,0:0:0
217,328,10079,1,0,0:0:0
171,344,10154,1,0,0:0:0
126,342,10229,1,0,0:0:0
82,330,10304,2,0,B|57:297|66:230,1,90,4|2,0:0|0:0,0:0:0
88,156,10604,6,0,B|121:131|188:140,1,90,10|0,0:0|0:0,0:0:0
264,120,10904,1,2,0:0:0
336,172,11054,1,2,0:0:0
424,180,11204,1,8,0:0:0
456,264,11354,2,0,B|371:284|272:256,1,180,2|2,0:0|0:0,0:0:0
188,244,11804,1,10,0:0:0
85,278,11954,6,0,B|60:254|57:213,2,45,0|0|2,0:0|0:0|0:0,0:0:0
164,334,12254,2,0,B|189:358|192:399,2,45,2|0|8,0:0|0:0|0:0,0:0:0
188,244,12554,1,2,0:0:0
198,133,12704,2,0,B|264:55|383:114,1,180,6|8,0:0|0:0,0:0:0
211,202,13154,2,0,B|289:268|230:387,1,180,2|2,0:0|0:0,0:0:0
404,292,13754,1,0,0:0:0
404,292,13904,2,0,B|451:276|467:211,1,90,2|2,0:0|0:0,0:0:0
441,48,14354,5,0,0:0:0
399,65,14429,1,0,0:0:0
353,64,14504,1,2,0:0:0
271,101,14654,1,0,0:0:0
181,105,14804,1,8,0:0:0
143,186,14954,1,2,0:0:0
182,266,15104,6,0,B|265:321|361:266,1,180,6|8,0:0|0:0,0:0:0
348,82,15554,2,0,B|265:27|169:82,1,180,2|2,0:0|0:0,0:0:0
255,239,16154,6,0,P|351:251|433:203,1,180,2|2,0:0|0:0,0:0:0
431,123,16604,1,8,0:0:0
348,82,16754,2,0,B|308:55|247:72,1,90,0|2,0:0|0:0,0:0:0
188,176,17054,2,0,B|161:216|178:277,2,90,0|8|0,0:0|0:0|0:0,0:0:0
388,144,17504,5,8,0:0:0
476,80,17654,1,2,0:0:0
388,288,17804,1,8,0:0:0
476,352,17954,1,2,0:0:0
156,200,18254,1,0,0:0:0
408,70,18554,6,0,B|449:130|382:231|428:296,1,225,4|0,0:0|0:0,0:0:0
268,296,19454,1,0,0:0:0
166,191,19604,1,2,0:0:0
61,293,19754,1,2,0:0:0
166,191,19904,6,0,B|144:72|272:48,1,180,4|8,0:0|0:0,0:0:0
336,64,20354,1,0,0:0:0
376,144,20504,2,0,B|398:263|270:287,1,180,0|8,0:0|0:0,0:0:0
206,271,20954,1,0,0:0:0
166,191,21104,1,2,0:0:0
206,271,21254,1,0,0:0:0
152,344,21404,1,10,0:0:0
206,271,21554,1,0,0:0:0
293,281,21704,2,0,B|376:288|400:368|496:328,2,180,2|10|0,0:0|0:0|0:0,0:0:0
112,56,22604,6,0,B|16:112|56:232,2,180,8|0|8,0:0|0:0|0:0,0:0:0
200,24,23354,1,0,0:0:0
272,80,23504,1,2,0:0:0
272,80,23654,1,0,0:0:0
352,40,23804,1,10,0:0:0
352,40,23954,1,0,0:0:0
432,80,24104,2,0,B|464:112|448:176,1,90,2|2,0:0|0:0,0:0:0
360,344,24404,2,0,B|339:303|374:247,1,90,8|2,0:0|0:0,0:0:0
368,168,24704,6,0,B|328:200|272:184,1,90,2|0,0:0|0:0,0:0:0
120,40,25004,1,8,0:0:0
72,112,25154,2,0,B|72:176|112:208,1,90,2|0,0:0|0:0,0:0:0
128,304,25454,1,0,0:0:0
24,280,25604,1,10,0:0:0
99,195,25754,1,0,0:0:0
184,128,25904,6,0,B|216:88|272:80,1,90,2|0,0:0|0:0,0:0:0
456,152,26204,1,8,0:0:0
464,256,26354,2,0,B|448:312|384:320,1,90,2|0,0:0|0:0,0:0:0
296,344,26654,1,0,0:0:0
192,360,26804,1,10,0:0:0
176,256,26954,1,0,0:0:0
280,240,27104,6,0,B|320:208|312:144,1,90,2|0,0:0|0:0,0:0:0
152,32,27404,1,8,0:0:0
56,80,27554,2,0,B|16:112|24:176,1,90,2|0,0:0|0:0,0:0:0
72,256,27854,2,0,B|83:305|38:351,2,90,0|10|0,0:0|0:0|0:0,0:0:0
136,168,28304,6,0,B|144:112|200:104,1,90,8|0,0:0|0:0,0:0:0
376,216,28604,2,0,B|368:272|312:280,1,90,8|8,0:0|0:0,0:0:0
320,278,28829,1,8,0:0:0
320,278,28904,1,8,0:0:0
256,192,29054,1,8,0:0:0
256,192,29204,1,8,0:0:0
256,192,29354,1,8,0:0:0
328,112,29504,6,0,B|304:8|184:24,1,180,4|8,0:0|0:0,0:0:0
120,72,29954,1,0,0:0:0
144,160,30104,2,0,B|160:272|56:320,1,180,0|8,0:0|0:0,0:0:0
24,208,30554,1,0,0:0:0
72,312,30704,1,2,0:0:0
176,360,30854,1,0,0:0:0
272,320,31004,2,0,B|328:296|328:240,1,90,10|8,0:0|0:0,0:0:0
301,94,31304,2,0,B|293:154|342:182,1,90,2|2,0:0|0:0,0:0:0
482,233,31604,2,0,B|433:196|384:224,1,90,8|2,0:0|0:0,0:0:0
400,328,31904,1,0,0:0:0
488,128,32204,6,0,B|490:13|350:8,1,180,8|0,0:0|0:0,0:0:0
304,88,32654,1,0,0:0:0
304,88,32804,1,8,0:0:0
216,40,32954,2,0,B|168:32|120:40,1,90,0|2,0:0|0:0,0:0:0
48,88,33254,1,0,0:0:0
48,88,33404,1,10,0:0:0
96,160,33554,1,8,0:0:0
72,248,33704,2,0,B|64:296|32:336,2,90,2|2|8,0:0|0:0|0:0,0:0:0
72,248,34154,1,2,0:0:0
152,288,34304,6,0,B|336:288,1,180,2|8,0:0|0:0,0:0:0
408,232,34754,1,10,0:0:0
481,120,34904,1,0,0:0:0
398,16,35054,1,2,0:0:0
272,62,35204,1,10,0:0:0
279,195,35354,6,0,B|288:312|184:336,1,180,2|0,0:0|0:0,0:0:0
104,304,35804,2,0,B|64:280|64:224,1,90,10|8,0:0|0:0,0:0:0
167,56,36104,2,0,B|207:89|200:136,1,90,2|0,0:0|0:0,0:0:0
128,176,36404,1,8,0:0:0
128,176,36554,1,2,0:0:0
200,256,36704,6,0,B|224:304|280:304,1,90,0|2,0:0|0:0,0:0:0
368,344,37004,1,10,0:0:0
368,344,37154,1,8,0:0:0
432,256,37304,2,0,B|416:216|432:168,1,90,0|2,0:0|0:0,0:0:0
456,64,37604,1,8,0:0:0
360,16,37754,1,2,0:0:0
256,56,37904,6,0,B|200:56|160:96,1,90,8|0,0:0|0:0,0:0:0
256,328,38204,2,0,B|312:328|352:288,1,90,8|8,0:0|0:0,0:0:0
339,299,38429,1,8,0:0:0
339,299,38504,1,8,0:0:0
392,192,38654,1,8,0:0:0
256,56,38804,1,8,0:0:0
120,192,38954,1,8,0:0:0
256,328,39104,6,0,B|312:328|352:288,1,90,4|2,0:0|0:0,0:0:0
400,144,39404,1,8,0:0:0
256,56,39554,2,0,B|232:143|255:234,1,180,2|0,0:0|0:0,0:0:0
120,192,40004,2,0,B|128:144|120:80,1,90,10|0,0:0|0:0,0:0:0
40,272,40304,6,0,B|40:320|48:368,1,90,2|0,0:0|0:0,0:0:0
152,360,40604,2,0,B|152:312|160:264,1,90,10|0,0:0|0:0,0:0:0
216,176,40904,1,0,0:0:0
256,80,41054,1,2,0:0:0
360,48,41204,1,12,0:0:0
360,48,41354,1,0,0:0:0
448,112,41504,6,0,B|456:168|440:208,1,90,2|0,0:0|0:0,0:0:0
344,248,41804,2,0,B|336:192|352:152,1,90,10|0,0:0|0:0,0:0:0
464,280,42104,1,0,0:0:0
464,280,42254,1,0,0:0:0
376,344,42404,1,10,0:0:0
272,360,42554,1,0,0:0:0
168,320,42704,6,0,B|112:320|88:280,1,90,8|0,0:0|0:0,0:0:0
80,256,42929,1,0,0:0:0
80,232,43004,2,0,B|96:176|56:144,1,90,8|8,0:0|0:0,0:0:0
40,128,43229,1,8,0:0:0
32,104,43304,1,8,0:0:0
88,32,43454,1,8,0:0:0
168,72,43604,1,8,0:0:0
192,64,43679,1,0,0:0:0
216,56,43754,1,8,0:0:0
352,48,43904,6,0,B|416:32|488:80|464:160,1,180,4|8,0:0|0:0,0:0:0
472,248,44354,1,0,0:0:0
392,304,44504,1,0,0:0:0
312,248,44654,1,0,0:0:0
312,248,44954,6,0,B|328:184|280:112|200:136,1,180
112,136,45404,1,8,0:0:0
56,216,45554,1,0,0:0:0
112,296,45704,1,0,0:0:0
208,296,45854,1,0,0:0:0
264,216,46004,1,8,0:0:0
216,128,46154,6,0,B|232:64|288:40|376:72,1,180,2|2,0:0|0:0,0:0:0
456,104,46604,1,8,0:0:0
456,200,46754,2,0,B|456:304,1,90,2|0,0:0|0:0,0:0:0
368,256,47054,2,0,B|368:152,1,90,2|8,0:0|0:0,0:0:0
280,216,47354,2,0,B|256:272|168:280|120:216,1,180,2|2,0:0|0:0,0:0:0
120,128,47804,2,0,B|120:32,1,90,8|8,0:0|0:0,0:0:0
208,80,48104,1,2,0:0:0
208,80,48254,2,0,B|208:168,1,90,2|8,0:0|0:0,0:0:0
312,80,48554,6,0,B|352:48|424:32|488:80|520:144|488:208,1,270,4|8,0:0|0:0,0:0:0
496,280,49154,1,0,0:0:0
416,344,49304,1,0,0:0:0
336,280,49454,1,0,0:0:0
336,280,49754,6,0,B|304:336|224:336|176:280,1,180
88,248,50204,1,8,0:0:0
64,152,50354,1,0,0:0:0
144,96,50504,1,0,0:0:0
240,120,50654,1,0,0:0:0
248,216,50804,1,8,0:0:0
184,288,50954,2,0,B|136:344|48:320|32:248,1,180,2|2,0:0|0:0,0:0:0
32,248,51329,5,0,0:0:0
32,232,51404,1,8,0:0:0
32,216,51479,1,0,0:0:0
32,200,51554,1,2,0:0:0
32,104,51704,1,2,0:0:0
96,32,51854,1,2,0:0:0
192,32,52004,1,8,0:0:0
256,104,52154,2,0,B|240:168|280:224|256:296,1,180,0|2,0:0|0:0,0:0:0
336,344,52604,5,8,0:0:0
432,320,52754,1,8,0:0:0
432,320,52829,1,0,0:0:0
432,320,52904,1,8,0:0:0
480,232,53054,1,8,0:0:0
488,136,53204,1,8,0:0:0
424,56,53354,6,0,B|224:56,1,180,4|8,0:0|0:0,0:0:0
244,56,53804,1,8,0:0:0
244,56,54104,5,0,0:0:0
144,88,54254,1,8,0:0:0
48,136,54404,1,8,0:0:0
48,240,54554,2,0,B|24:288|48:352|128:376|176:320,1,180,8|8,0:0|0:0,0:0:0
142,344,55004,1,8,0:0:0
142,344,55304,5,0,0:0:0
248,344,55454,1,8,0:0:0
352,312,55604,1,8,0:0:0
432,240,55754,2,0,B|251:240,1,180,8|8,0:0|0:0,0:0:0
252,240,56204,1,8,0:0:0
148,34,56504,2,0,B|128:80|152:128,1,90,8|0,0:0|0:0,0:0:0
360,120,56804,2,0,B|384:72|360:32,1,90,8|0,0:0|0:0,0:0:0
256,72,57104,2,0,B|256:168,1,90,8|8,0:0|0:0,0:0:0
256,344,57554,5,8,0:0:0
256,344,57854,5,8,0:0:0
256,312,58004,5,8,0:0:0
256,280,58154,5,8,0:0:0
256,248,58304,5,4,0:0:0
256,32,58604,1,8,0:0:0
480,192,58904,1,0,0:0:0
256,344,59204,2,0,B|168:288,1,90,8|0,0:0|0:0,0:0:0
96,240,59504,1,0,0:0:0
128,48,59804,2,0,B|208:104,1,90,8|0,0:0|0:0,0:0:0
280,160,60104,1,0,0:0:0
480,136,60404,1,8,0:0:0
480,136,60704,6,0,B|488:224,1,90
360,64,61004,2,0,B|352:152,1,90,8|0,0:0|0:0,0:0:0
224,96,61304,2,0,B|216:184,1,90
80,48,61604,2,0,B|72:136,1,90,8|0,0:0|0:0,0:0:0
64,288,61904,5,8,0:0:0
400,328,62204,1,8,0:0:0
432,120,62504,1,8,0:0:0
120,72,62804,2,0,B|96:160,1,90,8|8,0:0|0:0,0:0:0
72,264,63092,5,2,0:0:0
72,264,63242,1,2,0:0:0
152,336,63392,1,2,0:0:0
152,336,63542,1,2,0:0:0
256,304,63692,5,2,0:0:0
256,304,63842,1,2,0:0:0
360,328,63992,1,2,0:0:0
360,328,64142,1,2,0:0:0
456,280,64304,6,0,B|480:240|480:192,1,90,6|0,0:0|0:0,0:0:0
384,152,64604,2,0,B|360:112|360:64,1,90,10|0,0:0|0:0,0:0:0
256,40,64904,1,2,0:0:0
240,144,65054,2,0,B|240:256|144:288,1,180,2|2,0:0|0:0,0:0:0
48,224,65504,6,0,B|0:184|24:112,1,90,0|2,0:0|0:0,0:0:0
112,48,65804,2,0,B|160:88|136:160,1,90,10|0,0:0|0:0,0:0:0
32,248,66104,2,0,B|-16:208|8:136,1,90,8|8,0:0|0:0,0:0:0
136,24,66404,2,0,B|184:64|160:136,1,90,8|8,0:0|0:0,0:0:0
144,208,66704,6,0,B|144:320|256:320,1,180,2|10,0:0|0:0,0:0:0
352,360,67154,1,2,0:0:0
440,296,67304,2,0,B|440:112,1,180,2|10,0:0|0:0,0:0:0
376,32,67754,1,2,0:0:0
272,56,67904,2,0,B|192:128|248:224,1,180,2|10,0:0|0:0,0:0:0
344,264,68354,1,2,0:0:0
336,160,68504,1,2,0:0:0
244,217,68654,1,0,0:0:0
344,264,68804,1,8,0:0:0
260,332,68954,1,0,0:0:0
156,364,69104,6,0,B|104:372|88:308,1,90,4|0,0:0|0:0,0:0:0
96,208,69404,1,10,0:0:0
152,34,69554,1,2,0:0:0
4,141,69704,1,0,0:0:0
187,141,69854,1,2,0:0:0
39,34,70004,1,8,0:0:0
187,141,70154,2,0,B|288:192|376:88,1,180,2|2,0:0|0:0,0:0:0
352,8,70604,1,10,0:0:0
264,72,70754,2,0,B|264:184|392:216,1,180,2|0,0:0|0:0,0:0:0
456,264,71204,5,10,0:0:0
454,277,71279,1,0,0:0:0
449,289,71354,1,2,0:0:0
441,300,71429,1,0,0:0:0
432,310,71504,2,0,B|352:382|256:318,1,180,2|8,0:0|0:0,0:0:0
224,224,71954,1,2,0:0:0
192,120,72104,2,0,B|184:72|136:48,1,90,0|2,0:0|0:0,0:0:0
56,120,72404,2,0,B|64:168|112:192,1,90,10|0,0:0|0:0,0:0:0
224,224,72704,6,0,B|320:200|304:72,1,180,6|8,0:0|0:0,0:0:0
305,83,73154,1,2,0:0:0
400,32,73304,1,8,0:0:0
401,45,73379,1,0,0:0:0
402,58,73454,1,8,0:0:0
403,71,73529,1,0,0:0:0
403,84,73604,1,8,0:0:0
404,97,73679,1,0,0:0:0
404,110,73754,1,8,0:0:0
404,123,73829,1,0,0:0:0
402,136,73904,6,0,B|397:200|365:240,1,90,4|0,0:0|0:0,0:0:0
296,336,74204,2,0,B|280:280|291:225,1,90,10|0,0:0|0:0,0:0:0
232,56,74504,1,2,0:0:0
264,144,74654,1,2,0:0:0
324,72,74804,1,8,0:0:0
264,144,74954,2,0,B|192:208|72:168,1,180,2|2,0:0|0:0,0:0:0
64,56,75404,1,10,0:0:0
64,56,75554,1,0,0:0:0
94,174,75704,1,8,0:0:0
94,174,75854,1,8,0:0:0
72,296,76004,1,8,0:0:0
72,296,76154,1,8,0:0:0
208,360,76304,6,0,B|264:352|272:280,1,90,2|0,0:0|0:0,0:0:0
304,120,76604,2,0,B|248:128|240:200,1,90,10|2,0:0|0:0,0:0:0
376,288,76904,2,0,B|368:232|296:224,1,90,2|0,0:0|0:0,0:0:0
136,192,77204,2,0,B|144:248|216:256,1,90,10|2,0:0|0:0,0:0:0
408,144,77504,6,0,B|440:112|448:64,1,90,2|0,0:0|0:0,0:0:0
352,216,77804,2,0,B|320:184|312:136,1,90,10|2,0:0|0:0,0:0:0
400,312,78104,2,0,B|432:280|440:232,2,90,2|0|8,0:0|0:0|0:0,0:0:0
320,360,78554,2,0,B|256:392|200:304|136:360,1,180,2|2,0:0|0:0,0:0:0
64,328,79004,6,0,B|24:296|32:224,1,90,10|2,0:0|0:0,0:0:0
72,168,79304,1,0,0:0:0
152,128,79454,2,0,B|256:128,1,90,2|8,0:0|0:0,0:0:0
320,168,79754,2,0,B|424:120|368:0,1,180,2|2,0:0|0:0,0:0:0
304,72,80204,2,0,B|352:176|472:120,1,180,10|2,0:0|0:0,0:0:0
472,216,80654,1,0,0:0:0
448,304,80804,1,10,0:0:0
448,304,80879,1,0,0:0:0
448,304,80954,1,2,0:0:0
368,344,81104,5,2,0:0:0
296,288,81254,1,2,0:0:0
216,328,81404,1,8,0:0:0
128,312,81554,2,0,B|32:288|40:160,1,180,2|2,0:0|0:0,0:0:0
96,104,82004,1,10,0:0:0
176,152,82154,1,0,0:0:0
176,152,82229,1,0,0:0:0
176,152,82304,2,0,B|272:208|352:152,1,180,2|10,0:0|0:0,0:0:0
280,96,82754,2,0,B|216:192|304:264,1,180,2|10,0:0|0:0,0:0:0
308,270,83204,5,8,0:0:0
322,281,83354,5,8,0:0:0
337,289,83504,5,12,0:0:0
216,320,93104,5,4,0:0:0
216,320,93554,2,0,B|152:368|56:336|56:240,1,202.49999396503
296,320,94304,1,0,0:0:0
296,320,94754,2,0,B|376:368|456:320|448:248,1,202.49999396503
256,96,95504,5,0,0:0:0
256,96,95954,1,0,0:0:0
256,96,96704,6,0,B|240:160|272:224|256:312,2,202.49999396503
256,96,97904,1,0,0:0:0
400,56,98354,6,0,B|384:128|400:192,1,134.999995976687
112,56,99104,1,0,0:0:0
112,56,99404,2,0,B|128:128|112:200,2,134.999995976687
112,56,100154,5,8,0:0:0
256,96,100604,1,0,0:0:0
256,112,100754,1,8,0:0:0
256,128,100904,1,8,0:0:0
256,144,101054,1,0,0:0:0
256,160,101204,1,0,0:0:0
256,176,101354,1,8,0:0:0
256,192,101504,1,8,0:0:0
256,192,101804,6,0,B|256:336,1,135
256,328,102404,5,8,0:0:0
424,216,102704,1,12,0:0:0
120,152,103004,1,8,0:0:0
336,40,103304,2,0,B|144:40,1,180,0|8,0:0|0:0,0:0:0
152,184,103754,1,2,0:0:0
152,184,103904,2,0,B|152:272,1,90,0|2,0:0|0:0,0:0:0
368,280,104204,2,0,B|368:192,1,90,8|10,0:0|0:0,0:0:0
256,224,104504,2,0,B|256:312,1,90,0|2,0:0|0:0,0:0:0
472,312,104804,2,0,B|472:224,1,90,8|2,0:0|0:0,0:0:0
472,112,105104,5,0,0:0:0
264,304,105404,1,8,0:0:0
264,304,105704,2,0,B|80:304,1,180,0|8,0:0|0:0,0:0:0
88,152,106154,1,2,0:0:0
88,152,106304,2,0,B|88:64,1,90,0|2,0:0|0:0,0:0:0
296,64,106604,2,0,B|296:152,1,90,8|10,0:0|0:0,0:0:0
192,120,106904,2,0,B|192:32,1,90,0|2,0:0|0:0,0:0:0
400,32,107204,2,0,B|400:120,1,90,8|2,0:0|0:0,0:0:0
400,296,107504,6,0,B|304:320|184:296,1,180,0|8,0:0|0:0,0:0:0
124,292,107954,1,8,0:0:0
48,228,108104,1,0,0:0:0
88,140,108254,1,0,0:0:0
188,148,108404,1,8,0:0:0
212,244,108554,1,0,0:0:0
449,303,109004,5,8,0:0:0
488,216,109154,1,8,0:0:0
436,132,109304,1,0,0:0:0
336,132,109454,1,0,0:0:0
284,216,109604,1,8,0:0:0
340,300,109754,1,0,0:0:0
232,72,110204,5,8,0:0:0
144,24,110354,1,8,0:0:0
56,72,110504,2,0,B|56:176,1,90
144,256,110804,2,0,B|144:152,1,90,8|0,0:0|0:0,0:0:0
232,72,111104,5,8,0:0:0
336,40,111254,1,0,0:0:0
336,40,111329,1,0,0:0:0
336,40,111404,1,8,0:0:0
440,72,111554,2,0,B|440:184,1,90,0|8,0:0|0:0,0:0:0
440,272,111854,1,0,0:0:0
352,336,112004,1,8,0:0:0
256,288,112154,1,8,0:0:0
256,176,112304,5,8,0:0:0
256,72,112454,1,2,0:0:0
160,48,112604,1,8,0:0:0
64,96,112754,2,0,B|24:192|72:280,1,180,2|2,0:0|0:0,0:0:0
120,368,113204,2,0,B|241:367,1,90,8|2,0:0|0:0,0:0:0
320,368,113504,1,0,0:0:0
384,272,113654,1,2,0:0:0
304,200,113804,2,0,B|112:200,1,180,8|2,0:0|0:0,0:0:0
124,200,114404,1,8,0:0:0
124,200,114704,5,0,0:0:0
56,112,114854,1,2,0:0:0
128,32,115004,1,8,0:0:0
232,32,115154,2,0,B|416:32,1,180,2|2,0:0|0:0,0:0:0
456,128,115604,2,0,B|480:168|464:216,1,90,8|2,0:0|0:0,0:0:0
440,320,115904,5,8,0:0:0
336,344,116054,1,2,0:0:0
256,256,116204,1,8,0:0:0
256,128,116354,1,2,0:0:0
256,128,116429,1,0,0:0:0
256,128,116504,1,8,0:0:0
176,40,116654,5,8,0:0:0
72,64,116804,1,8,0:0:0
32,160,116954,1,8,0:0:0
112,200,117104,6,0,B|213:251|301:147,1,180,4|4,0:0|0:0,0:0:0
330,97,117554,1,0,0:0:0
364,200,117704,2,0,B|402:172|468:186,2,90,0|0|8,0:0|0:0|0:0,0:0:0
245,300,118154,6,0,B|147:349|83:270,1,180,2|2,0:0|0:0,0:0:0
24,148,118604,2,0,B|53:103|122:111,1,90,8|2,0:0|0:0,0:0:0
185,90,118904,1,0,0:0:0
261,138,119054,2,0,B|311:152|322:202,1,90,2|8,0:0|0:0,0:0:0
296,284,119354,6,0,B|360:362|457:313,1,180,2|2,0:0|0:0,0:0:0
479,275,119729,1,0,0:0:0
505,238,119804,1,8,0:0:0
509,193,119879,1,0,0:0:0
498,149,119954,1,0,0:0:0
411,49,120104,5,2,0:0:0
375,76,120179,1,0,0:0:0
330,74,120254,1,0,0:0:0
320,168,120404,1,10,0:0:0
336,256,120554,2,0,B|264:316|148:285,1,180,2|2,0:0|0:0,0:0:0
89,239,121004,5,10,0:0:0
213,107,121154,1,0,0:0:0
89,239,121304,1,2,0:0:0
79,59,121454,1,0,0:0:0
190,201,121604,1,10,0:0:0
272,164,121754,6,0,B|348:111|452:164,1,180,6|2,0:0|0:0,0:0:0
438,249,122204,2,0,B|434:294|386:327,1,90,8|2,0:0|0:0,0:0:0
256,340,122504,2,0,B|212:361|149:322,1,90,0|2,0:0|0:0,0:0:0
139,249,122804,1,10,0:0:0
87,322,122954,2,0,B|14:318|3:214,1,135,0|0,0:0|0:0,0:0:0
17,188,123254,2,0,B|34:143|94:120,1,90,2|8,0:0|0:0,0:0:0
163,80,123554,5,10,0:0:0
368,99,123704,1,2,0:0:0
349,304,123854,1,0,0:0:0
144,285,124004,1,2,0:0:0
228,315,124154,6,0,B|284:271|304:200,1,135,4|0,0:0|0:0,0:0:0
312,159,124454,1,2,0:0:0
304,114,124529,1,0,0:0:0
267,87,124604,1,2,0:0:0
222,84,124679,1,0,0:0:0
179,97,124754,1,0,0:0:0
80,188,124904,5,2,0:0:0
16,259,125054,1,2,0:0:0
80,188,125204,1,8,0:0:0
112,272,125354,2,0,B|195:322|297:288,1,180,2|2,0:0|0:0,0:0:0
328,278,125729,1,0,0:0:0
371,267,125804,1,8,0:0:0
413,250,125879,1,0,0:0:0
447,220,125954,1,8,0:0:0
471,181,126029,1,0,0:0:0
475,136,126104,1,8,0:0:0
392,152,126254,5,8,0:0:0
387,56,126404,1,10,0:0:0
388,56,126554,6,0,B|294:29|215:95,1,180,6|0,0:0|0:0,0:0:0
392,152,127004,1,10,0:0:0
368,240,127154,1,0,0:0:0
301,301,127304,1,2,0:0:0
212,312,127454,1,8,0:0:0
133,268,127604,1,8,0:0:0
155,104,127754,6,0,B|208:187|132:271,1,180,2|2,0:0|0:0,0:0:0
78,198,128204,1,8,0:0:0
105,111,128354,1,2,0:0:0
186,67,128504,1,2,0:0:0
272,94,128654,1,8,0:0:0
316,175,128804,1,8,0:0:0
228,176,128954,6,0,B|208:268|72:288,1,180,2|0,0:0|0:0,0:0:0
48,200,129404,2,0,B|28:164|44:104,1,90,10|0,0:0|0:0,0:0:0
136,40,129704,1,2,0:0:0
228,176,129854,2,0,B|293:239,1,90,0|10,0:0|0:0,0:0:0
484,216,130154,1,2,0:0:0
368,100,130304,5,10,0:0:0
484,216,130454,1,8,0:0:0
148,240,130754,1,8,0:0:0
312,312,131054,2,0,B|236:364|124:340,1,180,8|8,0:0|0:0,0:0:0
80,276,131504,6,0,B|45:189|93:98,1,180,6|8,0:0|0:0,0:0:0
273,90,132104,2,0,B|360:55|451:103,1,180,2|8,0:0|0:0,0:0:0
432,280,132704,6,0,B|345:315|254:267,1,180,2|8,0:0|0:0,0:0:0
77,278,133304,2,0,B|42:191|90:100,1,180,2|8,0:0|0:0,0:0:0
266,122,133904,5,2,0:0:0
440,166,134204,1,8,0:0:0
306,286,134504,1,2,0:0:0
128,315,134804,6,0,B|62:300|22:216,1,135,8|0,0:0|0:0,0:0:0
28,184,135104,2,0,B|40:133|109:117,1,90,8|0,0:0|0:0,0:0:0
158,66,135404,1,8,0:0:0
200,192,135554,1,0,0:0:0
200,192,135629,1,0,0:0:0
200,192,135704,2,0,B|91:215,1,90,8|8,0:0|0:0,0:0:0
332,192,136004,2,0,B|441:169,1,90,8|8,0:0|0:0,0:0:0
256,64,136454,5,0,0:0:0
256,108,136604,1,2,0:0:0
256,152,136754,1,0,0:0:0
256,196,136904,1,0,0:0:0
256,292,137054,2,0,B|256:336,2,45,0|0|2,0:0|0:0|0:0,0:0:0
256,336,137504,5,4,0:0:0
48,192,137804,1,8,0:0:0
256,40,138104,1,0,0:0:0
256,40,138254,2,0,B|344:40,1,90,2|8,0:0|0:0,0:0:0
448,40,138554,2,0,B|496:112|456:232,1,180,2|2,0:0|0:0,0:0:0
424,312,139004,1,8,0:0:0
328,288,139154,1,10,0:0:0
232,312,139304,2,0,B|176:360|80:336|88:232,1,180,0|8,0:0|0:0,0:0:0
280,72,139904,6,0,B|320:160,1,90,0|2,0:0|0:0,0:0:0
424,72,140204,2,0,B|464:160,1,90,8|2,0:0|0:0,0:0:0
352,240,140504,2,0,B|312:328,1,90,0|2,0:0|0:0,0:0:0
208,240,140804,2,0,B|168:328,1,90,8|2,0:0|0:0,0:0:0
77,222,141104,2,0,B|24:200|24:88|96:56,1,180,0|8,0:0|0:0,0:0:0
168,24,141554,1,2,0:0:0
256,72,141704,2,0,B|256:160,1,90,0|2,0:0|0:0,0:0:0
336,224,142004,1,8,0:0:0
416,160,142154,1,10,0:0:0
416,160,142604,6,0,B|469:182|469:294|397:326,1,180,8|0,0:0|0:0,0:0:0
328,360,143054,1,2,0:0:0
240,320,143204,1,8,0:0:0
240,224,143354,2,0,B|224:160|264:88|232:24,1,180,4|2,0:0|0:0,0:0:0
136,32,143804,1,8,0:0:0
48,96,143954,1,2,0:0:0
48,208,144104,2,0,B|48:312,1,90,0|2,0:0|0:0,0:0:0
144,240,144404,2,0,B|144:136,1,90,8|2,0:0|0:0,0:0:0
136,32,144704,6,0,B|160:4|212:4|240:52,1,90,4|2,0:0|0:0,0:0:0
256,128,145004,1,8,0:0:0
256,224,145154,1,2,0:0:0
256,320,145304,2,0,B|296:376|392:376|424:288,1,180,0|8,0:0|0:0,0:0:0
480,248,145754,1,2,0:0:0
408,184,145904,2,0,B|368:128|272:128|240:216,1,180,4|8,0:0|0:0,0:0:0
176,264,146354,1,2,0:0:0
96,192,146504,1,12,0:0:0
176,120,146654,1,2,0:0:0
176,120,146729,1,0,0:0:0
176,120,146804,1,8,0:0:0
176,120,146879,1,0,0:0:0
176,120,146954,1,8,0:0:0
176,120,147029,1,0,0:0:0
176,120,147104,6,0,B|144:96|144:48|200:32,1,90,4|2,0:0|0:0,0:0:0
336,48,147404,2,0,B|368:72|368:120|312:136,1,90,8|2,0:0|0:0,0:0:0
256,96,147704,1,0,0:0:0
256,96,147854,2,0,B|256:216,1,90,2|8,0:0|0:0,0:0:0
184,304,148154,2,0,B|128:352|48:312|64:232,1,180,2|2,0:0|0:0,0:0:0
32,144,148604,1,8,0:0:0
112,88,148754,1,10,0:0:0
192,144,148904,1,0,0:0:0
160,240,149054,1,2,0:0:0
64,240,149204,1,8,0:0:0
64,240,149504,5,0,0:0:0
232,24,149804,1,8,0:0:0
472,144,150104,1,0,0:0:0
280,336,150404,1,8,0:0:0
280,336,150704,2,0,B|280:240,1,90,0|2,0:0|0:0,0:0:0
96,224,151004,2,0,B|96:320,1,90,8|2,0:0|0:0,0:0:0
192,248,151304,2,0,B|192:64,1,180,0|8,0:0|0:0,0:0:0
192,68,151754,1,10,0:0:0
480,40,152204,6,0,B|480:136,1,90,8|2,0:0|0:0,0:0:0
296,152,152504,2,0,B|296:56,1,90,0|2,0:0|0:0,0:0:0
384,112,152804,1,8,0:0:0
384,112,152954,2,0,B|384:304,1,180,2|2,0:0|0:0,0:0:0
384,292,153404,1,8,0:0:0
40,192,153704,5,4,0:0:0
256,32,154004,1,8,0:0:0
472,192,154304,1,4,0:0:0
400,120,154454,1,2,0:0:0
328,184,154604,1,8,0:0:0
400,256,154754,2,0,B|376:320|272:320|240:248,1,180,2|2,0:0|0:0,0:0:0
192,192,155204,1,8,0:0:0
120,128,155354,1,2,0:0:0
40,192,155504,1,8,0:0:0
40,192,155804,5,8,0:0:0
120,256,155954,1,2,0:0:0
44,320,156104,1,8,0:0:0
132,364,156254,1,2,0:0:0
224,324,156404,1,8,0:0:0
331,327,156554,6,0,B|375:341|423:321,1,90,4|0,0:0|0:0,0:0:0
497,247,156854,1,2,0:0:0
480,140,157004,2,0,B|492:96|472:36,1,90,10|0,0:0|0:0,0:0:0
348,136,157304,2,0,B|352:180|328:236,1,90,2|0,0:0|0:0,0:0:0
224,292,157604,1,10,0:0:0
145,367,157754,1,2,0:0:0
49,315,157904,1,0,0:0:0
69,209,158054,1,2,0:0:0
176,194,158204,1,8,0:0:0
245,109,158354,1,2,0:0:0
186,17,158504,1,0,0:0:0
82,45,158654,1,2,0:0:0
74,152,158804,1,10,0:0:0
176,194,158954,6,0,B|243:238|305:146|376:226,1,180,2|0,0:0|0:0,0:0:0
452,164,159404,2,0,B|457:117|450:72,1,90,10|0,0:0|0:0,0:0:0
308,304,159704,2,0,B|268:328|224:340,1,90,2|2,0:0|0:0,0:0:0
405,239,160004,2,0,B|440:212|452:164,1,90,8|2,0:0|0:0,0:0:0
456,324,160304,2,0,B|424:368|360:384,1,90,0|2,0:0|0:0,0:0:0
276,380,160604,1,8,0:0:0
168,368,160754,2,0,B|49:317|114:189,1,180,2|0,0:0|0:0,0:0:0
104,204,161129,1,0,0:0:0
110,186,161204,1,10,0:0:0
119,171,161279,1,0,0:0:0
129,157,161354,6,0,B|186:67|283:102,1,180,2|0,0:0|0:0,0:0:0
364,172,161804,1,10,0:0:0
260,208,161954,1,0,0:0:0
283,102,162104,1,2,0:0:0
380,52,162254,2,0,B|424:32|496:44,2,90,0|10|2,0:0|0:0|0:0,0:0:0
416,152,162704,6,0,B|448:260|352:312,1,180,2|8,0:0|0:0,0:0:0
96,232,163154,2,0,B|64:124|160:72,1,180,2|0,0:0|0:0,0:0:0
260,84,163604,1,10,0:0:0
256,192,163754,1,0,0:0:0
252,300,163904,2,0,B|152:276|176:144,1,180,2|8,0:0|0:0,0:0:0
260,84,164354,2,0,B|360:108|336:240,1,180,2|0,0:0|0:0,0:0:0
372,328,164804,1,10,0:0:0
444,248,164954,6,0,B|496:152|408:76,1,180,2|0,0:0|0:0,0:0:0
324,28,165404,1,10,0:0:0
216,16,165554,1,8,0:0:0
198,19,165629,1,8,0:0:0
181,26,165704,1,8,0:0:0
164,33,165779,1,0,0:0:0
150,44,165854,1,8,0:0:0
138,57,165929,1,0,0:0:0
128,72,166004,1,8,0:0:0
119,88,166079,1,0,0:0:0
114,105,166154,6,0,B|92:199|112:298,1,180,10|0,0:0|0:0,0:0:0
208,324,166604,2,0,B|296:352,1,90,10|0,0:0|0:0,0:0:0
364,268,166904,2,0,B|452:236,1,90,2|0,0:0|0:0,0:0:0
468,132,167204,1,10,0:0:0
442,27,167354,1,0,0:0:0
336,60,167504,1,2,0:0:0
361,164,167654,1,0,0:0:0
475,143,167804,5,10,0:0:0
454,19,167954,1,2,0:0:0
328,48,168104,1,0,0:0:0
348,171,168254,2,0,B|352:236|344:280,1,90,2|8,0:0|0:0,0:0:0
256,340,168554,2,0,B|272:224|216:136,1,180,2|0,0:0|0:0,0:0:0
148,96,169004,2,0,B|136:52|144:4,1,90,10|0,0:0|0:0,0:0:0
172,216,169304,2,0,B|184:260|176:308,1,90,2|0,0:0|0:0,0:0:0
84,360,169604,1,10,0:0:0
40,264,169754,6,0,B|32:168|48:68,1,180,2|2,0:0|0:0,0:0:0
128,16,170204,1,10,0:0:0
128,16,170354,1,0,0:0:0
232,44,170504,1,2,0:0:0
232,44,170654,1,0,0:0:0
340,28,170804,1,8,0:0:0
436,76,170954,6,0,B|480:176|436:252,1,180,2|0,0:0|0:0,0:0:0
428,264,171329,1,0,0:0:0
417,278,171404,1,10,0:0:0
324,332,171554,1,0,0:0:0
216,320,171704,2,0,B|160:320|96:348,2,90,2|0|8,0:0|0:0|0:0,0:0:0
264,224,172154,6,0,B|284:184|288:124,1,90,2|0,0:0|0:0,0:0:0
216,320,172454,1,0,0:0:0
172,168,172604,6,0,B|160:120|168:60,1,90,10|0,0:0|0:0,0:0:0
216,320,172904,1,0,0:0:0
268,116,173054,6,0,B|280:68|272:8,2,90,2|8|2,0:0|0:0|0:0,0:0:0
165,78,173504,1,2,0:0:0
68,36,173654,2,0,B|56:84|64:144,1,90,0|10,0:0|0:0,0:0:0
68,232,173954,1,8,0:0:0
68,232,174029,1,0,0:0:0
68,232,174104,1,8,0:0:0
112,332,174254,1,8,0:0:0
112,332,174404,1,8,0:0:0
112,332,174554,1,12,0:0:0
256,192,174629,12,4,175904,0:0:0
45,83,185804,5,8,0:0:0
188,52,186404,1,8,0:0:0
324,84,187004,1,8,0:0:0
453,51,187604,1,8,0:0:0
448,192,188204,5,8,0:0:0
305,161,188804,1,8,0:0:0
169,193,189404,1,8,0:0:0
40,160,190004,1,8,0:0:0
57,305,190604,5,8,0:0:0
200,336,191204,1,8,0:0:0
336,304,191804,1,8,0:0:0
464,336,192404,1,8,0:0:0
440,48,192704,6,0,B|384:8|280:40|280:120,1,202.49999396503,8|8,0:0|0:0,0:0:0
280,110,193304,1,8,0:0:0
280,110,193604,1,8,0:0:0
56,296,193904,1,8,0:0:0
56,296,194054,2,0,B|112:336|216:304|216:224,1,202.49999396503,8|8,0:0|0:0,0:0:0
136,176,194654,5,8,0:0:0
160,80,194804,1,8,0:0:0
256,64,194954,1,8,0:0:0
256,180,195104,6,0,B|256:276,1,90,0|14,0:0|0:0,0:0:0
76,300,195704,5,0,0:0:0
76,300,195854,1,2,0:0:0
425,250,196154,2,0,B|376:308|256:292,1,180,2|0,0:0|0:0,0:0:0
77,216,196604,2,0,B|122:193|192:207,1,90,10|0,0:0|0:0,0:0:0
244,244,196904,1,0,0:0:0
152,292,197054,1,2,0:0:0
216,128,197204,1,8,0:0:0
424,250,197354,1,0,0:0:0
416,132,197504,6,0,B|375:187|280:168,1,135,4|0,0:0|0:0,0:0:0
248,169,197804,2,0,B|240:244|290:294,1,135,10|0,0:0|0:0,0:0:0
255,322,198104,2,0,B|233:359|142:346,1,90,2|0,0:0|0:0,0:0:0
416,132,198404,2,0,B|438:95|529:108,1,90,10|0,0:0|0:0,0:0:0
428,320,198704,2,0,B|348:296|336:204,1,135,2|0,0:0|0:0,0:0:0
312,192,199004,2,0,B|330:150|391:125,1,90,10|8,0:0|0:0,0:0:0
442,235,199304,5,0,0:0:0
362,74,199604,1,8,0:0:0
362,74,199754,1,2,0:0:0
268,327,200204,6,0,B|222:340|155:323,1,90,8|2,0:0|0:0,0:0:0
96,292,200504,2,0,B|57:256|60:190,1,90,0|2,0:0|0:0,0:0:0
88,126,200804,1,10,0:0:0
166,82,200954,2,0,B|228:51|333:81,1,135,4|0,0:0|0:0,0:0:0
290,117,201254,1,10,0:0:0
187,204,201404,1,8,0:0:0
289,291,201554,1,8,0:0:0
422,268,201704,2,0,B|446:223|431:177,2,90,2|8|8,0:0|0:0|0:0,0:0:0
357,330,202154,5,0,0:0:0
268,314,202304,2,0,B|226:341|167:333,1,90,6|0,0:0|0:0,0:0:0
118,271,202604,2,0,B|77:169|99:156,1,90,10|2,0:0|0:0,0:0:0
136,108,202904,1,0,0:0:0
244,44,203054,1,2,0:0:0
240,168,203204,1,10,0:0:0
356,124,203354,5,0,0:0:0
295,238,203504,2,0,B|248:240|212:197,1,90,6|0,0:0|0:0,0:0:0
172,120,203804,2,0,B|124:90|73:142,1,90,10|0,0:0|0:0,0:0:0
39,200,204104,1,8,0:0:0
39,335,204254,1,8,0:0:0
174,335,204404,1,8,0:0:0
264,352,204554,6,0,B|311:377|369:339,1,90,2|4,0:0|0:0,0:0:0
352,261,204854,1,0,0:0:0
292,193,205004,2,0,B|241:208|226:276,1,90,8|2,0:0|0:0,0:0:0
145,229,205304,2,0,B|130:178|62:163,1,90,0|2,0:0|0:0,0:0:0
149,108,205604,1,8,0:0:0
239,80,205754,6,0,B|300:88|329:50|329:50|425:50,1,180,2|0,0:0|0:0,0:0:0
441,134,206204,1,10,0:0:0
409,50,206354,1,8,0:0:0
357,122,206504,2,0,B|336:189|239:201,1,135,2|0,0:0|0:0,0:0:0
214,176,206804,2,0,B|115:119,1,90,10|8,0:0|0:0,0:0:0
87,54,207104,6,0,B|15:111|30:234,1,180,4|8,0:0|0:0,0:0:0
425,330,207704,2,0,B|497:273|482:150,1,180,0|8,0:0|0:0,0:0:0
80,292,208304,2,0,B|137:364|260:349,1,180,0|8,0:0|0:0,0:0:0
504,100,208904,2,0,B|447:28|324:43,1,180,0|8,0:0|0:0,0:0:0
297,47,209279,1,0,0:0:0
255,63,209354,2,0,B|206:72|193:120,1,90,2|4,0:0|0:0,0:0:0
92,264,209804,5,8,0:0:0
168,312,209954,1,2,0:0:0
256,316,210104,2,0,B|336:316|380:240,1,135,2|0,0:0|0:0,0:0:0
400,220,210404,1,10,0:0:0
372,136,210554,2,0,B|296:88|176:120,1,180,2|2,0:0|0:0,0:0:0
135,179,211004,2,0,B|103:211|111:275,1,90,8|2,0:0|0:0,0:0:0
36,340,211304,6,0,B|128:376,1,90,0|2,0:0|0:0,0:0:0
312,296,211604,2,0,B|348:204,1,90,8|2,0:0|0:0,0:0:0
336,124,211904,1,4,0:0:0
284,52,212054,1,2,0:0:0
232,124,212204,1,10,0:0:0
176,52,212354,2,0,B|120:148|0:120,1,180,2|0,0:0|0:0,0:0:0
68,204,212804,1,8,0:0:0
116,280,212954,5,0,0:0:0
196,324,213104,2,0,B|232:360|296:348,1,90,2|0,0:0|0:0,0:0:0
352,300,213404,1,10,0:0:0
412,232,213554,1,0,0:0:0
460,156,213704,2,0,B|480:112|460:68,2,90,2|2|8,0:0|0:0|0:0,0:0:0
176,40,214304,6,0,B|64:48|48:192,1,180,4|8,0:0|0:0,0:0:0
56,264,214754,1,2,0:0:0
136,336,214904,2,0,B|184:344|240:312,1,90,0|2,0:0|0:0,0:0:0
328,296,215204,2,0,B|384:280|440:312,1,90,10|2,0:0|0:0,0:0:0
416,300,215654,5,0,0:0:0
464,208,215804,1,10,0:0:0
432,104,215954,1,0,0:0:0
336,152,216104,2,0,B|296:176|232:152,1,90,2|0,0:0|0:0,0:0:0
192,64,216404,2,0,B|232:40|296:64,1,90,10|2,0:0|0:0,0:0:0
279,58,216854,5,0,0:0:0
248,157,217004,1,10,0:0:0
248,157,217079,1,0,0:0:0
248,157,217154,1,0,0:0:0
144,192,217304,2,0,B|88:200|56:272,2,90,2|2|8,0:0|0:0|0:0,0:0:0
168,296,217754,1,2,0:0:0
168,296,218054,6,0,B|192:344|256:336,1,90,0|10,0:0|0:0,0:0:0
259,336,218279,1,0,0:0:0
276,334,218354,1,0,0:0:0
384,312,218504,2,0,B|432:272|416:200,1,90,2|0,0:0|0:0,0:0:0
384,88,218804,2,0,B|336:128|352:200,1,90,10|0,0:0|0:0,0:0:0
348,167,219104,6,0,B|336:232|272:240,1,90,2|0,0:0|0:0,0:0:0
168,96,219404,2,0,B|180:31|244:23,1,90,10|0,0:0|0:0,0:0:0
200,216,219704,2,0,B|219:278|167:316,1,90,2|0,0:0|0:0,0:0:0
7,236,220004,2,0,B|-12:173|39:135,1,90,10|2,0:0|0:0,0:0:0
21,151,220454,5,0,0:0:0
56,48,220604,1,10,0:0:0
21,151,220754,1,0,0:0:0
96,224,220904,1,2,0:0:0
21,151,221054,1,2,0:0:0
128,128,221204,2,0,B|163:129|176:96|224:104,1,90,8|2,0:0|0:0,0:0:0
213,102,221654,5,0,0:0:0
304,48,221804,2,0,B|360:32|400:72,1,90,10|0,0:0|0:0,0:0:0
448,152,222104,1,2,0:0:0
448,152,222179,1,0,0:0:0
448,152,222254,1,0,0:0:0
344,176,222404,2,0,B|312:216|344:264,1,90,10|2,0:0|0:0,0:0:0
341,259,222854,5,0,0:0:0
256,320,223004,1,10,0:0:0
232,328,223079,1,0,0:0:0
208,336,223154,1,0,0:0:0
104,328,223304,2,0,B|56:296|72:216,1,90,2|2,0:0|0:0,0:0:0
68,222,223529,1,0,0:0:0
76,196,223604,1,10,0:0:0
87,171,223679,1,0,0:0:0
105,151,223754,1,2,0:0:0
127,136,223829,1,0,0:0:0
152,128,223904,6,0,B|264:96|320:200,1,180,2|8,0:0|0:0,0:0:0
296,288,224354,1,2,0:0:0
208,224,224504,1,0,0:0:0
309,182,224654,1,2,0:0:0
392,248,224804,2,0,B|408:368|288:376,1,180,10|2,0:0|0:0,0:0:0
200,336,225254,2,0,B|152:336|104:360,2,90,0|10|0,0:0|0:0|0:0,0:0:0
176,232,225704,1,2,0:0:0
168,128,225854,1,2,0:0:0
176,232,226004,1,10,0:0:0
168,128,226154,1,0,0:0:0
80,216,226304,6,0,B|48:120|80:24,1,180,2|8,0:0|0:0,0:0:0
192,184,226754,2,0,B|224:280|192:376,1,180,2|0,0:0|0:0,0:0:0
312,192,227204,2,0,B|288:136|320:80,1,90,10|2,0:0|0:0,0:0:0
400,48,227504,2,0,B|424:104|392:160,1,90,0|2,0:0|0:0,0:0:0
472,224,227804,1,8,0:0:0
392,336,227954,1,2,0:0:0
392,336,228029,1,0,0:0:0
392,336,228104,2,0,B|376:280|392:232,1,90,2|0,0:0|0:0,0:0:0
288,288,228404,2,0,B|304:344|288:392,1,90,10|0,0:0|0:0,0:0:0
184,360,228704,6,0,B|72:384|48:264,1,180,2|8,0:0|0:0,0:0:0
120,192,229154,2,0,B|200:104|136:24,1,180,2|2,0:0|0:0,0:0:0
32,16,229604,1,8,0:0:0
72,120,229754,2,0,B|176:160|240:64,1,180,2|0,0:0|0:0,0:0:0
336,40,230204,1,10,0:0:0
336,40,230279,1,0,0:0:0
336,40,230354,1,0,0:0:0
432,88,230504,2,0,B|464:128|456:176,1,90,2|0,0:0|0:0,0:0:0
312,360,230804,2,0,B|280:320|288:272,1,90,8|2,0:0|0:0,0:0:0
368,200,231104,6,0,B|400:240|392:288,2,90,2|0|10,0:0|0:0|0:0,0:0:0
264,160,231554,1,0,0:0:0
143,68,231704,1,2,0:0:0
188,213,231854,1,2,0:0:0
237,69,232004,1,8,0:0:0
112,157,232154,1,2,0:0:0
64,256,232304,6,0,B|72:304|64:352,1,90,10|0,0:0|0:0,0:0:0
64,345,232529,1,0,0:0:0
64,345,232604,1,8,0:0:0
171,322,232754,2,0,B|158:270,2,45,8|8|8,0:0|0:0|0:0,0:0:0
275,355,233054,1,8,0:0:0
293,355,233129,1,0,0:0:0
311,353,233204,1,8,0:0:0
329,349,233279,1,0,0:0:0
347,345,233354,1,8,0:0:0
364,338,233429,1,0,0:0:0
380,329,233504,1,4,0:0:0
408,60,233954,5,0,0:0:0
306,97,234104,1,2,0:0:0
220,31,234254,1,0,0:0:0
36,224,234554,5,0,0:0:0
143,228,234704,1,2,0:0:0
216,148,234854,1,0,0:0:0
267,315,235154,5,2,0:0:0
350,281,235304,2,0,B|403:269|441:214,1,90,10|0,0:0|0:0,0:0:0
340,129,235604,1,10,0:0:0
179,47,235904,5,2,0:0:0
18,172,236354,1,0,0:0:0
73,243,236504,1,2,0:0:0
159,267,236654,1,0,0:0:0
262,120,236954,5,2,0:0:0
313,46,237104,1,0,0:0:0
402,43,237254,1,0,0:0:0
454,116,237404,1,10,0:0:0
447,205,237554,1,2,0:0:0
361,177,237704,5,8,0:0:0
347,194,237779,1,0,0:0:0
327,205,237854,1,10,0:0:0
305,212,237929,1,0,0:0:0
282,215,238004,1,8,0:0:0
259,215,238079,1,0,0:0:0
236,210,238154,1,10,0:0:0
216,200,238229,1,0,0:0:0
200,184,238304,1,14,0:0:0
442,301,238754,5,0,0:0:0
353,315,238904,1,2,0:0:0
263,302,239054,1,0,0:0:0
83,292,239354,2,0,B|37:274|22:223,1,90,0|2,0:0|0:0,0:0:0
80,158,239654,1,2,0:0:0
251,103,239954,5,2,0:0:0
201,177,240104,2,0,B|280:224|391:192,1,180,8|10,0:0|0:0,0:0:0
244,324,240704,5,2,0:0:0
420,120,241154,2,0,B|462:91|516:114,2,90,0|2|2,0:0|0:0|0:0,0:0:0
256,192,241754,5,0,0:0:0
178,111,241904,1,10,0:0:0
331,111,242054,1,2,0:0:0
181,273,242204,1,10,0:0:0
334,273,242354,1,2,0:0:0
256,24,242504,5,4,0:0:0
