osu file format v14

[General]
AudioFilename: 01. .mp3
AudioLeadIn: 0
PreviewTime: 67052
Countdown: 0
SampleSet: Soft
StackLeniency: 0.7
Mode: 0
LetterboxInBreaks: 0
SkinPreference:Kagerou Project v1.4
CountdownOffset: 1
WidescreenStoryboard: 1

[Editor]
DistanceSpacing: 0.8
BeatDivisor: 4
GridSize: 4
TimelineZoom: 1

[Metadata]
Title:Children Record
TitleUnicode:チルドレンレコード
Artist:Jin [Shizen no Teki-P] feat. MARiA from GARNiDELiA
ArtistUnicode:じん[自然の敵P] feat. メイリア from GARNiDELiA
Creator:HardAkito
Version:Hard-Akito
Source:Mekakucity Actors
Tags:shizen no teki-p garnidelia children record mekakucity actors
BeatmapID:657544
BeatmapSetID:284603

[Difficulty]
HPDrainRate:6
CircleSize:4
OverallDifficulty:4
ApproachRate:6
SliderMultiplier:1
SliderTickRate:1

[Events]
//Background and Video events
0,0,"267.PNG",0,0
//Break Periods
2,88633,91838
2,150478,158731
//Storyboard Layer 0 (Background)
//Storyboard Layer 1 (Fail)
//Storyboard Layer 2 (Pass)
//Storyboard Layer 3 (Foreground)
//Storyboard Sound Samples

[TimingPoints]
531,296.970896852109,4,2,0,45,1,0
18349,-100,4,2,0,45,0,0
28520,-100,4,2,0,45,0,0
67052,-100,4,2,0,50,0,1
91998,-100,4,2,0,50,0,0
150278,-100,4,2,0,30,0,0
166537,-100,4,2,0,50,0,1
185395,-100,4,2,0,100,0,0

[Colours]
Combo1 : 127,127,127
Combo2 : 255,55,55

[HitObjects]
360,88,18349,6,4,L|276:88,2,75
428,164,19165,1,4,0:0:0:0:
376,272,19611,1,6,0:0:0:0:
280,308,20056,2,8,P|204:308|188:300,2,75
368,200,21021,2,4,L|368:140,1,50
292,84,21541,6,4,P|216:84|200:76,1,75
124,156,22209,1,2,0:0:0:0:
164,224,22506,2,4,P|227:243|255:228,2,100
124,156,23397,1,8,0:0:0:0:
124,156,23694,1,8,0:0:0:0:
224,56,24214,6,2,P|280:48|300:63,1,75,2|2,2:0|2:0,2:0:0:0:
348,84,24659,1,4,0:0:0:0:
320,160,24956,2,8,P|268:192|204:160,1,125
96,252,25847,2,8,P|130:330|148:336,1,100
204,288,26441,2,8,P|184:236|152:220,1,75
140,200,26812,2,4,L|96:200,2,25
424,80,28520,6,4,B|368:72|372:56|364:68|360:80|344:40|328:56|324:72|324:80|324:104|308:80|300:64|272:88,1,150
208,104,29262,1,8,0:0:0:0:
148,156,29559,1,8,0:0:0:0:
188,200,29782,1,0,0:0:0:0:
240,232,30005,2,0,B|296:224|292:208|300:220|304:232|320:192|336:208|340:224|340:232|340:256|356:232|364:216|392:240,1,150
460,224,30747,2,4,L|460:292,1,50
420,316,31119,6,8,P|360:344|320:348,1,100
268,340,31638,1,0,0:0:0:0:
208,340,31861,1,0,0:0:0:0:
148,336,32084,1,0,0:0:0:0:
112,288,32306,2,2,B|136:236|76:244|80:216|148:212|84:192|140:196|132:180|84:172|68:164|92:152|120:160|124:144|148:132|92:124|112:116|120:76,1,225
232,160,33494,6,4,L|232:80,1,75
312,80,34014,1,8,0:0:0:0:
316,140,34237,1,8,0:0:0:0:
292,196,34459,2,2,P|370:197|379:179,1,100
416,236,34979,2,8,L|416:304,1,50
316,292,35499,2,4,L|316:336|316:364,1,50
212,344,35944,5,8,0:0:0:0:
152,332,36167,1,8,0:0:0:0:
116,284,36390,2,0,P|72:232|64:208,1,75
88,168,36835,2,0,P|148:140|168:141,1,75
176,188,37206,2,0,B|223:197|235:163|245:216|256:185|270:207|287:197|296:162|301:219|306:240|340:192,1,175
352,140,37949,1,8,0:0:0:0:
336,84,38172,1,8,0:0:0:0:
296,84,38320,2,4,L|228:84,1,50
156,124,38840,6,8,B|160:192|120:196|168:196|196:204|148:228|152:244|156:208|148:216|160:228|160:260,1,125
156,320,39508,1,0,0:0:0:0:
196,320,39656,2,0,P|292:332|320:312,1,125
368,296,40250,1,4,0:0:0:0:
364,216,40547,5,4,0:0:0:0:
304,208,40770,2,0,B|265:164|231:167|186:213,1,125
148,240,41364,2,0,P|109:156|111:133,1,100
184,120,41958,2,0,P|222:203|220:226,2,100
256,52,42923,5,2,0:0:0:0:
256,52,43072,1,2,0:0:0:0:
256,52,43220,1,2,0:0:0:0:
312,76,43443,2,0,P|384:136|384:204,1,150
392,268,44185,2,0,L|328:268,1,50
302,331,44556,2,0,L|212:332,1,75
168,324,45002,1,4,0:0:0:0:
116,264,45299,5,0,0:0:0:0:
184,232,45522,2,0,P|204:172|184:144,1,100
185,145,45967,2,0,P|245:127|301:153,1,125
299,151,46487,2,0,P|319:91|299:63,1,100
220,64,47081,1,12,0:0:0:0:
256,192,47378,12,0,49234,0:0:0:0:
356,80,52055,5,8,0:0:0:0:
356,80,52203,1,8,0:0:0:0:
356,80,52352,1,8,0:0:0:0:
356,80,52500,1,10,0:0:0:0:
396,88,52649,2,0,P|438:141|387:235,1,175
340,248,53391,2,0,L|220:248,1,100
240,248,53911,1,8,0:0:0:0:
60,228,54579,6,0,P|39:169|64:124,1,100
128,104,55173,1,2,0:0:0:0:
208,100,55470,1,2,0:0:0:0:
256,136,55693,2,0,P|272:204|260:224,3,75
208,216,56510,1,0,0:0:0:0:
284,356,56955,1,8,0:0:0:0:
316,332,57103,2,0,B|392:292|392:292|356:284|356:284|400:264|400:264|348:244|348:244|376:236|376:180,1,300
256,84,59108,5,8,0:0:0:0:
208,120,59331,1,8,0:0:0:0:
164,160,59553,1,8,0:0:0:0:
180,196,59702,2,4,L|232:260,4,75
224,156,60816,2,0,L|296:240,3,100
360,200,62003,5,2,0:0:0:0:
408,136,62300,1,2,0:0:0:0:
408,136,62523,1,8,0:0:0:0:
408,136,62746,1,12,0:0:0:0:
256,192,62969,12,0,64825,0:0:0:0:
396,108,67052,6,2,P|280:84|260:92,1,125
308,136,67646,2,2,P|244:152|197:119,1,125
160,116,68166,2,0,L|96:192,1,100
112,228,68611,2,0,L|193:308,1,100
224,296,69057,5,2,0:0:0:0:
252,268,69205,2,2,L|280:224,1,50
332,204,69576,1,8,0:0:0:0:
348,260,69799,2,8,P|336:284|320:320,1,50
248,328,70244,1,0,0:0:0:0:
168,328,70541,1,0,0:0:0:0:
132,256,70838,1,0,0:0:0:0:
132,256,71061,2,4,L|132:172,1,75
196,104,71655,5,2,0:0:0:0:
236,104,71804,1,2,0:0:0:0:
276,108,71952,1,2,0:0:0:0:
316,104,72100,1,2,0:0:0:0:
376,104,72323,1,8,0:0:0:0:
380,244,72843,5,8,0:0:0:0:
340,244,72991,1,8,0:0:0:0:
300,244,73140,1,8,0:0:0:0:
260,244,73288,1,8,0:0:0:0:
200,244,73511,1,2,0:0:0:0:
100,264,73882,6,0,L|100:164,1,100
136,92,74476,1,8,0:0:0:0:
168,68,74625,1,8,0:0:0:0:
244,40,74922,1,12,0:0:0:0:
268,116,75219,2,0,L|268:192,4,75
280,216,76481,6,2,L|352:216,1,50
388,208,76852,1,2,0:0:0:0:
448,156,77149,2,0,P|419:85|377:60,2,125
440,236,78188,2,4,L|376:236,2,50
388,320,78857,6,0,L|348:320,3,25
324,320,79228,2,8,L|240:320,1,75
212,304,79599,1,0,0:0:0:0:
176,288,79747,1,0,0:0:0:0:
124,228,80044,1,0,0:0:0:0:
120,148,80341,5,2,0:0:0:0:
160,104,80564,1,2,0:0:0:0:
212,72,80787,1,0,0:0:0:0:
231,68,80861,1,0,0:0:0:0:
252,64,80935,1,0,0:0:0:0:
271,68,81010,1,0,0:0:0:0:
291,76,81084,1,0,0:0:0:0:
296,216,81604,6,0,P|336:144|368:144,1,100
412,184,82197,2,0,P|352:267|340:267,1,125
268,336,82940,1,2,0:0:0:0:
196,300,83237,2,4,L|124:298,1,50
146,299,83608,1,4,0:0:0:0:
148,180,84054,6,0,L|204:180,3,50
176,124,84722,1,0,0:0:0:0:
304,184,85241,2,0,L|360:184,3,50
332,128,85909,1,0,0:0:0:0:
236,100,86281,6,2,P|157:130|163:179,1,125
154,158,86726,2,2,P|150:238|98:246,1,125
248,292,87617,1,8,0:0:0:0:
248,292,87840,1,12,0:0:0:0:
316,252,88137,2,6,L|316:200,2,50
352,72,92888,5,8,0:0:0:0:
312,72,93037,1,8,0:0:0:0:
272,72,93185,1,8,0:0:0:0:
216,128,93482,2,2,L|216:200,1,50
156,176,93854,2,2,L|156:244,1,50
200,268,94225,2,8,L|228:268|296:268,1,75
216,324,94745,2,4,L|303:324,1,75
404,288,95413,5,8,0:0:0:0:
400,236,95561,1,8,0:0:0:0:
408,176,95784,2,4,P|386:108|358:84,1,100
288,72,96378,1,2,0:0:0:0:
272,128,96601,2,8,P|291:200|316:221,1,100
300,268,97120,1,4,0:0:0:0:
300,268,97269,1,4,0:0:0:0:
180,268,97714,5,2,0:0:0:0:
148,244,97863,2,0,L|148:176,5,50
152,152,98754,2,8,P|242:137|278:160,2,125
100,212,99793,1,2,0:0:0:0:
100,212,100090,5,0,0:0:0:0:
160,292,100461,2,0,P|237:307|280:272,1,125
268,224,101055,2,0,P|167:220|146:249,1,125
88,192,101798,1,8,0:0:0:0:
92,152,101946,1,8,0:0:0:0:
132,108,102169,2,2,L|208:60,2,75
192,188,102985,6,4,B|260:184|260:156|268:200|276:212|288:208|292:144|316:176|316:248|328:224|348:144|364:152|372:208|372:232|392:172|416:140|440:188|448:204|440:232,1,275
448,276,104025,1,0,0:0:0:0:
408,288,104173,2,4,L|408:348,1,50
308,340,104693,5,2,0:0:0:0:
308,340,104916,1,2,0:0:0:0:
228,344,105213,1,2,0:0:0:0:
228,344,105435,1,2,0:0:0:0:
120,268,105732,2,8,P|76:192|96:120,1,150
87,134,106475,2,0,P|159:102|199:110,1,100
240,72,107069,6,8,P|284:148|263:220,1,150
344,244,107811,2,4,P|268:280|204:224,1,175
212,148,108628,2,4,P|288:112|352:168,1,175
356,244,109445,1,2,0:0:0:0:
316,244,109593,1,2,0:0:0:0:
276,244,109742,1,2,0:0:0:0:
196,244,110039,5,8,0:0:0:0:
116,240,110335,2,4,P|80:160|116:96,1,150
156,168,111078,2,4,P|192:248|156:312,2,150
228,136,112266,2,0,L|296:136,3,50
280,176,112860,2,0,L|212:176,4,50
160,184,113899,6,0,B|156:220|156:248|164:272|136:288|156:304|172:312,1,125
264,308,114642,2,2,L|336:308,1,50
372,312,115013,1,2,0:0:0:0:
372,312,115310,1,2,0:0:0:0:
424,228,115681,2,0,B|416:148|416:148|332:112,1,150
352,120,116275,2,0,B|274:98|274:98|253:9,1,150
224,68,116869,6,0,L|176:132,1,75
136,196,117389,1,8,0:0:0:0:
156,252,117611,2,0,B|228:244|232:268|236:284|236:268|248:228|256:220|284:268|292:284|300:244|304:228|332:268|352:256,1,200
400,200,118651,2,4,L|400:120|400:112,1,75
340,140,119096,6,0,L|340:212,1,50
280,188,119467,2,0,L|279:115,1,50
220,136,119839,2,4,L|172:200,2,75
128,244,120804,1,2,0:0:0:0:
180,272,121026,2,0,B|256:308|256:308|336:300,1,150
388,252,121769,5,2,0:0:0:0:
432,212,121992,2,0,L|472:144,1,75
460,108,122363,2,0,L|408:52,1,75
368,52,122734,2,0,P|240:48|184:68,1,175
164,112,123476,1,2,0:0:0:0:
152,152,123625,2,0,B|168:200|104:208|176:224|132:236|176:248|120:256|168:272|160:312,1,150
260,308,124442,6,8,L|352:308,1,75
264,236,125036,2,4,L|348:236,2,75
308,168,125778,2,8,L|212:168,2,75
384,196,126520,1,2,0:0:0:0:
376,256,126743,1,2,0:0:0:0:
316,268,126966,2,0,L|220:268,1,75
164,292,127486,6,0,P|116:228|124:188,1,125
123,188,128005,2,0,P|171:124|163:84,1,125
192,64,128525,1,4,0:0:0:0:
192,64,128673,1,4,0:0:0:0:
248,92,128896,2,0,P|304:128|316:188,1,125
316,181,129416,2,0,P|352:237|392:249,1,100
344,184,130084,6,0,L|280:88,1,100
228,100,130604,2,0,L|176:188,1,100
256,192,131198,1,2,0:0:0:0:
352,204,131569,2,0,P|252:288|160:196,1,275
84,192,132683,2,0,L|84:96,1,75
132,84,133128,2,0,P|248:40|364:88,1,250
436,104,134167,2,0,L|436:196,1,75
376,188,134613,1,8,0:0:0:0:
336,192,134761,1,8,0:0:0:0:
296,192,134910,1,8,0:0:0:0:
248,152,135133,1,8,0:0:0:0:
168,100,135504,6,0,P|136:180|172:256,1,175
232,264,136246,2,0,L|304:264,1,50
344,260,136617,2,0,P|376:180|340:104,1,175
256,48,137508,5,2,0:0:0:0:
256,108,137731,1,2,0:0:0:0:
256,188,138028,1,8,0:0:0:0:
156,196,138399,2,0,L|228:312,1,125
280,304,138993,2,0,L|368:199,1,125
388,132,139661,1,2,0:0:0:0:
328,136,139884,2,4,L|240:136,1,75
192,136,140330,1,2,0:0:0:0:
160,252,140775,6,4,L|208:320,1,75
284,316,141295,2,4,L|336:252,1,75
340,200,141740,1,8,0:0:0:0:
280,196,141963,2,8,L|168:196,1,100
132,84,142705,6,0,P|196:52|228:48,1,100
264,48,143151,2,0,P|332:72|368:104,1,100
408,144,143745,2,2,L|408:208,1,50
328,208,144190,2,0,B|276:192|256:188|252:232|216:192|224:188|212:208|180:196,1,150
128,304,145081,5,8,0:0:0:0:
168,308,145230,2,4,L|244:312,1,75
324,316,145749,1,2,0:0:0:0:
384,304,145972,1,2,0:0:0:0:
260,148,146714,2,0,L|260:260,2,100
256,192,147754,12,0,150278,0:0:0:0:
316,112,159781,6,8,L|200:112,2,100
364,200,160746,1,2,0:0:0:0:
320,240,160969,2,0,L|204:240,1,100
140,232,161563,2,0,L|140:300,1,50
236,308,162083,2,4,P|332:284|348:252,1,125
272,228,162751,2,8,P|324:184|376:204,1,125
332,244,163345,2,8,P|384:287|436:267,1,125
392,228,163939,2,4,L|392:144,2,75
320,96,166537,6,2,L|176:96,1,125
120,124,167205,2,2,P|96:204|140:256,1,150
208,280,167948,2,12,L|324:280,1,100
360,220,168542,2,8,L|360:132,2,75
276,272,169358,1,8,0:0:0:0:
216,264,169581,6,2,L|148:212,1,75
200,176,170027,2,0,L|352:176,2,150
276,108,171289,2,2,P|364:56|448:120,1,200
444,220,172328,2,2,P|356:272|272:208,1,200
184,100,173516,1,8,0:0:0:0:
184,100,173665,2,8,B|112:192|112:192|164:296,1,225
256,324,174704,1,8,0:0:0:0:
328,292,175001,6,0,L|392:240,1,75
416,192,175446,2,0,L|328:140,1,100
256,108,176040,2,2,L|256:28,2,75
176,124,176783,6,4,L|232:240,1,125
292,232,177377,2,4,L|344:112,1,125
260,120,178045,1,4,0:0:0:0:
168,76,178416,2,2,P|100:128|88:156,1,100
84,200,178936,2,8,L|84:272,1,50
112,304,179307,2,8,P|168:336|232:340,1,125
288,340,179901,2,2,P|351:328|403:290,1,125
404,172,180718,1,12,0:0:0:0:
324,84,181163,6,2,L|212:84,1,100
180,152,181757,1,4,0:0:0:0:
228,188,181980,2,8,L|344:188,2,100
132,216,182945,2,2,L|232:292,1,125
308,276,183613,2,4,L|364:216,2,75
256,192,184207,12,0,185395,0:0:0:0:
