osu file format v14

[General]
AudioFilename: 01. .mp3
AudioLeadIn: 0
PreviewTime: 67052
Countdown: 0
SampleSet: None
StackLeniency: 0.7
Mode: 0
LetterboxInBreaks: 0
SkinPreference:Kagerou Project v1.4
CountdownOffset: 1
WidescreenStoryboard: 1

[Editor]
DistanceSpacing: 0.8
BeatDivisor: 4
GridSize: 4
TimelineZoom: 1

[Metadata]
Title:Children Record
TitleUnicode:チルドレンレコード
Artist:Jin [Shizen no Teki-P] feat. MARiA from GARNiDELiA
ArtistUnicode:じん[自然の敵P] feat. メイリア from GARNiDELiA
Creator:HardAkito
Version:ClosedEyes
Source:Mekakucity Actors
Tags:shizen no teki-p garnidelia children record mekakucity actors
BeatmapID:661899
BeatmapSetID:284603

[Difficulty]
HPDrainRate:6
CircleSize:5
OverallDifficulty:9
ApproachRate:9
SliderMultiplier:1.4
SliderTickRate:1

[Events]
//Background and Video events
0,0,"267.PNG",0,0
//Break Periods
2,83882,92140
2,140752,149678
//Storyboard Layer 0 (Background)
//Storyboard Layer 1 (Fail)
//Storyboard Layer 2 (Pass)
//Storyboard Layer 3 (Foreground)
//Storyboard Sound Samples

[TimingPoints]
531,296.970896852109,4,1,0,45,1,0
18349,-100,4,1,0,45,0,0
28520,-100,4,1,0,45,0,0
67052,-100,4,1,0,50,0,1
91998,-100,4,1,0,50,0,0
150278,-100,4,1,0,30,0,0
166537,-100,4,1,0,50,0,1
185543,-100,4,1,0,100,0,0

[Colours]
Combo1 : 127,127,127
Combo2 : 255,55,55

[HitObjects]
108,172,18349,5,2,0:0:0:0:
272,152,18497,1,2,0:0:0:0:
440,112,18646,1,2,0:0:0:0:
412,232,18943,2,2,B|372:204|368:200|312:216,1,105
264,304,19537,2,2,B|304:332|308:336|364:320,1,105
196,240,19908,2,0,L|100:240,1,70
264,204,20205,5,0,0:0:0:0:
328,168,20353,2,0,L|444:168,1,105
432,76,20725,2,0,L|328:76,1,105
116,72,21244,2,2,L|208:72,1,70
168,164,21690,1,2,0:0:0:0:
468,152,21912,2,2,B|432:136|408:144|400:164,1,70
136,256,22284,2,2,B|164:280|196:276|212:276,1,70
332,304,22729,5,2,0:0:0:0:
436,240,23026,1,2,0:0:0:0:
384,184,23323,1,2,0:0:0:0:
296,232,23546,1,2,0:0:0:0:
68,84,24362,5,0,0:0:0:0:
128,80,24511,2,0,B|168:56|184:60|156:40|228:92,1,105
440,184,24956,2,0,B|400:160|384:164|412:144|340:196,1,105
356,288,25402,1,0,0:0:0:0:
240,184,25550,1,0,0:0:0:0:
120,260,25699,1,0,0:0:0:0:
176,124,25922,6,0,L|232:72,1,70
312,212,26218,2,0,L|376:148,1,70
136,200,26590,1,2,0:0:0:0:
256,192,26738,12,0,28075,0:0:0:0:
128,80,28520,6,0,B|168:56|184:60|156:40|228:92,1,105
384,80,28891,2,0,B|344:56|328:60|356:40|284:92,1,105
152,172,29262,1,0,0:0:0:0:
128,304,29411,2,0,B|168:328|184:324|156:344|228:292,1,105
248,64,29856,2,0,B|288:40|304:44|276:24|348:76,1,105
456,156,30228,2,0,B|440:200|468:220|368:184|396:236|440:264|340:280,1,175
280,288,30747,2,0,B|252:248|232:240|192:284,1,105
60,124,31193,5,2,0:0:0:0:
200,176,31341,2,2,B|248:220|188:236|296:200,1,105
116,324,31712,2,2,B|164:280|104:264|212:300,1,105
396,324,32084,2,2,B|348:280|408:264|300:300,1,105
256,192,32455,12,2,33123,0:0:0:0:
112,108,33494,6,0,B|176:84|140:76|208:108,1,105
408,140,33940,1,0,0:0:0:0:
280,264,34088,1,0,0:0:0:0:
136,300,34311,2,0,B|168:280|152:264|88:212|72:232|152:160,1,175
268,156,34831,2,0,B|300:176|284:192|220:244|204:224|284:296,1,175
368,120,35425,2,0,B|432:144|396:152|464:120,1,105
96,68,35944,5,2,0:0:0:0:
132,156,36093,2,2,L|208:156,1,70
452,312,36464,2,2,L|368:312,1,70
140,316,36835,2,0,L|228:316,1,70
432,160,37206,2,0,L|344:160,1,70
120,84,37578,2,0,B|176:40|168:80|168:116|228:60|244:40|252:88|264:104|192:112|188:76|324:44|348:76,1,245
220,160,38246,1,0,0:0:0:0:
220,188,38394,1,0,0:0:0:0:
440,336,38766,5,2,0:0:0:0:
188,336,38914,2,2,L|304:336,1,105
104,328,39359,1,2,0:0:0:0:
104,176,39508,2,2,L|164:108,1,70
208,232,39805,2,2,P|260:164|268:152,2,70
204,76,40250,1,0,0:0:0:0:
400,92,40473,1,0,0:0:0:0:
336,224,40696,5,0,0:0:0:0:
264,144,40844,2,2,B|224:148|240:180|224:196|156:208,1,105
108,268,41216,2,2,L|196:340,1,105
248,68,41661,2,2,L|320:112,1,70
428,176,42032,2,2,B|388:180|404:212|388:228|320:240,1,105
68,228,42478,2,2,B|120:192|96:184|168:224,1,105
316,44,42997,2,0,B|332:88|304:108|404:72|376:124|332:152|432:168,1,175
392,268,43591,5,0,0:0:0:0:
332,280,43740,1,0,0:0:0:0:
272,288,43888,1,0,0:0:0:0:
212,288,44037,1,0,0:0:0:0:
156,268,44185,1,0,0:0:0:0:
120,228,44408,2,0,B|140:164|108:144|192:160|188:136|228:156,1,140
400,148,44928,1,0,0:0:0:0:
132,40,45150,5,2,0:0:0:0:
128,60,45225,1,2,0:0:0:0:
120,72,45299,1,2,0:0:0:0:
116,84,45373,1,2,0:0:0:0:
116,96,45447,1,2,0:0:0:0:
120,104,45522,1,2,0:0:0:0:
428,220,45819,5,2,0:0:0:0:
424,240,45894,1,2,0:0:0:0:
416,252,45968,1,2,0:0:0:0:
412,264,46042,1,2,0:0:0:0:
412,276,46116,1,2,0:0:0:0:
416,284,46191,1,2,0:0:0:0:
248,344,46413,1,0,0:0:0:0:
340,304,46487,6,0,B|348:264|368:268|332:220|352:216|272:248,1,140
128,260,47006,1,0,0:0:0:0:
144,128,47155,1,0,0:0:0:0:
48,52,47378,2,0,L|208:52,1,140
252,120,47897,1,2,0:0:0:0:
464,48,48046,2,2,L|300:52,1,140
416,92,49531,5,2,0:0:0:0:
324,172,49679,2,2,B|368:212|372:180|368:228|320:260,1,105
440,324,50125,1,2,0:0:0:0:
180,272,50347,2,2,B|180:331|153:313|192:342|248:327,1,105
408,248,50793,1,0,0:0:0:0:
348,184,50941,2,2,L|276:140,1,70
304,228,51313,2,2,L|224:176,1,70
176,156,51684,2,2,L|184:88,2,35
364,324,52129,5,0,0:0:0:0:
148,288,52352,2,0,L|228:240,1,70
152,124,52723,2,0,L|232:184,1,70
412,112,53169,2,0,L|280:200,1,140
416,320,53688,2,0,L|272:244,1,140
244,196,54208,1,0,0:0:0:0:
96,48,54653,6,0,B|152:20|172:92|192:20|240:40,1,140
416,48,55173,2,0,B|360:20|340:92|320:20|272:40,1,140
96,48,55693,2,0,B|152:20|172:92|192:20|240:40,1,140
416,48,56213,2,0,B|360:20|340:92|320:20|272:40,1,140
252,108,56732,1,2,0:0:0:0:
256,192,56881,12,0,58737,0:0:0:0:
84,304,59182,5,2,0:0:0:0:
144,304,59331,1,2,0:0:0:0:
212,312,59479,1,2,0:0:0:0:
288,324,59628,2,2,B|376:256|420:288|348:240|448:160,1,210
426,179,60222,2,0,B|338:111|294:143|366:95|266:15,1,210
188,68,60890,2,0,B|140:72|140:56|136:132,1,70
188,176,61187,2,0,B|140:172|140:188|136:112,1,70
288,104,61484,2,0,L|288:148,2,35
440,312,62003,5,2,0:0:0:0:
440,312,62152,1,2,0:0:0:0:
188,320,62375,2,2,L|268:320,1,70
104,148,62746,1,2,0:0:0:0:
104,148,62894,1,0,0:0:0:0:
312,60,63043,2,0,L|236:60,1,70
256,160,63414,5,0,0:0:0:0:
256,160,63563,1,0,0:0:0:0:
428,144,63785,2,2,B|376:140|368:128|408:208|380:180|400:228|316:200|396:268|380:232|328:308,1,210
184,296,64453,1,2,0:0:0:0:
428,144,64676,2,2,B|376:140|368:128|408:208|380:180|400:228|316:200|396:268|380:232|328:308,1,210
108,64,67052,5,0,0:0:0:0:
308,60,67200,2,0,L|412:60,2,105
164,168,67869,2,0,L|268:168,2,105
252,252,68537,1,0,0:0:0:0:
396,256,68685,1,0,0:0:0:0:
424,60,69057,2,0,B|396:20|400:12|352:72|368:84|300:24|324:16|292:76|308:96|224:32|260:16|200:80,1,245
428,192,69947,2,2,B|400:232|404:240|356:180|372:168|304:228|328:236|296:176|312:156|228:220|264:236|204:172,1,245
96,44,70690,6,0,L|96:128,1,70
160,120,70987,2,0,L|160:208,1,70
96,200,71284,2,0,L|96:284,1,70
176,328,71655,2,2,L|264:328,1,70
392,316,72026,1,2,0:0:0:0:
248,232,72175,2,2,L|156:232,1,70
468,124,72546,2,2,L|468:32,2,70
256,108,73066,5,2,0:0:0:0:
116,72,73214,2,2,L|116:148,1,70
212,52,73511,2,2,L|212:148,1,70
432,200,73882,1,2,0:0:0:0:
388,256,74031,2,2,B|432:272|452:256|408:352|440:364|340:340,1,175
124,256,74699,2,0,B|80:272|60:256|104:352|72:364|172:340,1,175
244,252,75293,1,4,0:0:0:0:
344,316,75516,5,2,0:0:0:0:
364,300,75590,1,2,0:0:0:0:
380,284,75664,1,2,0:0:0:0:
392,264,75738,1,2,0:0:0:0:
392,244,75813,1,2,0:0:0:0:
392,228,75887,1,2,0:0:0:0:
384,208,75961,1,2,0:0:0:0:
264,144,76184,6,2,L|264:60,2,70
112,144,76629,1,0,0:0:0:0:
184,256,76778,2,0,L|240:300,1,70
356,296,77149,2,0,L|412:252,1,70
432,108,77520,1,0,0:0:0:0:
344,72,77669,2,0,B|280:20|308:16|220:72,1,140
128,120,78188,1,0,0:0:0:0:
200,144,78411,6,0,B|276:180|280:140|324:144,1,105
424,272,78931,1,0,0:0:0:0:
352,308,79079,2,0,L|264:232,1,105
136,304,79525,2,0,L|224:236,1,105
248,160,79896,1,2,0:0:0:0:
368,168,80044,2,2,B|368:104|268:56|160:84|144:168|156:188,1,280
204,260,80787,2,2,L|312:260,2,105
440,36,81604,6,0,L|392:100,1,70
224,116,81975,2,0,L|292:176,1,70
448,180,82346,2,0,L|388:244,1,70
340,128,82717,1,2,0:0:0:0:
148,156,82866,2,2,B|192:312|224:304|372:284,1,280
308,200,83682,1,2,0:0:0:0:
368,208,92740,5,2,0:0:0:0:
372,268,92888,1,2,0:0:0:0:
328,336,93037,2,2,L|208:252,1,140
152,204,93482,1,2,0:0:0:0:
388,112,93631,2,2,B|328:120|328:136|304:56,1,105
280,204,94002,1,2,0:0:0:0:
220,76,94151,2,2,B|152:124|188:144|104:160,2,140
288,72,94967,6,2,B|336:56|320:40|356:104,1,70
160,136,95338,1,2,0:0:0:0:
160,136,95487,2,0,B|144:220|168:224|156:248|256:240,1,175
243,240,96007,1,0,0:0:0:0:
380,116,96155,2,0,B|440:96|420:80|472:144,1,105
448,336,96601,2,0,B|376:352|392:364|344:296,1,105
188,220,97046,2,0,L|296:224,1,105
176,40,97640,6,0,P|108:112|104:200,1,175
244,72,98234,1,0,0:0:0:0:
176,40,98457,2,0,P|108:112|104:200,1,175
244,72,99051,1,0,0:0:0:0:
340,72,99273,2,0,L|416:136,2,70
88,268,100090,5,0,0:0:0:0:
400,268,100313,1,0,0:0:0:0:
352,172,100461,2,0,B|304:104|320:92|216:120,2,140
192,188,101278,2,2,B|240:256|224:268|328:240,2,140
68,336,102095,2,2,B|172:284|148:248|216:312|272:264,1,210
40,244,102985,5,2,0:0:0:0:
104,248,103134,2,2,B|148:168|144:144|244:184,1,175
408,248,103654,2,2,B|364:168|368:144|268:184,1,175
252,232,104248,1,2,0:0:0:0:
252,124,104396,1,0,0:0:0:0:
84,56,104693,2,2,L|176:152,1,105
256,32,105064,2,2,L|252:164,1,105
420,64,105435,2,2,L|320:160,1,105
256,184,105807,5,0,0:0:0:0:
184,248,106104,2,0,L|352:248,2,140
448,56,107069,1,2,0:0:0:0:
428,56,107143,1,2,0:0:0:0:
408,60,107217,1,2,0:0:0:0:
396,60,107292,1,2,0:0:0:0:
384,64,107366,1,2,0:0:0:0:
232,56,107811,6,0,L|164:112,1,70
288,100,108034,2,0,L|212:160,1,70
412,148,108405,2,0,B|468:152|456:112|460:240|496:236|384:236,1,175
160,136,108999,1,2,0:0:0:0:
160,156,109073,1,2,0:0:0:0:
160,176,109148,1,2,0:0:0:0:
168,192,109222,1,2,0:0:0:0:
392,352,109519,6,0,B|468:336|468:360|464:260|488:236|384:248,1,210
312,340,110187,1,0,0:0:0:0:
220,336,110335,2,0,B|164:324|188:296|120:304,1,105
208,216,110781,2,0,B|152:204|176:176|108:184,1,105
200,96,111226,1,0,0:0:0:0:
312,104,111375,2,0,B|352:100|344:80|380:132,1,70
416,256,111672,2,0,B|456:224|464:236|428:164,1,105
448,96,112043,1,0,0:0:0:0:
132,188,112340,5,0,0:0:0:0:
216,56,112489,2,0,B|296:72|276:44|320:68,1,105
220,184,112860,2,0,B|300:200|280:172|324:196,1,105
232,296,113305,2,0,B|312:312|292:284|336:308,1,105
376,280,113751,2,2,B|436:168|460:184|340:132,1,210
256,176,114419,1,2,0:0:0:0:
136,280,114716,2,2,B|76:168|52:184|172:132,1,210
256,176,115384,5,0,0:0:0:0:
392,72,115607,2,2,B|360:100|396:120|316:152,1,105
296,32,116052,2,2,B|264:60|300:80|220:112,2,105
388,172,116720,2,0,L|440:228,1,70
276,296,117092,1,0,0:0:0:0:
96,300,117240,1,0,0:0:0:0:
268,220,117389,1,0,0:0:0:0:
140,224,117537,6,0,B|140:152|80:160|168:104,1,140
304,148,118057,2,0,B|304:76|364:84|276:28,2,140
304,148,118799,1,0,0:0:0:0:
96,264,119096,2,2,L|148:316,1,70
180,192,119467,2,2,L|244:256,1,70
208,80,119839,1,2,0:0:0:0:
320,80,120061,2,2,L|284:200,2,105
256,192,121769,5,2,0:0:0:0:
184,296,121917,2,2,B|128:264|112:296|120:192,1,140
256,192,122363,1,2,0:0:0:0:
328,296,122586,2,2,B|384:264|400:296|392:192,1,140
380,120,123105,2,0,P|308:124|292:96,1,105
152,120,123625,2,0,P|216:132|256:104,1,105
432,200,124070,5,2,0:0:0:0:
408,204,124145,1,2,0:0:0:0:
384,208,124219,1,2,0:0:0:0:
368,208,124293,1,2,0:0:0:0:
352,216,124367,1,2,0:0:0:0:
336,228,124442,1,2,0:0:0:0:
116,284,124739,5,0,0:0:0:0:
184,180,125036,2,0,B|160:128|144:136|220:100,1,105
248,204,125407,2,0,B|308:216|324:188|332:292,1,140
456,208,125926,1,0,0:0:0:0:
404,168,126075,2,0,L|312:100,1,105
200,196,126520,2,0,L|272:84,1,105
144,60,126966,5,0,0:0:0:0:
208,64,127114,1,0,0:0:0:0:
280,76,127263,2,0,B|328:108|348:72|296:152|380:180|344:224|288:264,1,210
232,308,127931,2,0,B|184:276|164:312|216:232|132:204|168:160|224:120,1,210
88,152,128673,2,0,B|88:216|72:232|144:236,1,105
308,244,129045,2,0,B|248:244|268:208|268:156,1,105
412,88,129490,5,0,0:0:0:0:
288,92,129639,1,0,0:0:0:0:
180,96,129861,1,0,0:0:0:0:
228,160,130084,2,0,L|232:272,2,105
400,184,130752,1,0,0:0:0:0:
148,256,130975,1,2,0:0:0:0:
296,312,131123,2,0,L|264:224,1,70
104,160,131643,5,0,0:0:0:0:
128,88,131792,2,0,B|200:64|188:32|268:104,1,140
316,152,132237,1,0,0:0:0:0:
140,236,132460,1,2,0:0:0:0:
156,248,132534,1,2,0:0:0:0:
160,264,132608,1,2,0:0:0:0:
168,284,132683,1,2,0:0:0:0:
172,300,132757,1,2,0:0:0:0:
192,312,132831,1,2,0:0:0:0:
340,328,133054,6,0,P|344:288|372:284,1,70
276,232,133425,1,0,0:0:0:0:
444,124,133573,2,0,B|408:92|380:84|376:152|332:88|284:108,1,140
444,124,134093,2,0,B|408:92|380:84|376:152|332:88|284:108,1,140
184,100,134613,1,0,0:0:0:0:
96,172,134836,2,0,L|192:212,1,105
68,232,135207,6,0,L|188:284,1,105
236,316,135578,1,0,0:0:0:0:
320,328,135727,1,2,0:0:0:0:
336,308,135801,1,2,0:0:0:0:
360,288,135875,1,2,0:0:0:0:
356,272,135949,1,2,0:0:0:0:
340,220,136098,2,0,P|344:140|368:120,1,105
256,192,136840,12,0,140552,0:0:0:0:
424,248,150278,5,0,0:0:0:0:
208,200,150575,1,0,0:0:0:0:
400,104,150872,1,0,0:0:0:0:
212,64,151095,1,2,0:0:0:0:
200,176,151317,2,0,L|256:232,1,70
336,176,151689,2,0,L|260:240,1,70
88,52,152283,5,2,0:0:0:0:
88,64,152357,1,2,0:0:0:0:
92,80,152431,1,2,0:0:0:0:
96,96,152505,1,2,0:0:0:0:
104,112,152580,1,2,0:0:0:0:
220,64,153025,5,2,0:0:0:0:
224,80,153100,1,2,0:0:0:0:
232,92,153174,1,2,0:0:0:0:
236,104,153249,1,2,0:0:0:0:
244,120,153323,1,2,0:0:0:0:
188,320,153545,2,0,B|264:292|240:288|328:328,2,140
252,192,154361,2,0,L|256:268,1,70
412,148,154881,6,0,L|344:88,1,70
376,184,155178,2,0,L|312:124,1,70
252,88,155549,1,0,0:0:0:0:
140,192,155772,2,0,L|212:132,1,70
104,148,156143,2,0,L|172:96,1,70
256,88,156514,1,0,0:0:0:0:
256,144,156663,2,0,L|256:240,1,70
400,296,157183,6,2,P|252:344|128:296,1,280
260,216,158074,1,2,0:0:0:0:
348,192,158222,2,2,L|264:124,1,105
176,204,158668,2,2,L|264:120,1,105
400,88,159187,2,0,P|252:40|128:88,1,280
420,176,160078,1,0,0:0:0:0:
348,176,160301,6,0,B|320:136|332:136|284:172,1,70
280,228,160598,2,0,B|232:244|248:256|200:208,1,70
96,200,160969,1,0,0:0:0:0:
216,148,161118,2,0,B|184:124|204:104|112:132,1,105
120,248,161563,2,0,B|164:288|144:300|228:248,1,105
444,52,162083,5,2,0:0:0:0:
384,168,162305,2,2,L|312:80,1,105
252,180,162751,1,2,0:0:0:0:
204,80,162899,2,2,L|144:192,1,105
252,280,163345,2,0,B|176:232|208:224|116:300,1,140
268,288,163864,2,0,B|344:240|320:228|412:296,1,140
252,168,164384,1,0,0:0:0:0:
416,332,166537,6,2,P|452:272|440:224,1,105
288,184,166983,1,2,0:0:0:0:
412,100,167131,2,2,P|388:64|292:44,1,140
160,64,167651,2,2,B|108:48|132:28|80:112,2,105
156,180,168319,1,0,0:0:0:0:
128,300,168542,2,0,P|276:344|420:300,1,280
272,232,169358,5,0,0:0:0:0:
128,160,169581,2,0,L|264:160,1,105
384,156,170101,2,0,L|252:160,1,105
192,304,170546,2,0,B|240:272|224:260|292:308,2,105
408,220,171215,2,2,P|348:260|288:216,1,140
268,172,171734,1,2,0:0:0:0:
400,156,171957,1,2,0:0:0:0:
276,96,172180,6,2,P|348:52|396:96,1,140
336,192,172699,2,2,B|288:252|324:272|196:264,1,175
116,176,173293,1,2,0:0:0:0:
152,88,173516,1,0,0:0:0:0:
240,152,173665,1,2,0:0:0:0:
248,168,173739,1,2,0:0:0:0:
264,188,173813,1,2,0:0:0:0:
280,212,173887,1,2,0:0:0:0:
352,260,174110,6,0,B|340:336|264:352|160:348|144:248,1,280
128,180,174927,1,0,0:0:0:0:
208,88,175075,1,2,0:0:0:0:
228,100,175149,1,2,0:0:0:0:
248,108,175224,1,2,0:0:0:0:
264,112,175298,1,2,0:0:0:0:
280,120,175372,1,2,0:0:0:0:
296,124,175446,1,2,0:0:0:0:
308,128,175521,1,2,0:0:0:0:
320,136,175595,1,2,0:0:0:0:
456,224,175818,6,2,L|408:284,1,70
296,232,176189,2,2,L|368:292,1,70
144,312,176634,2,0,B|100:256|100:248|60:280|156:192,1,140
140,84,177154,1,0,0:0:0:0:
284,48,177377,1,0,0:0:0:0:
432,120,177525,1,0,0:0:0:0:
408,308,177748,6,0,B|344:272|332:256|312:280|388:180,1,175
328,96,178342,1,2,0:0:0:0:
184,120,178490,2,2,B|232:136|240:100|276:164|336:184,1,140
300,64,179010,1,2,0:0:0:0:
184,120,179233,2,2,B|232:136|240:100|276:164|336:184,1,140
392,280,179752,1,0,0:0:0:0:
312,312,179901,6,0,B|272:264|304:248|200:280|228:308|216:224|248:196|132:192,1,210
304,84,180569,2,0,L|256:164,1,70
148,240,181163,1,2,0:0:0:0:
148,240,181312,1,2,0:0:0:0:
416,164,181534,2,2,B|392:124|400:120|344:156,1,70
416,240,181831,2,2,B|392:280|400:284|344:248,1,70
192,84,182202,1,0,0:0:0:0:
192,84,182351,5,0,0:0:0:0:
292,48,182574,2,0,L|368:108,1,70
156,196,183019,1,0,0:0:0:0:
352,188,183242,2,8,L|292:264,1,70
452,240,183613,2,2,L|376:320,1,105
240,184,184059,1,2,0:0:0:0:
240,184,184281,1,2,0:0:0:0:
256,192,184504,12,2,185543,0:0:0:0:
