osu file format v14

[General]
AudioFilename: It Has To Be This Way (Platinum Mix).mp3
AudioLeadIn: 0
PreviewTime: 52341
Countdown: 1
SampleSet: Normal
StackLeniency: 0.7
Mode: 0
LetterboxInBreaks: 1
WidescreenStoryboard: 0

[Editor]
DistanceSpacing: 1.3
BeatDivisor: 4
GridSize: 8
TimelineZoom: 1

[Metadata]
Title:It Has To Be This Way (Platinum Mix)
TitleUnicode:It Has To Be This Way (Platinum Mix)
Artist:Jimmy Gnecco
ArtistUnicode:Jimmy Gnecco
Creator:Masterblue48
Version:Hard
Source:Metal Gear Rising - Revengeance (Vocal Tracks)
Tags:Metal Gear Rising Revengeance It has to be this way Masterblue48 Soundtrack
BeatmapID:253031
BeatmapSetID:88637

[Difficulty]
HPDrainRate:6
CircleSize:4
OverallDifficulty:6
ApproachRate:7
SliderMultiplier:0.9
SliderTickRate:1

[Events]
//Background and Video events
0,0,"Untitled.jpg",0,0
//Break Periods
//Storyboard Layer 0 (Background)
//Storyboard Layer 1 (Fail)
//Storyboard Layer 2 (Pass)
//Storyboard Layer 3 (Foreground)
//Storyboard Sound Samples

[TimingPoints]
19561,292.682926829268,4,1,1,80,1,0
24243,-100,4,1,1,80,0,0
52341,-86.9565217391304,4,1,1,80,0,1
70780,-80,4,1,1,80,0,0
80439,-100,4,1,1,80,0,0
93317,-86.9565217391304,4,1,1,80,0,0
131951,-80,4,1,1,80,0,1
150536,-86.9565217391304,4,1,1,80,0,0

[Colours]
Combo1 : 255,198,0
Combo2 : 244,147,0
Combo3 : 255,115,21

[HitObjects]
88,256,19561,6,0,P|144:272|184:272,1,90,12|0,0:0|0:3,0:0:0:0:
288,256,20146,1,2,0:3:0:0:
392,192,20439,1,0,0:0:0:0:
368,80,20731,6,0,P|312:96|272:96,1,90,8|0,0:0|0:0,0:0:0:0:
168,80,21317,1,2,0:3:0:0:
56,40,21609,1,0,0:0:0:0:
40,152,21902,6,0,P|80:184|120:208,1,90,8|0,0:0|0:0,0:0:0:0:
216,256,22487,1,2,0:3:0:0:
328,296,22780,1,0,0:0:0:0:
440,328,23073,6,0,P|448:272|440:232,1,90,8|0,0:0|0:0,0:0:0:0:
416,128,23658,1,2,0:3:0:0:
376,16,23951,1,0,0:0:0:0:
256,16,24243,6,0,P|224:72|216:104,1,90,12|0,0:0|0:2,0:0:0:0:
208,152,24682,2,0,P|191:214|178:236,1,90,2|0,0:3|0:0,0:0:0:0:
160,288,25121,2,0,P|184:344|216:352,1,90,2|8,0:3|0:0,0:0:0:0:
264,360,25561,2,0,P|328:344|352:312,1,90,2|0,0:3|0:2,0:0:0:0:
384,272,26000,5,2,0:3:0:0:
440,152,26292,1,0,0:0:0:0:
328,112,26585,6,0,L|288:192,1,90,8|0,0:0|0:2,0:0:0:0:
232,208,27024,2,0,L|152:168,1,90,2|0,0:3|0:0,0:0:0:0:
128,112,27463,2,0,L|168:32,1,90,2|8,0:3|0:0,0:0:0:0:
224,16,27902,2,0,L|304:56,1,90,2|0,0:3|0:2,0:0:0:0:
368,88,28341,5,2,0:3:0:0:
368,224,28634,1,0,0:0:0:0:
272,296,28926,6,0,P|216:296|184:312,1,90,8|0,0:0|0:2,0:0:0:0:
136,280,29365,2,0,P|136:224|119:192,1,90,2|0,0:3|0:0,0:0:0:0:
88,144,29804,2,0,P|48:104|14:93,1,90,2|8,0:3|0:0,0:0:0:0:
16,32,30243,2,0,P|72:32|104:24,1,90,2|0,0:3|0:2,0:0:0:0:
168,8,30682,5,2,0:3:0:0:
288,64,30975,1,0,0:0:0:0:
176,104,31268,6,0,P|168:160|176:192,1,90,8|0,0:0|0:2,0:0:0:0:
200,248,31707,2,0,P|233:293|262:310,1,90,2|0,0:3|0:0,0:0:0:0:
320,312,32146,2,0,P|365:278|382:249,1,90,2|8,0:3|0:0,0:0:0:0:
408,200,32585,2,0,P|416:144|408:111,1,90,2|0,0:3|0:2,0:0:0:0:
384,48,33024,5,2,0:3:0:0:
288,144,33317,1,0,0:0:0:0:
192,48,33609,1,12,0:0:0:0:
136,8,33756,2,0,P|120:56|80:96,1,90,0|2,0:0|0:3,0:0:0:0:
48,136,34195,2,0,P|88:168|112:208,1,90,0|2,0:0|0:2,0:0:0:0:
168,321,34780,6,0,P|197:353|252:358,1,90,8|2,0:0|0:3,0:0:0:0:
310,351,35219,1,0,0:0:0:0:
366,313,35365,1,2,0:3:0:0:
261,227,35658,1,0,3:0:0:0:
128,224,35951,5,8,0:0:0:0:
156,162,36097,2,0,P|185:126|243:110,1,90,0|2,0:0|0:3,0:0:0:0:
292,111,36536,2,0,P|331:126|360:162,1,90,0|2,0:0|0:2,0:0:0:0:
422,282,37121,6,0,P|456:237|468:190,1,90,8|2,0:0|0:3,0:0:0:0:
472,137,37561,1,0,0:0:0:0:
461,70,37707,1,2,0:3:0:0:
361,161,38000,1,0,3:0:0:0:
242,97,38292,5,8,0:0:0:0:
182,66,38439,2,0,P|144:48|87:45,1,90,0|2,0:0|0:3,0:0:0:0:
30,60,38878,2,0,P|41:109|40:166,1,90,0|2,0:0|0:2,0:0:0:0:
36,283,39463,6,0,P|96:281|129:274,1,90,8|2,0:0|0:3,0:0:0:0:
190,258,39902,1,0,0:0:0:0:
252,232,40048,1,2,0:3:0:0:
132,168,40341,1,0,3:0:0:0:
254,109,40634,5,8,0:0:0:0:
312,75,40780,2,0,P|341:68|404:82,1,90,0|2,0:0|0:3,0:0:0:0:
461,105,41219,2,0,P|466:148|499:191,1,90,0|2,0:0|0:2,0:0:0:0:
399,284,41804,6,0,P|372:321|367:364,1,90,8|2,0:0|0:3,0:0:0:0:
300,367,42243,1,0,0:0:0:0:
252,319,42390,1,0,0:0:0:0:
203,366,42536,1,0,0:0:0:0:
155,318,42682,1,2,3:3:0:0:
251,223,42975,5,12,0:0:0:0:
312,192,43121,2,0,P|281:161|231:158,1,90,0|2,0:0|0:3,0:0:0:0:
186,203,43560,2,0,P|161:233|96:229,1,90,0|2,0:0|0:2,0:0:0:0:
112,102,44146,6,0,P|137:72|202:76,1,90,8|2,0:0|0:3,0:0:0:0:
236,112,44585,1,0,0:0:0:0:
301,97,44731,1,2,0:3:0:0:
420,160,45024,1,0,3:0:0:0:
402,294,45317,5,8,0:0:0:0:
334,299,45463,2,0,L|241:303,1,90,0|2,0:0|0:3,0:0:0:0:
242,235,45902,2,0,L|331:231,1,90,0|2,0:0|0:2,0:0:0:0:
210,171,46487,6,0,P|176:210|173:251,1,90,8|2,0:0|0:3,0:0:0:0:
188,312,46926,1,0,0:0:0:0:
240,354,47073,1,2,0:3:0:0:
118,295,47365,1,0,3:0:0:0:
34,188,47658,5,8,0:0:0:0:
82,141,47804,2,0,P|123:108|164:99,1,90,0|2,0:0|0:3,0:0:0:0:
226,97,48243,2,0,P|277:105|309:125,1,90,0|2,0:0|0:2,0:0:0:0:
409,216,48829,6,0,P|396:223|316:212,1,90,8|2,0:0|0:3,0:0:0:0:
264,187,49268,1,0,0:0:0:0:
198,172,49414,5,2,0:3:0:0:
41,214,49707,1,0,3:0:0:0:
185,288,50000,1,4,0:0:0:0:
420,349,50439,1,0,0:0:0:0:
274,154,50878,1,0,0:0:0:0:
487,269,51317,1,0,0:0:0:0:
248,222,51756,1,0,0:0:0:0:
320,366,52048,1,0,0:0:0:0:
125,308,52341,6,0,P|64:244|95:173,1,155.250002961159,12|2,0:0|0:3,0:0:0:0:
223,45,53219,2,0,P|276:68|424:61,1,207.000003948212,8|2,0:2|0:3,0:0:0:0:
448,193,54097,1,0,0:0:0:0:
320,236,54390,1,0,0:0:0:0:
233,132,54682,2,0,P|173:140|95:218,1,155.250002961159,8|2,0:2|0:3,0:0:0:0:
23,374,55560,2,0,P|83:366|192:252,1,207.000003948212,8|2,0:2|0:3,0:0:0:0:
235,133,56439,1,0,0:0:0:0:
101,116,56731,1,0,0:0:0:0:
157,238,57024,6,0,P|203:278|301:278,1,155.250002961159,8|2,0:2|0:3,0:0:0:0:
450,212,57902,2,0,P|498:173|511:34,1,207.000003948212,8|2,0:2|0:3,0:0:0:0:
389,91,58780,1,0,0:0:0:0:
296,188,59073,1,0,0:0:0:0:
228,304,59365,2,0,P|314:324|382:287,1,155.250002961159,8|2,0:0|0:3,0:2:0:0:
298,108,60243,2,0,P|225:95|101:135,1,207.000003948212,8|2,0:2|0:3,0:0:0:0:
10,234,61121,1,0,0:0:0:0:
99,334,61414,1,2,0:3:0:0:
191,236,61707,6,0,B|174:148|110:189|101:123,1,155.250002961159,12|2,0:1|0:3,0:0:0:0:
270,27,62585,2,0,P|336:54|381:175,1,207.000003948212,8|2,0:2|0:3,0:0:0:0:
355,306,63463,1,0,0:0:0:0:
253,217,63756,1,0,0:0:0:0:
157,123,64048,2,0,B|241:63|241:63|294:90,1,155.250002961159,8|2,0:2|0:3,0:0:0:0:
466,178,64926,2,0,B|482:328|342:305,1,207.000003948212,8|2,0:2|0:3,0:0:0:0:
220,299,65804,1,0,0:0:0:0:
85,290,66097,1,0,0:0:0:0:
85,156,66390,6,0,P|132:199|221:172,1,155.250002961159,8|2,0:2|0:3,0:0:0:0:
376,64,67268,2,0,P|363:149|437:252,1,207.000003948212,8|2,0:2|0:3,0:0:0:0:
496,128,68146,1,0,0:0:0:0:
376,64,68439,1,0,0:0:0:0:
259,126,68731,2,0,B|218:221|218:221|264:265,1,155.250002961159,8|2,0:2|0:3,0:0:0:0:
99,128,69609,1,0,0:0:0:0:
99,262,69902,2,0,L|154:291,4,51.7500009870529,8|0|0|0|2,1:2|1:0|1:0|1:0|1:3,0:0:0:0:
231,324,70780,1,0,0:0:0:0:
364,276,71073,6,0,P|397:260|440:200,1,112.5,4|2,0:0|0:2,0:0:0:0:
357,91,71658,2,0,P|341:58|281:15,1,112.5,0|2,0:0|0:2,0:0:0:0:
173,97,72243,2,0,P|140:113|97:173,1,112.5,0|2,0:0|0:2,0:0:0:0:
173,285,72829,1,0,3:3:0:0:
256,192,73121,1,2,0:2:0:0:
384,247,73414,6,0,P|441:283|457:333,1,112.5,0|2,0:0|0:2,0:0:0:0:
315,308,74000,2,0,P|258:346|215:354,1,112.5,0|2,0:0|0:2,0:0:0:0:
83,351,74585,2,0,B|271:118|27:351,4,56.25,0|0|2|0|0,0:2|0:0|0:2|0:0|3:2,0:0:0:0:
220,358,75463,5,2,0:2:0:0:
366,358,75756,2,0,P|326:267|246:225,1,168.75,4|0,0:0|0:0,0:0:0:0:
64,152,76634,2,0,P|92:67|222:43,1,225
336,120,77512,1,0,0:0:0:0:
480,96,77804,1,0,0:0:0:0:
392,216,78097,6,0,L|450:180,4,56.25,2|0|0|0|2,0:2|3:0|2:0|3:0|0:2,0:0:0:0:
264,288,78975,1,2,0:3:0:0:
128,240,79268,2,0,L|68:216,4,56.25,2|0|0|0|2,0:2|3:0|2:0|3:0|0:2,0:0:0:0:
232,136,80146,1,2,0:3:0:0:
352,136,80439,1,4,0:0:0:0:
280,296,80878,1,0,0:0:0:0:
104,296,81317,1,0,0:0:0:0:
264,216,81756,1,0,0:0:0:0:
440,192,82195,6,0,L|376:192,3,45
336,192,82780,1,0,0:0:0:0:
192,64,83219,1,0,0:0:0:0:
104,232,83658,1,0,0:0:0:0:
272,320,84097,1,0,0:0:0:0:
421,215,85121,5,4,0:0:0:0:
301,275,85414,2,0,P|232:278|183:187,1,180,8|2,0:2|0:3,0:0:0:0:
196,55,86292,2,0,P|97:83|51:155,1,180,8|2,0:2|0:3,0:0:0:0:
256,192,87463,12,2,89219,0:3:0:0:
413,192,89804,5,0,0:0:0:0:
256,320,90243,1,0,0:0:0:0:
98,192,90682,1,0,0:0:0:0:
256,64,91121,1,0,0:0:0:0:
308,259,91560,2,0,P|261:241|211:255,1,90
128,286,92146,6,0,P|103:250|96:152,1,135,8|2,0:2|0:3,0:0:0:0:
264,184,93024,1,0,0:0:0:0:
296,56,93317,2,0,P|330:64|359:65,3,51.7500009870529,8|0|0|0,0:2|0:0|0:0|0:0,0:0:0:0:
344,136,93902,2,0,P|336:170|335:199,3,51.7500009870529,2|0|0|0,0:3|0:0|0:0|0:0,0:0:0:0:
352,256,94487,5,4,0:0:0:0:
240,184,94780,2,0,P|192:154|129:260,1,207.000003948212,8|2,0:2|0:3,0:0:0:0:
168,384,95658,2,0,P|69:356|27:264,1,207.000003948212,8|2,0:2|0:3,0:0:0:0:
256,192,96829,12,2,98585,0:3:0:0:
99,192,99170,5,0,0:0:0:0:
256,320,99609,1,0,0:0:0:0:
256,120,100048,1,0,0:0:0:0:
440,192,100487,1,0,0:0:0:0:
240,192,100926,2,0,P|288:184|328:136,1,103.500001974106
424,48,101512,6,0,P|449:84|434:199,1,155.250002961159,8|2,0:2|0:3,0:0:0:0:
328,352,102390,1,0,0:0:0:0:
208,288,102682,2,0,P|174:280|145:279,3,51.7500009870529,8|0|0|0,0:2|0:0|0:0|0:0,0:0:0:0:
168,208,103268,2,0,P|176:174|177:145,3,51.7500009870529,2|0|0|0,0:3|0:0|0:0|0:0,0:0:0:0:
176,88,103853,1,12,0:0:0:0:
312,104,104146,2,0,P|361:115|415:119,1,103.500001974106,0|2,0:0|0:3,0:0:0:0:
408,256,104731,2,0,B|304:256|304:256|206:316|101:325,1,310.500005922318,8|2,0:0|0:3,0:0:0:0:
64,200,105902,5,0,0:0:0:0:
184,136,106195,1,8,0:0:0:0:
320,136,106487,2,0,P|377:145|436:174,1,103.500001974106,0|2,0:0|0:3,0:0:0:0:
360,280,107073,2,0,B|262:249|262:249|203:149|98:121,1,310.500005922318,8|2,0:0|0:3,0:0:0:0:
208,40,108243,5,0,0:0:0:0:
344,56,108536,1,12,0:0:0:0:
456,128,108829,2,0,P|468:193|457:230,1,103.500001974106,0|2,0:0|0:3,0:0:0:0:
336,168,109414,2,0,P|253:144|131:168,1,207.000003948212,8|2,0:0|0:3,0:0:0:0:
216,272,110292,1,0,0:0:0:0:
344,312,110585,2,0,P|432:272|472:168,1,207.000003948212,8|0,0:2|0:0,0:0:0:0:
336,168,111463,1,2,0:3:0:0:
203,122,111756,2,0,L|203:59,4,51.7500009870529,0|0|8|0|0,0:0|0:0|0:2|0:0|0:0,0:0:0:0:
203,256,112634,1,2,0:3:0:0:
327,306,112926,5,0,0:0:0:0:
431,221,113219,1,12,0:0:0:0:
471,92,113512,2,0,P|389:95|345:87,1,103.500001974106,0|2,0:0|0:3,0:0:0:0:
251,69,114097,2,0,B|200:62|150:47|150:47|36:81|42:215,1,310.500005922318,8|2,0:0|0:3,0:0:0:0:
63,340,115268,5,0,0:0:0:0:
169,258,115560,1,8,0:0:0:0:
273,342,115853,2,0,B|263:288|263:288|295:244,1,103.500001974106,0|2,0:0|0:3,0:0:0:0:
380,146,116439,2,0,B|416:104|436:59|436:59|302:84|216:60,1,310.500005922318,8|2,0:0|0:3,0:0:0:0:
98,37,117609,5,0,0:0:0:0:
43,159,117902,1,12,0:0:0:0:
177,159,118195,2,0,P|242:175|276:208,1,103.500001974106,0|2,0:0|0:3,0:0:0:0:
341,311,118780,2,0,P|258:368|143:377,2,207.000003948212,8|2|0,0:0|0:3|0:0,0:0:0:0:
426,207,120243,2,0,P|409:141|368:103,1,103.500001974106,8|0,0:0|0:3,0:0:0:0:
251,104,120829,1,2,0:3:0:0:
280,229,121121,1,0,0:3:0:0:
234,359,121414,2,0,L|171:359,4,51.7500009870529,8|0|0|0|2,0:2|0:0|0:2|0:0|0:3,0:0:0:0:
368,359,122292,1,2,0:3:0:0:
433,241,122585,6,0,P|449:177|433:121,1,103.500001974106,12|0,0:0|0:2,0:0:0:0:
387,18,123170,1,2,0:3:0:0:
261,67,123463,2,0,P|198:85|151:79,1,103.500001974106,0|8,0:0|0:2,0:0:0:0:
33,38,124048,1,0,0:0:0:0:
165,11,124341,1,2,0:3:0:0:
261,66,124634,5,0,0:0:0:0:
297,188,124926,2,0,P|240:177|176:180,1,103.500001974106,4|8,0:0|0:2,0:0:0:0:
166,181,125365,2,0,P|126:188|99:186,1,51.7500009870529,0|2,0:0|0:3,0:0:0:0:
284,263,125804,2,0,P|221:195|285:112,1,207.000003948212,4|8,0:2|0:2,0:0:0:0:
406,74,126682,5,0,0:2:0:0:
492,177,126975,1,8,0:1:0:0:
405,279,127268,1,4,0:0:0:0:
282,333,127560,1,8,0:1:0:0:
405,279,127853,1,0,0:2:0:0:
289,208,128146,2,0,P|238:183|80:136,1,207.000003948212,4|8,0:1|0:2,0:0:0:0:
167,24,129024,5,0,0:2:0:0:
270,110,129317,1,0,0:2:0:0:
389,49,129609,2,0,P|406:99|396:155,1,103.500001974106,0|8,0:0|0:2,0:0:0:0:
456,184,130048,2,0,P|492:227|484:283,1,103.500001974106,0|0,0:0|0:2,0:0:0:0:
424,248,130487,2,2,P|356:258|211:303,2,207.000003948212,6|8|0,0:1|0:2|0:2,0:0:0:0:
263,206,131951,6,0,P|174:225|129:228,1,112.5,12|0,0:0|0:0,0:0:0:0:
79,223,132390,2,0,P|111:160|124:116,1,112.5,4|0,0:3|0:0,0:0:0:0:
145,50,132829,1,2,0:3:0:0:
278,55,133121,2,0,L|354:68,3,56.25,8|0|0|0,0:0|0:0|0:0|0:0,0:0:0:0:
403,85,133707,2,0,L|473:111,3,56.25,8|0|2|0,0:2|0:0|0:3|0:0,0:0:0:0:
475,174,134292,6,0,P|410:206|366:247,1,112.5,8|0,0:0|0:0,0:0:0:0:
325,281,134731,2,0,P|287:255|208:225,1,112.5,4|0,0:3|0:0,0:0:0:0:
155,209,135170,1,2,0:3:0:0:
92,76,135463,2,0,P|144:59|156:49,3,56.25,8|0|0|0,0:0|0:0|0:0|0:0,0:0:0:0:
290,72,136195,1,4,0:3:0:0:
353,107,136341,1,2,0:3:0:0:
417,209,136634,6,0,P|342:196|291:166,1,112.5,12|0,0:0|0:0,0:0:0:0:
248,139,137073,2,0,P|223:173|140:191,1,112.5,4|0,0:3|0:0,0:0:0:0:
84,200,137512,1,2,0:3:0:0:
135,336,137804,2,0,P|176:327|206:331,3,56.25,8|0|0|0,0:0|0:0|0:0|0:0,0:0:0:0:
263,330,138390,2,0,P|293:316|331:313,3,56.25,8|0|2|0,0:2|0:0|0:3|0:0,0:0:0:0:
388,310,138975,6,0,P|403:268|446:213,1,112.5,8|0,0:0|0:0,0:0:0:0:
506,176,139414,2,0,P|475:147|389:166,1,112.5,4|0,0:3|0:0,0:0:0:0:
358,203,139853,1,2,0:3:0:0:
211,196,140146,2,0,P|212:234|219:257,3,56.25,8|0|0|0,0:0|0:0|0:0|0:0,0:0:0:0:
171,112,140878,1,4,0:3:0:0:
243,108,141024,1,2,0:3:0:0:
386,136,141317,6,0,P|387:80|356:25,1,112.5,12|0,0:0|0:0,0:0:0:0:
288,33,141756,2,0,P|220:36|163:26,1,112.5,4|0,0:3|0:0,0:0:0:0:
103,16,142195,1,2,0:3:0:0:
119,161,142487,2,0,L|126:229,3,56.25,8|0|0|0,0:0|0:0|0:0|0:0,0:0:0:0:
137,289,143073,2,0,L|195:317,3,56.25,8|0|2|0,0:2|0:0|0:3|0:0,0:0:0:0:
254,342,143658,6,0,P|336:350|379:326,1,112.5,8|0,0:0|0:0,0:0:0:0:
425,302,144097,2,0,P|422:244|439:185,1,112.5,4|0,0:3|0:0,0:0:0:0:
473,128,144536,1,2,0:3:0:0:
333,83,144829,2,0,L|371:38,3,56.25,8|0|0|0,0:0|0:0|0:0|0:0,0:0:0:0:
240,109,145560,1,4,0:3:0:0:
237,182,145707,1,2,0:3:0:0:
139,291,146000,6,0,P|100:225|85:165,1,112.5,12|0,0:0|0:0,0:0:0:0:
74,119,146439,2,0,P|124:97|191:49,1,112.5,4|0,0:3|0:0,0:0:0:0:
230,20,146878,1,2,0:3:0:0:
364,77,147170,2,0,L|430:112,3,56.25,8|0|0|0,0:0|0:0|0:0|0:0,0:0:0:0:
476,141,147756,2,0,L|445:198,3,56.25,8|0|2|0,0:2|0:0|0:3|0:3,0:0:0:0:
411,252,148341,6,0,P|365:303|301:327,1,112.5,8|0,0:0|0:0,0:0:0:0:
257,347,148780,2,0,P|220:316|141:291,1,112.5,4|0,0:3|0:0,0:0:0:0:
87,283,149219,1,2,0:3:0:0:
88,136,149512,2,0,L|89:63,3,56.25,8|0|0|0,0:0|0:0|0:0|0:0,0:0:0:0:
159,98,150097,2,0,P|246:53|220:123,3,56.25,8|0|2|0,0:2|0:0|0:3|0:0,0:0:0:0:
273,144,150682,6,0,P|327:150|344:149,4,51.7500009870529,6|0|0|0|2,0:2|3:0|2:0|3:0|0:2,0:0:0:0:
355,250,151560,1,0,0:0:0:0:
239,319,151853,6,0,P|185:313|168:314,4,51.7500009870529,2|0|0|0|2,0:2|3:0|2:0|3:0|0:2,0:0:0:0:
144,222,152731,1,0,0:0:0:0:
43,132,153024,6,0,P|106:122|156:94,1,103.500001974106,2|0,0:2|0:3,0:0:0:0:
253,30,153609,1,2,0:2:0:0:
365,104,153902,1,0,0:0:0:0:
485,163,154195,2,0,P|498:98|484:43,1,103.500001974106,2|0,0:2|0:2,0:0:0:0:
362,22,154780,1,2,0:2:0:0:
264,117,155073,1,0,0:0:0:0:
408,255,155365,6,0,P|362:293|310:310,1,103.500001974106,4|0,0:1|0:0,0:0:0:0:
261,275,155804,2,0,P|249:216|258:162,1,103.500001974106
313,140,156243,2,0,P|368:160|409:197,1,103.500001974106
408,255,156682,6,0,P|362:293|310:310,1,103.500001974106
261,276,157121,1,2,0:3:0:0:
103,138,157414,1,2,0:3:0:0:
76,270,157707,6,0,P|122:308|174:325,1,103.500001974106,4|0,0:2|0:0,0:0:0:0:
223,290,158146,2,0,P|234:231|225:177,1,103.500001974106
171,155,158585,2,0,P|115:175|74:212,1,103.500001974106
76,270,159024,6,0,P|122:308|174:325,1,103.500001974106
221,290,159463,1,2,0:3:0:0:
329,171,159756,1,2,0:3:0:0:
262,357,160048,5,4,0:0:0:0:
475,201,160487,1,0,0:0:0:0:
205,165,160926,1,0,0:0:0:0:
453,20,161365,1,0,0:0:0:0:
56,338,162390,5,4,0:0:0:0:
294,225,162829,1,0,0:0:0:0:
55,112,163268,1,0,0:0:0:0:
296,5,163707,1,0,0:0:0:0:
