osu file format v14

[General]
AudioFilename: It Has To Be This Way (Platinum Mix).mp3
AudioLeadIn: 0
PreviewTime: 52341
Countdown: 1
SampleSet: Normal
StackLeniency: 0.7
Mode: 0
LetterboxInBreaks: 1
WidescreenStoryboard: 0

[Editor]
Bookmarks: 875,31268,31707,32146,32585,33609,47658,52341,54682,54975,55121,55414,55560,55853,55926,56000,56073,56146,56439,56878,57024,57317,59365,59658,59804,60097,60243,60536,60609,60682,60756,60829,60975,61121,61268,61414,61560,61707,62000,62146,62585,62878,63902,64048,64341,64926,65219,65658,65804,65951,66097,66243,66390,66682,67268,67560,67707,67853,68000,68146,68292,68439,68585,68731,69024,69170,69463,69609,69902,69975,70048,70121,70195,71512,71804,71951,72243,72390,72536,73414,73707,73853,74146,74292,74585,74658,74731,74804,74878,75024,75317,75463,75609,75756,76048,76195,76487,76634,76926,77073,77219,77365,77658,77804,78097,78170,78243,78317,78390,78463,78536,78609,78829,78975,79121,79268,79414,79560,79707,79853,80000,80146,80292,80439,80878,81317,81756,82195,82341,82487,82634,82780,83219,83658,84097,84390,84463,84536,84609,84682,84756,84829,84902,84975,85048,85121,85414,85560,85707,85853,86000,86292,86439,86585,86731,87024,87170,87317,87463,87609,87756,87902,88048,88195,88341,88487,88634,88780,88926,89073,89219,89365,89512,89658,89731,89804,89951,90097,90243,90390,90536,90682,90829,90975,91121,91268,91414,91560,91707,91853,92000,92146,92585,93024,93317,93609,93756,93902,94048,94195,94341,94487,94780,94926,95073,95219,95365,95512,95658,95804,95951,96097,96243,96390,96536,96682,96829,96975,97048,97121,97268,97414,97560,97707,97853,98000,98146,98292,98439,98585,98731,98878,99024,99170,99463,99609,99902,100048,100341,100487,100634,100780,101073,101219,101365,101512,101804,101951,102390,102682,102829,102975,103121,103268,103414,103560,103707,103853,104000,104146,104292,104439,104731,105024,105097,105170,105243,105317,105463,105609,105756,105902,106048,106195,106341,106487,106634,106780,107073,107365,107439,107512,107585,107658,107804,107951,108097,108243,108317,108390,108536,108682,108829,109121,109414,109707,109780,109853,109926,110000,110146,110292,110439,110585,110731,110878,111024,111170,111317,111463,111756,112048,112121,112195,112268,112341,112487,112634,112780,112926,113073,113219,113365,113512,113658,113804,114097,114390,114463,114536,114609,114682,114829,114975,115121,115268,115414,115560,115707,115853,116000,116146,116439,116731,116804,116878,116951,117024,117170,117317,117463,117609,117756,117902,118048,118195,118341,118487,118780,119073,119146,119219,119292,119365,119512,119658,119804,119951,120097,120243,120390,120536,120682,120829,121121,121414,121487,121560,121634,121707,121780,121853,121926,122000,122073,122146,122219,122292,122439,122585,122878,123170,123317,123463,123756,123902,124048,124195,124487,124634,124780,124926,125219,125512,125658,125804,126097,126170,126243,126317,126390,126536,126682,126829,126975,127121,127268,127414,127560,127853,128000,128146,128439,128585,128731,128878,129024,129170,129317,129463,129609,129902,130048,130195,130341,130487,130780,130926,131073,131219,131365,131512,131658,131951,132243,132536,132682,132829,133121,133268,133414,133560,133707,133853,134000,134292,134585,134731,134878,135024,135170,135463,135536,135609,135682,135756,135902,136048,136195,136341,148926,149073,149219,149512,149585,149658,149731,149804,149951,150097,150243,150390,150536,150682,150829,150975,151121,151268,151560,151853,151926,152000,152073,152146,152292,152439,152585,152731,152878,153024,153170,153317,153463,153609,153902,154195,154268,154341,154414,154487,154634,154780,154926,155073,155365,155439,155512,155585,155658,155804,155878,155951,156024,156097,156243,156317,156390,156463,156536,156682,156829,156975,157121,157414,157707,157780,157853,157926,158000,158146,158219,158292,158365,158439,158585,158658,158731,158804,158878,159024,159170,159317,159463,159609,159756,159902,160048,160341,160487,160634,160707,160780,160853,160926,161073,161219,161365,161512,161658,161804,161951,162024,162097,162243,162317,162390,162536,162682,162829,162975,163048,163121,163195,163268,163414,163560,163707
DistanceSpacing: 1.3
BeatDivisor: 4
GridSize: 8
TimelineZoom: 1

[Metadata]
Title:It Has To Be This Way (Platinum Mix)
TitleUnicode:It Has To Be This Way (Platinum Mix)
Artist:Jimmy Gnecco
ArtistUnicode:Jimmy Gnecco
Creator:Masterblue48
Version:Extra
Source:Metal Gear Rising - Revengeance (Vocal Tracks)
Tags:Metal Gear Rising Revengeance It has to be this way Masterblue48 Soundtrack
BeatmapID:241458
BeatmapSetID:88637

[Difficulty]
HPDrainRate:6
CircleSize:4
OverallDifficulty:8
ApproachRate:9
SliderMultiplier:1.6
SliderTickRate:2

[Events]
//Background and Video events
0,0,"Untitled.jpg",0,0
//Break Periods
//Storyboard Layer 0 (Background)
//Storyboard Layer 1 (Fail)
//Storyboard Layer 2 (Pass)
//Storyboard Layer 3 (Foreground)
//Storyboard Sound Samples

[TimingPoints]
19561,292.682926829268,4,1,1,50,1,0
24243,-100,4,1,1,50,0,0
52341,-80,4,1,1,50,0,1
70780,-80,4,1,1,50,0,0
131951,-66.6666666666667,4,1,1,50,0,1
150536,-80,4,1,1,50,0,0
163707,-80,4,1,1,60,0,0

[Colours]
Combo1 : 255,198,0
Combo2 : 244,147,0
Combo3 : 255,115,21

[HitObjects]
88,80,19561,5,2,0:3:0:0:
216,192,19853,1,2,0:3:0:0:
88,304,20146,1,6,0:3:0:0:
152,136,20439,1,2,0:3:0:0:
424,80,20731,5,2,0:3:0:0:
296,192,21023,1,2,0:3:0:0:
424,304,21316,1,6,0:3:0:0:
360,136,21609,1,2,0:3:0:0:
216,64,21902,5,2,0:3:0:0:
116,192,22195,1,2,0:3:0:0:
216,320,22487,1,6,0:3:0:0:
200,160,22780,1,2,0:3:0:0:
296,64,23073,5,2,0:3:0:0:
396,192,23366,1,2,0:3:0:0:
296,320,23658,1,6,0:3:0:0:
312,160,23951,1,2,0:3:0:0:
168,304,24243,5,4,0:1:0:0:
136,303,24316,1,0,0:0:0:0:
108,303,24389,1,0,0:0:0:0:
120,277,24462,1,0,0:0:0:0:
134,252,24535,1,0,0:0:0:0:
185,159,24682,1,4,0:3:0:0:
199,134,24755,1,0,0:0:0:0:
210,108,24828,1,0,0:0:0:0:
181,108,24901,1,0,0:0:0:0:
151,109,24974,1,0,0:0:0:0:
75,109,25121,5,4,0:3:0:0:
45,110,25194,1,0,0:0:0:0:
17,110,25267,1,0,0:0:0:0:
29,83,25340,1,0,0:0:0:0:
43,60,25413,1,0,0:0:0:0:
136,16,25561,5,4,0:3:0:0:
240,32,25707,1,4,0:3:0:0:
288,128,25853,1,4,0:3:0:0:
392,128,26000,1,4,0:2:0:0:
320,320,26292,1,4,0:2:0:0:
112,248,26585,5,4,0:1:0:0:
106,219,26658,1,0,0:0:0:0:
101,191,26731,1,0,0:0:0:0:
128,198,26804,1,0,0:0:0:0:
156,206,26877,1,0,0:0:0:0:
256,240,27024,1,4,0:3:0:0:
284,248,27097,1,0,0:0:0:0:
311,255,27170,1,0,0:0:0:0:
306,226,27243,1,0,0:0:0:0:
300,197,27316,1,0,0:0:0:0:
284,122,27463,5,4,0:3:0:0:
278,93,27536,1,0,0:0:0:0:
273,65,27609,1,0,0:0:0:0:
300,72,27682,1,0,0:0:0:0:
328,80,27755,1,0,0:0:0:0:
432,112,27902,1,4,0:3:0:0:
352,176,28048,1,4,0:3:0:0:
352,280,28195,1,4,0:3:0:0:
264,224,28341,1,4,0:2:0:0:
88,344,28634,1,4,0:2:0:0:
144,144,28926,6,0,L|118:112,3,40,4|0|0|0,0:1|0:0|0:0|0:0,0:0:0:0:
106,100,29219,1,0,0:0:0:0:
248,183,29365,2,0,L|287:176,3,40,4|0|0|0,0:3|0:0|0:0|0:0,0:0:0:0:
305,172,29658,1,0,0:0:0:0:
150,250,29804,2,0,L|131:285,3,40,4|0|0|0,0:3|0:0|0:0|0:0,0:0:0:0:
125,302,30097,1,0,0:0:0:0:
48,200,30243,1,4,0:3:0:0:
152,200,30390,1,4,0:3:0:0:
120,104,30536,1,4,0:3:0:0:
224,104,30682,1,4,0:2:0:0:
352,264,30975,1,4,0:2:0:0:
440,72,31268,5,4,0:1:0:0:
439,98,31341,1,0,0:0:0:0:
436,124,31414,1,0,0:0:0:0:
429,148,31487,1,0,0:0:0:0:
420,172,31560,1,0,0:0:0:0:
344,256,31707,2,0,L|357:328,1,40,4|0,0:3|0:0,0:0:0:0:
318,258,31853,2,0,L|314:311,1,40,0|0,0:0|0:0,0:0:0:0:
290,252,32000,1,0,0:0:0:0:
248,160,32146,5,4,0:3:0:0:
248,132,32219,1,0,0:0:0:0:
249,106,32292,1,0,0:0:0:0:
252,82,32365,1,0,0:0:0:0:
259,58,32438,1,0,0:0:0:0:
160,32,32585,5,4,0:3:0:0:
56,56,32731,1,4,0:3:0:0:
144,112,32878,1,4,0:2:0:0:
40,136,33024,1,4,0:2:0:0:
248,160,33317,1,0,0:0:0:0:
248,368,33609,5,4,0:1:0:0:
352,344,33756,1,0,0:0:0:0:
448,296,33902,1,0,0:0:0:0:
464,192,34048,1,0,0:0:0:0:
400,112,34195,1,4,0:3:0:0:
379,92,34268,1,0,0:0:0:0:
353,80,34341,1,0,0:0:0:0:
325,75,34414,1,0,0:0:0:0:
297,78,34487,1,4,0:0:0:0:
376,272,34780,5,4,0:1:0:0:
272,248,34926,1,0,0:0:0:0:
176,216,35073,2,0,L|208:176,1,40,4|0,0:3|0:0,0:0:0:0:
152,208,35219,2,0,L|184:152,1,40,0|0,0:0|0:0,0:0:0:0:
128,200,35365,1,4,0:0:0:0:
256,360,35658,1,2,0:3:0:0:
376,176,35951,5,0,0:1:0:0:
280,136,36097,1,0,0:0:0:0:
240,232,36243,1,0,0:0:0:0:
144,192,36390,1,0,0:0:0:0:
128,296,36536,1,4,0:3:0:0:
127,332,36609,1,0,0:0:0:0:
93,344,36682,1,0,0:0:0:0:
70,313,36756,1,0,0:0:0:0:
93,284,36829,1,4,0:0:0:0:
56,40,37121,5,0,0:1:0:0:
128,112,37268,1,0,0:0:0:0:
208,40,37414,1,4,0:3:0:0:
240,48,37487,1,0,0:0:0:0:
239,82,37561,1,0,0:0:0:0:
208,92,37634,1,0,0:0:0:0:
190,66,37707,1,4,0:0:0:0:
216,272,38000,1,2,0:3:0:0:
384,136,38292,6,0,P|416:184|400:216,1,80,4|0,0:3|0:0,0:1:0:0:
312,232,38585,2,0,P|280:184|296:152,1,80,0|0,0:0|0:0,0:0:0:0:
368,232,38878,2,0,L|344:176,3,40,4|0|0|0,0:3|0:0|0:0|0:0,0:0:0:0:
328,144,39170,1,4,0:0:0:0:
136,72,39463,5,4,0:1:0:0:
104,168,39609,1,0,0:0:0:0:
96,272,39756,1,4,0:3:0:0:
128,288,39829,1,0,0:0:0:0:
160,280,39902,1,0,0:0:0:0:
184,256,39975,1,0,0:0:0:0:
200,224,40048,1,4,0:0:0:0:
336,64,40341,1,2,0:3:0:0:
432,336,40634,6,0,P|432:272|416:240,1,80,4|0,0:1|0:0,0:0:0:0:
328,280,40926,2,0,P|320:224|344:184,1,80,0|0,0:0|0:0,0:0:0:0:
384,112,41219,1,4,0:3:0:0:
361,91,41292,1,0,0:0:0:0:
334,78,41365,1,0,0:0:0:0:
304,74,41438,1,0,0:0:0:0:
274,79,41511,1,4,0:0:0:0:
72,120,41804,5,4,0:1:0:0:
152,184,41951,1,0,0:0:0:0:
72,248,42097,2,0,L|32:208,3,40,4|0|0|0,0:3|0:0|0:0|0:0,0:0:0:0:
88,264,42390,1,2,0:3:0:0:
200,48,42682,1,2,0:3:0:0:
256,248,42975,5,4,0:1:0:0:
280,352,43121,1,0,0:0:0:0:
352,280,43268,1,0,0:0:0:0:
424,208,43414,1,0,0:0:0:0:
392,112,43560,1,4,0:3:0:0:
373,127,43633,1,0,0:0:0:0:
349,129,43706,1,0,0:0:0:0:
328,117,43779,1,0,0:0:0:0:
318,95,43852,1,4,0:0:0:0:
144,56,44146,5,4,0:1:0:0:
96,144,44292,1,0,0:0:0:0:
192,176,44439,1,4,0:0:0:0:
214,196,44512,1,0,0:0:0:0:
230,221,44585,1,0,0:0:0:0:
237,250,44658,1,0,0:0:0:0:
234,281,44731,1,4,0:3:0:0:
352,104,45024,1,2,0:3:0:0:
328,312,45317,5,4,0:1:0:0:
432,336,45463,1,0,0:0:0:0:
328,312,45610,1,0,0:0:0:0:
219,335,45756,1,0,0:0:0:0:
128,280,45902,1,4,0:3:0:0:
151,262,45975,1,0,0:0:0:0:
172,242,46048,1,0,0:0:0:0:
189,218,46121,1,0,0:0:0:0:
202,191,46194,1,4,0:0:0:0:
315,32,46488,5,4,0:1:0:0:
410,62,46634,1,0,0:0:0:0:
368,160,46780,1,4,0:3:0:0:
363,188,46853,1,0,0:0:0:0:
366,217,46926,1,0,0:0:0:0:
376,243,46999,1,0,0:0:0:0:
394,265,47072,1,4,0:0:0:0:
202,191,47365,1,2,0:3:0:0:
72,56,47658,5,4,0:1:0:0:
176,72,47804,2,0,P|224:88|240:128,1,80,0|0,0:0|0:0,0:0:0:0:
264,216,48097,1,0,0:0:0:0:
296,312,48243,1,4,0:3:0:0:
323,323,48316,1,0,0:0:0:0:
352,319,48389,1,0,0:0:0:0:
376,304,48462,1,0,0:0:0:0:
386,272,48535,1,4,0:0:0:0:
432,64,48829,5,4,0:1:0:0:
352,136,48975,1,0,0:0:0:0:
280,64,49121,1,4,0:3:0:0:
252,50,49194,1,0,0:0:0:0:
221,45,49267,1,0,0:0:0:0:
191,50,49340,1,0,0:0:0:0:
163,64,49413,1,4,0:0:0:0:
368,48,49707,5,6,0:3:0:0:
464,352,50000,1,6,0:3:0:0:
160,272,50439,1,6,0:3:0:0:
408,80,50878,1,6,0:3:0:0:
96,40,51317,1,6,0:3:0:0:
376,176,51756,1,6,0:3:0:0:
224,320,52048,1,6,0:3:0:0:
389,92,52341,6,0,P|282:65|196:85,1,200,4|8,0:1|0:1,0:0:0:0:
196,265,52780,2,0,P|315:291|389:271,1,200,4|4,0:3|0:3,0:0:0:0:
295,118,53219,2,0,P|249:165|122:145,1,200,8|4,0:2|0:3,0:0:0:0:
232,80,53658,1,4,0:3:0:0:
352,152,53804,2,0,P|416:192|424:216,1,100,8|0,0:1|0:3,0:0:0:0:
362,311,54097,2,0,P|289:285|275:265,1,100,4|0,0:3|0:0,0:0:0:0:
222,152,54390,2,0,P|211:136|136:112,1,100,8|4,0:2|0:3,0:0:0:0:
80,224,54682,6,0,P|174:284|267:297,1,200,4|8,0:3|0:1,0:0:0:0:
432,248,55121,2,0,P|352:176|264:144,1,200,4|4,0:3|0:3,0:0:0:0:
82,118,55560,2,0,B|122:172|162:178|162:178|209:192|222:251,1,200,8|0,0:2|0:0,0:0:0:0:
232,275,55926,1,4,0:3:0:0:
248,304,55999,1,0,0:0:0:0:
277,318,56072,1,0,0:0:0:0:
311,313,56145,1,8,0:1:0:0:
409,258,56292,1,4,0:3:0:0:
335,172,56439,2,0,P|309:118|315:78,1,100,8|0,0:1|0:3,0:0:0:0:
440,56,56732,2,0,P|467:109|460:149,1,100,8|0,0:2|0:3,0:0:0:0:
335,172,57024,6,0,P|243:137|151:171,1,200,4|8,0:1|0:1,0:0:0:0:
168,320,57463,2,0,P|276:353|360:312,1,200,4|8,0:1|0:1,0:0:0:0:
432,224,57902,2,0,P|418:124|332:77,1,200,8|4,0:2|0:3,0:0:0:0:
156,92,58341,2,0,P|109:125|120:184,1,100,4|8,0:3|0:1,0:0:0:0:
236,178,58634,2,0,P|229:245|209:271,1,100,4|0,0:3|0:0,0:0:0:0:
80,296,58926,2,0,P|107:229|96:176,1,100,4|8,0:3|0:2,0:0:0:0:
80,72,59219,1,0,0:0:0:0:
208,80,59365,6,0,P|321:113|388:166,1,200,4|8,0:3|0:1,0:0:0:0:
302,311,59804,2,0,P|189:278|122:225,1,200,4|0,0:3|0:0,0:0:0:0:
208,80,60243,2,0,P|288:153|327:243,1,200,8|0,0:2|0:0,0:0:0:0:
330,270,60609,1,4,0:3:0:0:
310,298,60682,1,0,0:0:0:0:
275,304,60755,1,0,0:0:0:0:
245,283,60829,1,8,0:1:0:0:
157,192,60975,1,4,0:3:0:0:
224,80,61121,2,0,P|268:40|312:32,1,100,8|0,0:1|0:0,0:0:0:0:
240,144,61414,2,0,P|195:183|152:192,1,100,8|0,0:2|0:0,0:0:0:0:
64,288,61707,6,0,P|177:321|264:312,1,200,4|8,0:1|0:1,0:0:0:0:
415,225,62146,2,0,P|422:125|349:72,1,200,4|4,0:3|0:3,0:0:0:0:
176,52,62585,2,0,B|176:128|208:176|208:176|176:208|176:245,1,200,8|4,0:2|0:3,0:0:0:0:
275,325,63024,2,0,P|322:285|335:238,1,100,4|8,0:3|0:1,0:0:0:0:
344,120,63317,2,0,B|351:87|378:54|418:67,1,100,4|0,0:3|0:0,0:0:0:0:
415,195,63609,2,0,P|369:237|305:253,1,100,4|8,0:3|0:2,0:0:0:0:
208,280,63902,1,0,0:0:0:0:
88,272,64048,6,0,P|81:165|104:71,1,200,4|8,0:3|0:1,0:0:0:0:
282,125,64487,2,0,P|289:231|264:320,1,200,4|4,0:3|0:3,0:0:0:0:
159,211,64926,2,0,P|178:108|234:31,1,200,8|0,0:2|0:0,0:0:0:0:
259,21,65292,1,4,0:3:0:0:
289,10,65365,1,0,0:0:0:0:
318,14,65438,1,0,0:0:0:0:
345,31,65512,1,8,0:1:0:0:
432,128,65658,1,4,0:3:0:0:
280,248,65804,2,0,P|303:216|358:193,1,100,8|0,0:1|0:0,0:0:0:0:
477,246,66097,2,0,P|459:280|405:304,1,100,8|0,0:2|0:0,0:0:0:0:
296,336,66390,6,0,P|356:256|390:157,1,200,4|8,0:1|0:1,0:0:0:0:
304,8,66829,2,0,P|182:48|155:138,1,200,4|4,0:3|0:3,0:0:0:0:
320,112,67268,2,0,P|287:232|223:273,1,200,8|0,0:2|0:3,0:0:0:0:
112,296,67707,1,4,0:3:0:0:
122,185,67853,2,0,P|156:118|182:105,1,100,8|0,0:1|0:0,0:0:0:0:
295,145,68146,2,0,P|269:211|236:231,1,100,4|0,0:3|0:0,0:0:0:0:
169,125,68439,2,0,P|208:93|264:84,1,100,8|0,0:2|0:0,0:0:0:0:
247,226,68731,6,0,P|300:319|390:360,1,200,4|8,0:3|0:1,0:0:0:0:
480,240,69170,2,0,B|426:214|400:174|400:174|373:127|326:97,1,200,4|4,0:3|0:3,0:0:0:0:
145,114,69609,2,0,P|112:215|145:300,1,200,8|0,0:2|0:0,0:0:0:0:
163,315,69975,1,4,0:3:0:0:
185,325,70048,1,0,0:0:0:0:
209,326,70121,1,0,0:0:0:0:
233,320,70194,1,8,0:1:0:0:
335,246,70341,2,0,P|357:230|429:223,1,100,4|8,0:3|0:1,0:0:0:0:
511,326,70634,2,0,P|490:341|418:348,1,100,4|8,0:3|0:2,0:0:0:0:
265,137,71073,6,0,P|192:48|72:64,1,200,4|8,0:1|0:1,0:0:0:0:
144,168,71512,1,0,0:0:0:0:
40,240,71658,2,0,P|64:344|88:368,2,100,4|0|8,0:3|0:0|0:2,0:0:0:0:
192,182,72097,1,0,0:0:0:0:
312,240,72243,2,0,P|359:283|375:320,2,100,4|0|8,0:3|0:0|0:1,0:0:0:0:
192,184,72682,1,0,0:0:0:0:
80,112,72829,2,0,P|33:69|17:32,2,100,4|0|8,0:3|0:0|0:2,0:0:0:0:
192,184,73268,1,0,0:0:0:0:
312,240,73414,5,4,0:3:0:0:
472,32,73707,2,0,P|400:32|368:56,1,100,8|4,0:1|0:3,0:0:0:0:
168,200,74146,1,0,0:0:0:0:
208,72,74292,1,8,0:2:0:0:
392,256,74585,5,4,0:3:0:0:
390,232,74658,1,0,0:0:0:0:
381,208,74731,1,0,0:0:0:0:
367,188,74804,1,0,0:0:0:0:
348,171,74877,1,8,0:1:0:0:
232,112,75024,1,0,0:0:0:0:
40,288,75317,2,0,P|80:328|128:344,1,100,4|8,0:3|0:2,0:0:0:0:
248,344,75609,1,0,0:0:0:0:
184,232,75756,1,4,0:1:0:0:
416,352,76048,2,0,P|480:344|504:280,1,100,8|4,0:1|0:3,0:0:0:0:
448,64,76487,5,0,0:0:0:0:
316,37,76634,2,0,P|251:30|203:34,1,100,8|0,0:2|0:0,0:0:0:0:
96,48,76926,2,0,P|72:96|96:144,1,100,4|0,0:3|0:0,0:0:0:0:
160,248,77219,2,0,P|152:312|112:336,1,100,8|4,0:1|0:3,0:0:0:0:
312,152,77658,1,0,0:0:0:0:
288,280,77804,1,8,0:2:0:0:
208,176,77951,1,0,0:0:0:0:
96,120,78097,5,4,0:3:0:0:
83,141,78170,1,0,0:0:0:0:
77,165,78243,1,0,0:0:0:0:
76,190,78316,1,0,0:0:0:0:
81,215,78389,1,8,0:1:0:0:
92,237,78462,1,0,0:2:0:0:
104,256,78536,2,0,P|184:304|304:312,1,200,4|0,0:3|0:0,0:0:0:0:
416,288,78975,6,0,P|464:248|480:208,1,100,8|4,0:2|0:3,0:0:0:0:
376,136,79268,2,0,P|328:176|312:216,1,100,4|0,0:3|0:0,0:3:0:0:
463,251,79560,2,0,P|469:189|452:149,1,100,8|4,0:2|0:3,0:0:0:0:
328,172,79853,2,0,P|322:234|339:274,1,100,4|0,0:3|0:0,0:3:0:0:
472,191,80146,2,0,P|432:144|392:127,1,100,8|4,0:2|0:3,0:0:0:0:
320,24,80439,5,4,0:1:0:0:
0,248,80878,1,4,0:3:0:0:
368,128,81317,1,4,0:3:0:0:
64,320,81756,1,4,0:3:0:0:
456,352,82195,5,6,0:3:0:0:
448,224,82341,1,2,0:3:0:0:
392,112,82487,1,6,0:3:0:0:
272,64,82634,1,2,0:3:0:0:
336,176,82780,5,4,0:3:0:0:
64,320,83219,1,4,0:3:0:0:
384,272,83658,1,4,0:3:0:0:
40,240,84097,1,4,0:3:0:0:
296,176,84390,6,4,L|264:232,1,50,0|0,0:1|0:0,0:3:0:0:
288,280,84536,2,4,L|312:236,1,50,0|0,0:0|0:0,0:0:0:0:
376,216,84682,2,4,L|344:272,1,50,0|0,0:0|0:0,0:0:0:0:
368,320,84828,2,4,L|392:276,1,50,0|0,0:0|0:0,0:0:0:0:
456,256,84975,2,4,L|424:312,1,50,0|0,0:0|0:0,0:0:0:0:
472,352,85121,5,4,0:1:0:0:
464,104,85414,2,0,P|400:80|368:88,1,100,8|0,0:0|0:0,0:0:0:0:
248,136,85707,2,0,P|200:160|152:160,1,100,0|4,0:0|0:0,0:0:0:0:
24,136,86000,1,10,0:2:0:0:
120,376,86292,2,0,P|176:360|208:328,1,100,4|0,0:3|0:0,0:0:0:0:
280,224,86585,2,0,P|296:176|272:128,1,100,8|0,0:0|0:0,0:0:0:0:
200,64,86877,2,0,P|160:48|112:104,1,100,4|0,0:0|0:0,0:0:0:0:
96,200,87170,1,10,0:2:0:0:
144,288,87317,1,10,0:2:0:0:
240,344,87463,6,0,P|392:288|408:240,1,200,12|2,0:3|0:3,0:0:0:0:
416,136,87902,2,0,P|368:56|256:40,1,200,12|2,0:3|0:3,0:0:0:0:
152,88,88341,2,0,P|94:239|120:283,1,200,12|2,0:3|0:3,0:0:0:0:
216,200,88780,1,0,0:0:0:0:
152,312,88926,2,0,P|208:344|264:336,1,100,8|0,0:0|0:0,0:0:0:0:
368,304,89219,2,0,P|408:264|408:208,1,100,4|0,0:3|0:0,0:0:0:0:
368,104,89512,1,10,0:2:0:0:
240,88,89658,1,10,0:2:0:0:
120,32,89804,6,0,L|96:152,1,100,4|2,0:1|0:3,0:0:0:0:
72,256,90097,1,8,0:2:0:0:
192,152,90243,2,0,L|280:216,1,100,4|2,0:3|0:3,0:0:0:0:
360,272,90536,1,8,0:2:0:0:
240,328,90682,2,0,L|355:342,1,100,4|2,0:3|0:3,0:0:0:0:
446,352,90975,1,8,0:2:0:0:
480,256,91121,2,0,L|408:168,1,100,4|2,0:3|0:3,0:0:0:0:
344,96,91414,1,8,0:2:0:0:
448,72,91560,2,0,L|352:16,1,100,4|2,0:3|0:3,0:0:0:0:
232,24,91853,2,0,L|161:94,1,100,4|2,0:2|0:3,0:0:0:0:
448,144,92146,5,4,0:1:0:0:
168,360,92585,1,0,0:0:0:0:
384,32,93024,1,0,0:0:0:0:
128,24,93316,2,0,L|176:128,1,100,6|2,0:3|0:3,0:0:0:0:
296,96,93609,2,0,L|248:200,1,100,6|2,0:3|0:3,0:0:0:0:
120,184,93902,2,0,L|168:288,1,100,6|2,0:3|0:3,0:0:0:0:
288,256,94195,2,0,L|240:360,1,100,6|2,0:3|0:3,0:0:0:0:
120,352,94487,1,4,0:1:0:0:
96,104,94780,6,0,B|128:64|128:64|160:104,1,100,12|0,0:0|0:0,0:0:0:0:
272,168,95073,2,0,B|240:208|240:208|208:168,1,100,4|0,0:3|0:0,0:0:0:0:
320,104,95365,2,0,B|352:64|352:64|384:104,1,100,8|0,0:0|0:0,0:0:0:0:
496,168,95658,2,0,B|464:208|464:208|432:168,1,100,4|0,0:3|0:0,0:0:0:0:
416,296,95951,2,0,P|352:288|328:248,1,100,8|0,0:0|0:0,0:0:0:0:
208,304,96243,2,0,P|256:256|272:224,1,100,4|0,0:3|0:0,0:0:0:0:
304,104,96536,1,8,0:2:0:0:
176,128,96682,1,8,0:2:0:0:
45,101,96829,6,0,L|111:190,1,100,4|0,0:3|0:0,0:0:0:0:
299,239,97121,2,0,L|382:173,1,100,8|0,0:0|0:0,0:0:0:0:
129,263,97414,2,0,L|26:343,1,100,4|0,0:3|0:0,0:0:0:0:
176,104,97707,2,0,L|116:8,1,100,8|0,0:0|0:0,0:0:0:0:
199,233,98000,2,0,L|259:329,1,100,4|0,0:3|0:0,0:0:0:0:
408,328,98292,1,8,0:0:0:0:
464,208,98438,1,0,0:0:0:0:
440,80,98585,2,0,P|424:56|336:32,1,100,4|0,0:3|0:0,0:0:0:0:
232,40,98878,1,8,0:2:0:0:
160,152,99024,1,8,0:2:0:0:
48,224,99170,6,0,P|87:278|112:298,1,100,4|2,0:3|0:3,0:0:0:0:
232,352,99463,1,8,0:0:0:0:
360,336,99609,2,0,P|416:304|441:261,1,100,4|2,0:3|0:3,0:0:0:0:
480,152,99902,1,8,0:0:0:0:
464,24,100048,2,0,P|400:48|360:48,1,100,4|2,0:3|0:3,0:0:0:0:
232,40,100341,5,8,0:0:0:0:
288,160,100487,2,4,P|320:208|368:256,1,100,0|2,0:0|0:3,0:3:0:0:
448,320,100780,1,8,0:0:0:0:
320,328,100926,2,0,L|192:328,1,100,4|2,0:3|0:3,0:0:0:0:
424,248,101219,2,0,L|408:136,1,100,4|2,0:3|0:3,0:0:0:0:
392,40,101512,6,4,L|328:136,1,100,4|0,0:1|0:0,0:0:0:0:
264,232,101804,1,0,0:0:0:0:
208,112,101951,2,0,L|144:208,1,100,4|0,0:3|0:0,0:0:0:0:
80,304,102243,1,0,0:0:0:0:
80,176,102390,1,4,0:3:0:0:
144,64,102536,1,0,0:0:0:0:
272,32,102682,6,0,L|320:136,1,100,4|2,2:3|0:2,0:0:0:0:
184,128,102975,2,0,L|136:232,1,100,4|2,2:3|0:2,0:0:0:0:
280,192,103268,2,0,L|328:296,1,100,4|2,2:3|0:2,0:0:0:0:
192,288,103561,2,0,L|144:392,1,100,4|2,2:3|0:2,0:0:0:0:
40,312,103853,5,12,0:0:0:0:
112,208,104000,2,0,L|80:96,2,100,4|0|0,0:0|0:0|0:0,0:0:0:0:
200,112,104439,1,8,0:2:0:0:
376,72,104731,1,4,0:3:0:0:
472,312,105024,5,0,0:0:0:0:
442,327,105097,1,0,0:0:0:0:
411,337,105170,1,0,0:0:0:0:
379,343,105243,1,0,0:0:0:0:
346,344,105317,2,0,P|288:344|240:336,2,100,0|0|8,0:0|0:0|0:2,0:0:0:0:
276,233,105756,5,0,0:0:0:0:
400,224,105903,2,0,L|432:128,1,100,4|0,0:3|0:3,0:0:0:0:
256,64,106195,2,0,L|352:96,1,100,0|0,0:0|0:0,0:0:0:0:
202,239,106488,2,0,L|92:299,1,100,0|0,0:0|0:0,0:0:0:0:
319,172,106780,2,0,P|419:150|522:99,2,200,8|4|0,0:2|0:3|0:0,0:0:0:0:
341,152,107438,1,0,0:0:0:0:
356,123,107511,1,0,0:0:0:0:
361,91,107584,1,0,0:0:0:0:
360,64,107658,2,0,P|304:48|248:56,2,100,0|0|8,0:0|0:0|0:2,0:0:0:0:
480,104,108097,5,0,0:0:0:0:
280,120,108243,2,0,L|168:136,1,100,4|0,0:3|0:0,0:0:0:0:
312,280,108536,2,0,L|328:392,1,100,0|0,0:0|0:0,0:0:0:0:
184,232,108829,2,0,L|72:248,1,100,0|0,0:0|0:0,0:0:0:0:
288,192,109121,6,0,P|211:147|129:23,2,200,8|4|0,0:2|0:3|0:0,0:0:0:0:
310,208,109780,1,0,0:0:0:0:
344,208,109853,1,0,0:0:0:0:
368,192,109926,1,0,0:0:0:0:
384,168,110000,2,0,L|432:72,2,100,0|0|8,0:0|0:0|0:2,0:0:0:0:
288,328,110439,1,0,0:0:0:0:
152,200,110585,1,4,0:3:0:0:
16,328,110731,1,0,0:0:0:0:
200,272,110878,6,0,P|224:224|224:168,1,100,0|0,0:0|0:0,0:0:0:0:
112,24,111170,2,0,P|64:72|56:128,1,100,0|0,0:0|0:0,0:0:0:0:
232,176,111463,2,0,P|280:184|336:144,1,100,8|0,0:2|0:0,0:0:0:0:
400,96,111756,5,4,0:3:0:0:
296,72,111902,1,0,0:0:0:0:
200,112,112048,1,0,0:0:0:0:
168,119,112121,1,0,0:0:0:0:
136,116,112194,1,0,0:0:0:0:
106,105,112267,1,0,0:0:0:0:
80,88,112341,2,0,P|107:38|111:-7,2,100,0|0|8,0:0|0:0|0:2,0:0:0:0:
8,197,112780,5,0,0:0:0:0:
111,275,112926,2,0,P|173:302|202:298,1,100,4|0,0:3|0:3,0:0:0:0:
318,236,113219,2,0,P|258:202|217:203,1,100,4|0,0:1|0:0,0:0:0:0:
348,300,113511,2,0,P|389:332|482:333,1,100,0|0,0:0|0:0,0:0:0:0:
408,216,113804,2,0,P|336:160|200:120,2,200,8|4|0,0:2|0:3|0:0,0:0:0:0:
436,234,114463,1,0,0:0:0:0:
467,231,114536,1,0,0:0:0:0:
488,208,114609,1,0,0:0:0:0:
488,176,114682,2,0,P|464:128|464:80,2,100,0|0|8,0:0|0:0|0:2,0:0:0:0:
328,152,115121,5,0,0:0:0:0:
392,264,115268,1,4,0:3:0:0:
264,264,115414,1,0,0:0:0:0:
376,200,115560,1,0,0:0:0:0:
328,320,115707,1,0,0:0:0:0:
280,200,115853,1,0,0:0:0:0:
392,136,116000,1,0,0:0:0:0:
264,136,116146,2,0,P|136:128|56:152,2,200,8|4|0,0:2|0:3|0:0,0:0:0:0:
298,134,116804,5,0,0:0:0:0:
318,105,116877,1,0,0:0:0:0:
301,74,116950,1,0,0:0:0:0:
266,64,117024,2,0,P|186:64|154:56,2,100,0|0|8,0:0|0:0|0:2,0:0:0:0:
392,40,117463,2,0,P|456:40|488:64,1,100,0|4,0:0|0:3,0:0:0:0:
488,248,117756,2,0,P|460:267|396:267,1,100,0|4,0:0|0:1,0:0:0:0:
224,192,118048,5,4,0:1:0:0:
40,240,118195,2,0,L|88:336,1,100,0|0,0:0|0:0,0:0:0:0:
160,152,118487,2,0,L|16:0,2,200,8|4|0,0:2|0:3|0:0,0:0:0:0:
185,177,119146,1,0,0:0:0:0:
208,152,119219,1,0,0:0:0:0:
237,136,119292,1,0,0:0:0:0:
272,136,119365,2,0,P|312:176|368:200,2,100,0|0|8,0:0|0:0|0:2,0:0:0:0:
184,40,119804,2,0,P|128:0|88:0,1,100,0|4,0:0|0:3,0:0:0:0:
64,184,120097,6,0,L|48:312,1,100,0|0,0:0|0:0,0:0:0:0:
240,304,120390,2,0,L|352:256,1,100,0|0,0:0|0:0,0:0:0:0:
384,80,120682,1,0,0:0:0:0:
208,160,120829,2,0,P|104:104|32:40,2,200,8|4|0,0:2|0:3|0:0,0:0:0:0:
240,176,121487,6,0,L|288:200,3,50,0|0|2|0,0:3|0:3|0:3|0:3,0:3:0:0:
304,208,121780,1,0,0:3:0:0:
336,224,121853,1,0,0:3:0:0:
366,241,121926,1,0,0:3:0:0:
394,262,121999,1,0,0:3:0:0:
420,285,122072,1,0,0:3:0:0:
445,310,122145,1,0,0:3:0:0:
467,337,122219,1,0,0:3:0:0:
488,360,122292,2,0,L|384:360,2,100,8|8|12,0:0|0:0|0:1,0:0:0:0:
128,240,122878,5,8,0:2:0:0:
368,144,123170,2,0,P|440:112|464:88,2,100,4|0|8,0:3|0:0|0:0,0:0:0:0:
104,144,123756,2,0,P|32:112|8:88,2,100,4|0|8,0:3|0:0|0:2,0:0:0:0:
232,184,124195,2,0,P|328:224|424:304,1,200,0|4,0:0|0:3,0:0:0:0:
504,368,124634,1,8,0:2:0:0:
376,344,124780,1,0,0:0:0:0:
248,320,124926,6,0,P|126:308|14:320,2,200,4|8|4,0:3|0:2|0:3,0:0:0:0:
352,240,125658,1,0,0:0:0:0:
432,144,125804,2,0,P|336:88|272:32,1,150,8|0,0:2|0:3,0:0:0:0:
280,48,126097,1,4,0:3:0:0:
261,77,126170,1,0,0:2:0:0:
239,104,126243,1,0,0:0:0:0:
215,130,126316,1,0,0:0:0:0:
192,152,126390,2,0,P|160:112|112:72,2,100,8|0|4,0:2|0:0|0:3,0:0:0:0:
272,256,126829,2,0,P|312:320|320:360,1,100,10|10,0:2|0:2,0:0:0:0:
448,336,127121,5,4,0:1:0:0:
504,216,127268,2,0,P|464:152|456:112,1,100,4|0,0:1|0:0,0:0:0:0:
432,0,127560,2,0,P|352:112|352:188,1,200,8|4,0:2|0:3,0:0:0:0:
360,304,128000,1,0,0:0:0:0:
232,312,128146,2,0,P|104:272|64:176,1,200,8|4,0:2|0:3,0:0:0:0:
24,96,128585,1,0,0:0:0:0:
152,96,128731,2,0,P|184:56|240:32,1,100,8|0,0:2|0:0,0:0:0:0:
288,152,129024,2,0,P|312:224|312:256,1,100,4|0,0:3|0:0,0:0:0:0:
184,264,129317,2,0,P|151:304|95:328,1,100,8|0,0:2|0:0,0:0:0:0:
48,208,129610,6,0,P|24:136|24:104,1,100,4|0,0:3|0:0,0:0:0:0:
120,24,129902,1,8,0:2:0:0:
248,40,130048,2,0,L|368:56,1,100,0|4,0:0|0:3,0:0:0:0:
232,112,130341,1,0,0:0:0:0:
311,213,130487,2,0,L|384:309,1,100,8|4,0:2|0:3,0:0:0:0:
464,384,130780,2,0,L|464:272,5,100,4|4|8|4|4|10,0:3|0:3|0:2|0:3|0:3|0:2,0:0:0:0:
456,256,131658,2,0,P|360:304|272:320,1,150,10|0,0:2|0:0,0:0:0:0:
288,320,131951,6,0,P|232:240|104:168,2,240.000009155274,4|8|4,0:3|0:1|0:3,0:0:0:0:
144,264,132682,1,0,0:0:0:0:
0,200,132829,2,0,P|48:128|224:64,1,240.000009155274,10|4,0:2|0:3,0:0:0:0:
336,48,133268,1,0,0:3:0:0:
464,136,133414,2,0,P|432:208|432:264,1,120.000004577637,8|0,0:0|0:3,0:0:0:0:
272,248,133707,2,0,P|270:207|238:135,1,120.000004577637,4|0,0:3|0:0,0:0:0:0:
152,8,134000,2,0,P|80:72|64:120,1,120.000004577637,8|0,0:2|0:0,0:0:0:0:
184,192,134292,6,0,P|94:325|32:288,1,240.000009155274,4|8,0:3|0:1,0:0:0:0:
56,152,134731,1,0,0:0:0:0:
208,120,134878,2,0,P|312:96|352:64,1,120.000004577637,4|0,0:3|0:0,0:0:0:0:
464,0,135170,2,0,P|504:120|464:248,1,240.000009155274,8|4,0:2|0:3,0:0:0:0:
464,256,135536,1,0,0:0:0:0:
440,288,135609,1,0,0:1:0:0:
408,312,135682,1,0,0:0:0:0:
376,328,135756,2,0,P|288:352|240:352,1,120.000004577637,8|0,0:1|0:0,0:0:0:0:
104,328,136048,2,0,P|192:352|240:352,1,120.000004577637,4|0,0:3|0:0,0:0:0:0:
240,200,136341,6,0,L|240:72,1,120.000004577637,8|0,0:2|0:0,0:0:0:0:
88,128,136634,2,0,P|128:232|256:272,1,240.000009155274,4|8,0:3|0:1,0:0:0:0:
384,216,137073,1,0,0:0:0:0:
320,72,137219,2,0,P|256:48|176:56,1,120.000004577637,4|0,0:3|0:0,0:3:0:0:
304,168,137512,2,0,P|288:252|171:213,1,240.000009155274,10|4,0:2|0:3,0:0:0:0:
80,112,137951,1,0,0:0:0:0:
240,96,138097,2,0,P|256:32|296:0,1,120.000004577637,8|0,0:1|0:0,0:0:0:0:
392,120,138389,2,0,P|392:48|360:8,1,120.000004577637,4|0,0:3|0:0,0:0:0:0:
464,136,138682,2,0,P|448:224|400:264,1,120.000004577637,8|0,0:2|0:0,0:0:0:0:
304,336,138975,6,0,P|168:336|120:248,1,240.000009155274,4|8,0:3|0:1,0:0:0:0:
160,104,139414,1,0,0:0:0:0:
288,192,139560,2,0,P|152:192|64:128,1,240.000009155274,4|8,0:3|0:2,0:0:0:0:
40,288,140000,1,0,0:0:0:0:
192,320,140146,1,4,0:3:0:0:
224,296,140219,1,0,0:0:0:0:
256,280,140292,1,0,0:0:0:0:
288,264,140365,1,0,0:0:0:0:
320,256,140439,2,0,P|384:248|448:256,1,120.000004577637,8|0,0:1|0:0,0:0:0:0:
304,336,140731,6,0,P|384:328|432:336,1,120.000004577637,4|0,0:3|0:0,0:0:0:0:
448,176,141024,2,0,P|409:170|329:178,1,120.000004577637,8|0,0:2|0:0,0:0:0:0:
464,96,141317,2,0,P|288:104|216:136,1,240.000009155274,4|8,0:3|0:1,0:0:0:0:
88,200,141756,1,0,0:0:0:0:
40,352,141902,2,0,P|104:320|112:272,1,120.000004577637,4|0,0:3|0:0,0:0:0:0:
72,128,142195,2,0,B|64:56|104:24|104:24|160:64|224:72,1,240.000009155274,10|4,0:2|0:3,0:0:0:0:
376,72,142634,1,0,0:0:0:0:
360,224,142780,2,0,P|296:288|304:336,1,120.000004577637,8|0,0:1|0:0,0:0:0:0:
168,224,143073,2,0,P|232:288|224:336,1,120.000004577637,4|0,0:3|0:0,0:0:0:0:
296,168,143365,6,0,P|232:128|184:120,1,120.000004577637,8|0,0:2|0:0,0:0:0:0:
40,168,143658,2,0,P|40:288|160:344,1,240.000009155274,4|8,0:3|0:1,0:0:0:0:
288,344,144097,1,0,0:0:0:0:
440,312,144243,2,0,P|384:264|320:248,1,120.000004577637,4|0,0:3|0:0,0:0:0:0:
184,224,144536,2,0,P|104:176|192:56,1,240.000009155274,8|4,0:2|0:3,0:0:0:0:
184,56,144902,1,0,0:0:0:0:
224,64,144975,1,0,0:0:0:0:
256,80,145048,1,0,0:0:0:0:
288,96,145121,2,0,P|360:112|424:112,1,120.000004577637,8|0,0:1|0:0,0:0:0:0:
488,248,145414,2,0,P|408:224|352:280,1,120.000004577637,4|0,0:3|0:0,0:0:0:0:
248,160,145707,6,0,P|288:232|272:280,1,120.000004577637,8|0,0:2|0:0,0:0:0:0:
432,304,146000,2,0,P|336:360|200:336,1,240.000009155274,4|8,0:1|0:1,0:0:0:0:
80,256,146439,2,0,P|40:192|96:128,2,120.000004577637,0|4|0,0:0|0:3|0:0,0:0:0:0:
96,104,146878,2,0,P|160:56|328:40,1,240.000009155274,10|4,0:2|0:3,0:0:0:0:
464,96,147317,1,0,0:0:0:0:
440,232,147463,2,0,L|416:352,1,120.000004577637,8|0,0:0|0:3,0:0:0:0:
288,256,147756,2,0,L|192:352,1,120.000004577637,4|0,0:3|0:2,0:0:0:0:
80,248,148049,2,0,L|208:192,1,120.000004577637,8|0,0:2|0:3,0:0:0:0:
320,144,148341,1,4,0:3:0:0:
248,8,148487,5,0,0:0:0:0:
168,144,148634,1,8,0:1:0:0:
24,184,148780,2,0,P|-8:256|24:312,1,120.000004577637,0|4,0:0|0:3,0:0:0:0:
144,360,149073,2,0,P|224:360|272:344,2,120.000004577637
205,231,149512,1,4,0:3:0:0:
240,208,149585,1,0,0:0:0:0:
269,177,149658,1,0,0:0:0:0:
291,142,149731,1,0,0:0:0:0:
304,104,149804,2,0,P|352:144|416:160,2,120.000004577637,8|0|4,0:1|0:0|0:3,0:0:0:0:
184,0,150243,6,0,P|168:64|128:104,1,120.000004577637,8|8,0:0|0:2,0:0:0:0:
16,232,150536,1,0,0:0:0:0:
128,360,150682,1,4,0:1:0:0:
288,304,150829,2,0,P|344:336|416:336,2,100,0|8|0,0:0|0:1|0:0,0:0:0:0:
152,200,151268,6,0,P|256:112|288:40,2,200,6|8|0,0:3|0:2|0:0,0:0:0:0:
128,176,151926,1,0,0:0:0:0:
112,144,152000,1,0,0:0:0:0:
112,112,152073,1,0,0:0:0:0:
128,80,152146,2,0,P|144:32|112:0,1,100,8|0,0:0|0:0,0:0:0:0:
8,136,152439,2,0,P|16:192|40:240,1,100,6|0,0:3|0:0,0:0:0:0:
136,368,152731,2,0,P|208:336|232:304,1,100,8|0,0:2|0:0,0:0:0:0:
328,192,153024,5,0,0:0:0:0:
416,48,153170,2,0,P|472:16|520:8,2,100,8|0|0,0:0|0:0|0:0,0:0:0:0:
158,23,153609,2,0,P|262:55|309:137,2,200,6|8|0,0:3|0:2|0:0,0:0:0:0:
128,24,154268,1,0,0:0:0:0:
96,32,154341,1,0,0:0:0:0:
72,56,154414,1,0,0:0:0:0:
56,88,154487,6,0,P|56:144|88:192,2,100,8|0|6,0:0|0:0|0:3,0:0:0:0:
224,128,154926,2,0,P|240:176|192:248,1,100,0|8,0:0|0:2,0:0:0:0:
280,336,155219,1,0,0:1:0:0:
416,336,155365,5,4,0:1:0:0:
424,296,155439,1,0,0:0:0:0:
424,256,155512,1,0,0:0:0:0:
416,224,155585,1,0,0:0:0:0:
400,184,155658,2,0,P|336:208|296:200,1,100,8|0,0:2|0:3,0:0:0:0:
272,192,155878,1,4,0:3:0:0:
248,168,155951,1,0,0:0:0:0:
232,120,156024,1,0,0:0:0:0:
248,96,156097,6,0,P|320:112|360:88,1,100,8|0,0:2|0:0,0:0:0:0:
368,88,156317,1,4,0:3:0:0:
368,48,156390,1,0,0:0:0:0:
344,16,156463,1,0,0:0:0:0:
312,0,156536,2,0,P|248:16|200:8,1,100,8|0,0:2|0:0,0:0:0:0:
88,48,156829,2,0,P|120:104|120:160,1,100,4|0,0:3|0:0,0:0:0:0:
120,264,157121,2,0,P|40:368|-32:368,2,200,4|12|4,0:3|0:3|0:1,0:0:0:0:
120,232,157780,5,4,0:3:0:0:
128,200,157853,1,0,0:0:0:0:
144,168,157926,1,0,0:0:0:0:
168,136,158000,2,0,P|208:96|256:80,1,100,8|0,0:0|0:0,0:0:0:0:
280,80,158219,1,4,0:3:0:0:
312,88,158292,1,0,0:0:0:0:
344,112,158365,1,0,0:0:0:0:
368,136,158439,6,0,P|408:192|408:240,1,100,8|0,0:0|0:0,0:0:0:0:
408,256,158658,1,4,0:3:0:0:
400,288,158731,1,0,0:0:0:0:
368,312,158804,1,0,0:0:0:0:
336,320,158878,2,0,P|272:312|240:288,1,100,8|0,0:0|0:0,0:0:0:0:
120,328,159170,5,8,0:0:0:0:
56,152,159317,1,0,0:0:0:0:
240,208,159463,1,8,0:0:0:0:
176,32,159610,1,8,0:0:0:0:
352,96,159756,1,8,0:0:0:0:
168,136,159902,1,4,0:3:0:0:
88,240,160048,6,0,P|160:256|248:352,1,200,4|0,0:1|0:0,0:0:0:0:
352,272,160487,1,4,0:3:0:0:
488,248,160634,1,0,0:0:0:0:
456,216,160707,1,0,0:0:0:0:
432,184,160780,1,0,0:0:0:0:
424,152,160853,1,0,0:0:0:0:
424,120,160926,2,0,P|368:96|336:64,1,100,4|0,0:3|0:0,0:0:0:0:
208,72,161219,2,0,P|180:98|124:122,1,100,0|4,0:0|0:3,0:0:0:0:
120,256,161512,2,0,P|176:280|203:306,1,100
256,192,161804,5,0,0:0:0:0:
256,64,161951,2,0,L|256:8,2,50,0|0|0,0:2|0:0|0:0,0:0:0:0:
256,264,162243,2,0,L|256:328,2,50,0|0|4,0:2|0:0|0:1,0:0:0:0:
336,80,162536,1,0,0:0:0:0:
448,240,162682,2,0,P|472:184|448:136,1,100,0|4,0:0|0:3,0:0:0:0:
376,328,162975,5,0,0:0:0:0:
336,344,163048,1,0,0:0:0:0:
288,352,163121,1,0,0:0:0:0:
248,352,163195,1,0,0:0:0:0:
216,344,163268,2,0,P|160:312|128:272,1,100,4|0,0:3|0:0,0:0:0:0:
32,120,163560,1,0,0:0:0:0:
224,192,163707,1,4,0:1:0:0:
