osu file format v14

[General]
AudioFilename: It Has To Be This Way (Platinum Mix).mp3
AudioLeadIn: 0
PreviewTime: 52341
Countdown: 1
SampleSet: Normal
StackLeniency: 0.7
Mode: 0
LetterboxInBreaks: 1
WidescreenStoryboard: 0

[Editor]
DistanceSpacing: 1
BeatDivisor: 2
GridSize: 8
TimelineZoom: 1

[Metadata]
Title:It Has To Be This Way (Platinum Mix)
TitleUnicode:It Has To Be This Way (Platinum Mix)
Artist:Jimmy Gnecco
ArtistUnicode:Jimmy Gnecco
Creator:Masterblue48
Version:Easy
Source:Metal Gear Rising - Revengeance (Vocal Tracks)
Tags:Metal Gear Rising Revengeance It has to be this way Masterblue48 Soundtrack
BeatmapID:250099
BeatmapSetID:88637

[Difficulty]
HPDrainRate:3
CircleSize:3
OverallDifficulty:2
ApproachRate:2
SliderMultiplier:0.700000005960464
SliderTickRate:1

[Events]
//Background and Video events
0,0,"Untitled.jpg",0,0
//Break Periods
//Storyboard Layer 0 (Background)
//Storyboard Layer 1 (Fail)
//Storyboard Layer 2 (Pass)
//Storyboard Layer 3 (Foreground)
//Storyboard Sound Samples

[TimingPoints]
19561,292.682926829268,4,1,1,70,1,0
24243,-100,4,1,1,70,0,0
52341,-100,4,1,1,70,0,1
70780,-100,4,1,1,70,0,0
131951,-100,4,1,1,70,0,1
150536,-100,4,1,1,70,0,0

[Colours]
Combo1 : 255,198,0
Combo2 : 244,147,0
Combo3 : 255,115,21

[HitObjects]
256,192,19561,12,0,23073,0:2:0:0:
112,304,24243,6,0,P|304:320|392:272,1,280.000002384186,8|0,0:2|0:0,0:2:0:0:
488,200,26000,2,0,L|416:160,1,70.0000005960464
368,128,26585,6,0,P|296:104|176:248,1,280.000002384186,8|0,0:2|0:0,0:2:0:0:
192,368,28341,2,0,L|264:352,1,70.0000005960464
328,336,28926,6,0,P|424:240|456:104,1,280.000002384186,8|0,0:2|0:0,0:2:0:0:
312,104,30682,2,0,L|240:80,1,70.0000005960464
176,64,31268,6,0,B|112:80|64:64|64:64|64:232|64:232,1,280.000002384186
56,368,33024,2,0,L|104:296,1,70.0000005960464
136,256,33609,6,0,P|224:192|320:248,1,210.000001788139,8|0,0:2|0:0,0:2:0:0:
456,376,35365,1,4,0:2:0:0:
464,240,35951,6,0,P|416:109|336:64,1,210.000001788139,8|0,0:2|0:0,0:2:0:0:
160,0,37707,1,4,0:2:0:0:
32,64,38292,6,0,P|115:167|158:123,1,210.000001788139,8|0,0:2|0:0,0:2:0:0:
320,24,40048,1,4,0:2:0:0:
440,96,40634,6,0,P|424:224|352:288,1,210.000001788139,8|0,0:2|0:0,0:2:0:0:
176,360,42390,2,0,P|136:368|88:344,2,70.0000005960464,4|4|8,0:0|0:0|0:2,0:2:0:0:
376,288,43853,6,0,P|312:224|192:192,1,210.000001788139,0|4,0:2|0:0,0:2:0:0:
56,192,45317,1,8,0:1:0:0:
256,120,46195,6,0,P|368:56|432:-8,1,210.000001788139,0|4,0:2|0:0,0:2:0:0:
288,8,47658,1,8,0:1:0:0:
104,104,48536,2,0,P|96:224|168:288,1,210.000001788139,0|4,0:0|0:0,0:2:0:0:
288,336,50000,2,12,P|353:338|398:326,4,105.00000089407
232,208,52341,6,0,P|335:155|303:112,1,210.000001788139,4|0,0:2|0:0,2:2:0:0:
120,16,54097,1,8,0:2:0:0:
72,152,54682,2,0,P|80:256|176:312,1,210.000001788139,4|0,0:2|0:2,0:2:0:0:
368,352,56439,1,8,0:2:0:0:
472,256,57024,6,0,B|416:131|416:131|320:176,1,210.000001788139,4|0,0:2|0:0,2:2:0:0:
160,248,58780,1,8,0:2:0:0:
56,160,59365,2,0,B|168:80|168:80|256:96,1,210.000001788139
368,136,60829,1,0,0:0:0:0:
448,248,61414,1,0,0:0:0:0:
456,320,61707,6,0,P|344:280|232:272,1,210.000001788139,4|0,0:2|0:2,0:2:0:0:
48,296,63463,1,8,0:2:0:0:
168,232,64048,2,0,P|248:168|272:64,1,210.000001788139
480,40,65804,1,8,0:2:0:0:
480,184,66390,6,0,P|456:272|328:320,1,210.000001788139,4|0,0:2|0:2,0:2:0:0:
144,328,68146,1,8,0:2:0:0:
64,208,68731,2,0,P|144:120|168:32,1,210.000001788139,4|0,0:2|0:2,0:2:0:0:
200,192,71073,6,0,P|288:168|336:144,1,140.000001192093,4|8,0:2|0:2,0:2:0:0:
456,88,72243,2,0,P|471:134|482:224,1,140.000001192093,4|8,0:2|0:2,0:2:0:0:
472,368,73414,2,0,P|384:344|328:304,1,140.000001192093,4|8,0:2|0:2,0:2:0:0:
240,224,74585,5,4,0:2:0:0:
168,104,75170,1,0,0:0:0:0:
296,48,75756,2,0,P|376:48|424:232,1,280.000002384186
360,328,77512,1,0,0:0:0:0:
240,256,78097,2,0,P|197:126|312:48,1,280.000002384186
392,152,79853,1,0,0:0:0:0:
376,288,80439,6,4,P|351:226|306:192,1,105.00000089407,4|4,2:2|2:2,2:2:0:0:
240,256,81317,2,4,P|264:317|309:351,1,105.00000089407,4|4,2:2|2:2,2:2:0:0:
432,144,82780,6,4,P|392:96|352:72,1,105.00000089407,4|4,0:2|0:2,0:2:0:0:
256,48,83658,2,12,P|160:56|136:64,1,105.00000089407,4|4,0:2|0:2,0:2:0:0:
264,272,85121,6,0,P|208:228|124:204,1,140.000001192093,4|8,0:2|0:2,0:2:0:0:
8,192,86292,2,0,P|47:95|80:80,1,140.000001192093,4|8,0:2|0:2,0:2:0:0:
208,56,87463,2,0,P|384:128|464:336,1,420.000003576278,4|8,0:2|0:2,0:2:0:0:
328,296,89804,6,0,L|224:272,2,105.00000089407,0|0|0,0:2|0:2|0:2,0:0:0:0:
376,200,91121,2,0,L|272:176,1,105.00000089407,0|12,0:2|0:2,0:2:0:0:
136,144,92146,6,0,L|84:236,2,105.00000089407,4|4|4,0:2|0:2|0:2,0:2:0:0:
176,88,93317,2,4,P|268:28|332:156,1,280.000002384186,0|0,0:2|0:2,0:2:0:0:
288,192,94780,2,0,P|200:216|144:208,1,140.000001192093
96,176,95658,2,0,P|106:72|134:48,1,140.000001192093,4|8,0:2|0:2,0:2:0:0:
264,24,96829,2,0,P|440:96|491:305,1,420.000003576278,4|8,0:2|0:2,0:2:0:0:
352,272,99170,6,0,L|248:248,2,105.00000089407,0|0|0,0:2|0:2|0:2,0:0:0:0:
328,352,100341,2,0,L|184:320,1,140.000001192093,0|12,0:2|0:2,0:2:0:0:
176,184,101512,6,0,P|176:136|232:112,1,105.00000089407,8|0,0:2|0:2,0:2:0:0:
320,96,102390,1,0,0:0:0:0:
384,120,102682,2,0,L|456:152,2,70.0000005960464
320,96,103560,1,0,0:0:0:0:
312,168,103853,6,0,P|256:272|160:280,1,210.000001788139,8|0,0:2|0:2,0:2:0:0:
32,264,105317,2,0,P|80:216|80:184,1,70.0000005960464,8|0,0:2|0:2,0:2:0:0:
128,88,106195,6,0,P|232:96|336:64,1,210.000001788139,8|0,0:2|0:2,0:2:0:0:
456,0,107658,2,0,P|480:64|472:80,1,70.0000005960464,8|0,0:2|0:2,0:2:0:0:
464,200,108536,6,0,P|368:312|304:336,1,210.000001788139,8|0,0:2|0:2,0:2:0:0:
176,352,110000,2,0,P|120:336|104:304,1,70.0000005960464,8|0,0:2|0:2,0:2:0:0:
24,216,110878,6,0,L|104:136,4,105.00000089407,8|0|0|8|0,0:2|0:2|0:2|0:2|0:2,0:2:0:0:
160,224,113219,2,0,P|272:184|352:112,1,210.000001788139,8|0,0:2|0:2,0:2:0:0:
432,24,114682,2,0,P|376:16|336:16,1,70.0000005960464,8|0,0:2|0:2,0:2:0:0:
224,24,115560,6,0,P|128:136|72:200,1,210.000001788139,8|0,0:2|0:2,0:2:0:0:
8,288,117024,2,0,P|48:288|96:304,1,70.0000005960464,8|0,0:2|0:2,0:2:0:0:
208,336,117902,6,0,P|368:320|416:264,1,210.000001788139,8|0,0:2|0:2,0:2:0:0:
480,176,119365,2,0,P|488:136|464:96,1,70.0000005960464,8|0,0:2|0:2,0:2:0:0:
368,24,120243,6,0,L|288:103,4,105.00000089407,8|0|0|8|0,0:2|0:2|0:2|0:2|0:2,0:2:0:0:
224,24,122585,6,0,P|96:112|64:176,1,210.000001788139,8|0,0:2|0:2,0:2:0:0:
40,296,124048,2,0,P|80:264|128:256,1,70.0000005960464,8|0,0:2|0:2,0:2:0:0:
232,224,124926,6,0,P|200:128|288:120,1,210.000001788139,8|0,0:2|0:2,0:2:0:0:
400,184,126390,2,0,L|480:232,2,70.0000005960464,8|0|0,0:2|0:2|0:2,0:2:0:0:
392,256,127268,6,0,P|352:328|232:360,1,210.000001788139,8|0,0:2|0:2,0:2:0:0:
104,304,128731,2,0,P|64:272|32:232,1,70.0000005960464,8|0,0:2|0:2,0:2:0:0:
192,240,129609,2,0,P|264:176|200:104,1,210.000001788139,8|0,0:2|0:2,0:2:0:0:
64,120,131073,2,0,P|40:160|48:192,1,70.0000005960464,8|0,0:2|0:2,0:2:0:0:
80,320,131951,6,0,P|128:296|304:280,1,210.000001788139,8|0,0:2|0:2,0:2:0:0:
424,288,133414,2,0,L|480:344,2,70.0000005960464,8|0|0,0:2|0:2|0:2,0:2:0:0:
376,232,134292,2,0,P|280:160|176:152,1,210.000001788139,8|0,0:2|0:2,0:2:0:0:
56,184,135756,2,0,L|32:256,2,70.0000005960464,8|0|0,0:2|0:2|0:2,0:2:0:0:
88,120,136634,6,0,P|152:64|280:48,1,210.000001788139,8|0,0:2|0:2,0:2:0:0:
408,64,138097,2,0,L|464:8,2,70.0000005960464,8|0|0,0:2|0:2|0:2,0:2:0:0:
360,120,138975,2,0,P|328:200|392:312,1,210.000001788139,8|0,0:2|0:2,0:2:0:0:
248,272,140439,2,0,P|192:264|160:272,1,70.0000005960464,8|0,0:2|0:2,0:2:0:0:
48,304,141317,6,0,P|32:168|64:96,1,210.000001788139,8|0,0:2|0:2,0:2:0:0:
184,40,142780,2,0,L|80:40,2,70.0000005960464,8|0|0,0:2|0:2|0:2,0:2:0:0:
256,40,143658,2,0,B|352:40|352:40|432:40|448:112,1,210.000001788139,8|0,0:2|0:2,0:2:0:0:
456,232,145121,2,0,L|504:152,2,70.0000005960464,8|0|0,0:2|0:2|0:2,0:2:0:0:
416,288,146000,6,0,P|328:248|208:256,1,210.000001788139,8|0,0:2|0:2,0:2:0:0:
80,264,147463,2,0,L|80:344,2,70.0000005960464,8|0|0,0:2|0:2|0:2,0:2:0:0:
80,192,148341,2,0,P|120:88|216:40,1,210.000001788139,8|0,0:2|0:2,0:2:0:0:
344,40,149804,2,0,P|408:64|432:88,1,70.0000005960464,8|4,0:2|0:2,0:2:0:0:
512,160,150682,6,0,B|440:160|440:160|440:240|360:280,1,210.000001788139,8|0,0:2|0:2,0:2:0:0:
256,280,152146,2,0,L|184:280,1,70.0000005960464,8|4,0:2|0:2,0:2:0:0:
48,280,153024,2,0,B|64:224|48:144|48:144|144:144,1,210.000001788139,8|0,0:2|0:2,0:2:0:0:
264,144,154487,2,0,P|268:113|264:72,1,70.0000005960464,8|4,0:2|0:2,0:2:0:0:
400,64,155365,5,8,0:0:0:0:
472,144,155804,1,0,0:0:0:0:
472,248,156243,1,0,0:0:0:0:
400,320,156682,1,4,0:0:0:0:
320,248,157121,2,0,P|328:200|320:160,1,70.0000005960464,8|0,0:0|0:0,0:0:0:0:
312,112,157707,5,8,0:0:0:0:
208,128,158146,1,0,0:0:0:0:
176,224,158585,1,0,0:0:0:0:
232,312,159024,1,4,0:0:0:0:
320,248,159463,2,0,P|340:281|341:323,1,70.0000005960464,8|4,0:2|0:2,0:2:0:0:
416,320,160048,5,0,0:0:0:0:
464,232,160487,1,0,0:0:0:0:
408,144,160926,1,0,0:0:0:0:
304,152,161365,1,0,0:0:0:0:
72,224,162390,5,0,0:0:0:0:
48,120,162829,1,0,0:0:0:0:
120,40,163268,1,0,0:0:0:0:
224,48,163707,1,4,0:0:0:0:
