osu file format v9

[General]
AudioFilename: Jimmy Eat World - The Middle.mp3
AudioLeadIn: 0
PreviewTime: 34360
Countdown: 0
SampleSet: Normal
StackLeniency: 0.3
Mode: 1
LetterboxInBreaks: 0

[Editor]
Bookmarks: 88468,110998,156982
DistanceSpacing: 0.8
BeatDivisor: 4
GridSize: 4

[Metadata]
Title:The Middle
Artist:Jimmy Eat World
Creator:Gonzvlo
Version:lepidon! - Taiko Oni
Source:
Tags:Rock Band lepidopodus

[Difficulty]
HPDrainRate:5
CircleSize:5
OverallDifficulty:5
ApproachRate:5
SliderMultiplier:1.4
SliderTickRate:2

[Events]
//Background and Video events
0,0,"BG.png"
//Break Periods
//Storyboard Layer 0 (Background)
//Storyboard Layer 1 (Fail)
//Storyboard Layer 2 (Pass)
//Storyboard Layer 3 (Foreground)
//Storyboard Sound Samples
//Background Colour Transformations
3,100,163,162,255

[TimingPoints]
375,369.41263391208,4,1,0,80,1,0
36208,-100,4,1,0,90,0,1
47659,-100,4,1,0,80,0,0
71671,-100,4,1,0,90,0,1
82476,-100,4,1,0,80,0,1
83031,-100,4,1,0,90,0,1
83123,-100,4,1,0,90,0,0
83492,-100,4,1,0,90,0,1
94944,-100,4,1,0,80,0,0
142598,-100,4,1,0,90,0,1
153404,-100,4,1,0,80,0,1
153958,-100,4,1,0,90,0,1
154050,-100,4,1,0,90,0,0
154420,-100,4,1,0,90,0,1
163932,-100,4,1,0,80,0,1
164394,-100,4,1,0,80,0,0

[Colours]
Combo1 : 24,152,220
Combo2 : 34,83,210
Combo3 : 65,189,216
SliderTrackOverride : 173,173,173
SliderBorder : 0,0,0

[HitObjects]
96,165,12196,1,0
139,168,12380,1,0
182,175,12565,1,8
269,181,12935,1,0
311,193,13119,1,0
350,211,13304,1,8
415,152,13673,1,0
433,112,13858,1,0
454,150,14043,1,8
449,193,14227,1,0
436,235,14412,1,0
360,280,14782,1,8
312,205,15151,1,0
350,182,15336,1,8
391,168,15520,1,8
471,204,15890,1,0
440,235,16075,1,8
407,264,16259,1,8
331,218,16629,1,0
370,199,16813,1,8
389,159,16998,1,8
426,182,17183,1,0
440,235,17367,1,0
384,230,17552,1,0
409,176,17737,1,8
297,177,18106,5,0
385,107,18476,1,8
357,215,18845,1,0
364,270,19030,1,0
416,249,19215,1,8
497,172,19584,1,0
462,215,19769,1,0
428,170,19953,1,8
423,225,20138,1,0
293,277,20507,1,0
311,256,20692,1,8
311,199,20877,1,0
277,154,21062,1,0
388,164,21431,1,8
420,271,21800,1,0
293,277,21985,1,0
337,243,22170,1,8
228,216,22539,1,0
276,248,22724,1,0
328,224,22909,1,8
404,144,23278,1,0
424,196,23463,1,0
468,164,23647,1,8
444,216,23832,1,0
432,240,23925,1,0
420,264,24017,5,0
372,292,24202,1,0
320,276,24386,1,8
356,168,24756,1,0
388,120,24940,1,0
432,152,25125,1,8
456,260,25495,1,0
372,292,25679,1,0
356,168,25864,1,8
412,156,26049,1,0
444,112,26233,1,0
440,224,26603,1,8
336,180,26972,1,0
392,180,27157,1,8
448,192,27342,1,8
480,172,27711,1,0
456,224,27896,1,8
424,268,28080,1,8
336,180,28450,1,0
356,128,28635,1,8
364,72,28819,1,8
392,120,29004,1,0
404,176,29189,1,0
384,228,29373,1,0
432,200,29558,1,8
320,180,29928,5,0
428,156,30297,1,8
440,268,30666,1,0
392,300,30851,1,0
376,248,31036,1,8
376,136,31405,1,0
328,112,31590,1,0
384,124,31775,1,8
436,148,31959,1,0
448,260,32329,1,0
460,236,32513,1,8
412,208,32698,1,0
356,216,32883,1,0
360,104,33252,1,8
396,212,33622,1,0
396,268,33806,1,0
424,220,33991,1,8
312,232,34360,1,0
284,280,34545,1,0
324,240,34730,1,8
372,216,34915,1,0
264,188,35284,1,0
236,180,35376,1,0
264,180,35469,1,8
344,188,35838,5,4
256,264,36208,1,12
344,192,36577,1,4
440,132,36946,1,8
440,188,37131,1,0
436,216,37223,1,0
428,244,37316,1,0
376,268,37500,1,0
364,212,37685,1,8
344,160,37870,1,0
332,136,37962,1,0
312,116,38055,1,0
368,128,38239,1,0
436,216,38424,1,8
428,244,38609,1,8
372,248,38793,1,4
260,256,39163,1,4
152,228,39532,1,4
252,180,39902,1,8
308,180,40086,1,0
336,184,40179,1,0
364,192,40271,1,0
392,240,40456,1,0
424,196,40640,1,8
472,224,40825,1,0
460,248,40918,1,8
448,272,41010,1,0
400,300,41195,1,0
372,252,41379,1,8
316,256,41564,1,0
280,212,41749,5,4
364,136,42118,1,4
364,248,42488,1,4
404,144,42857,1,8
400,200,43042,1,0
396,228,43134,1,0
392,256,43226,1,0
340,276,43411,1,0
288,252,43596,1,8
316,204,43780,1,0
336,184,43873,1,0
360,196,43965,1,0
400,236,44150,1,0
436,192,44335,1,8
432,136,44519,1,0
376,136,44704,1,4
284,196,45073,1,4
216,284,45443,1,4
324,256,45812,1,4
392,164,46182,2,4,B|160:96|160:96|44:240,1,420
60,124,47659,5,0
116,132,47844,1,0
172,144,48029,1,8
276,184,48398,1,0
324,216,48583,1,0
376,196,48768,1,8
464,128,49137,1,0
448,184,49322,1,0
424,232,49506,1,8
384,272,49691,1,0
332,292,49876,1,0
292,188,50245,1,8
392,136,50615,1,0
444,156,50799,1,8
460,208,50984,1,8
400,112,51353,1,0
432,160,51538,1,8
428,216,51723,1,8
324,256,52092,1,0
344,204,52277,1,8
384,164,52462,1,8
440,172,52646,1,0
424,224,52831,1,0
420,252,53016,1,0
384,164,53201,1,8
396,108,53385,1,8
420,160,53570,5,0
424,224,53939,1,8
344,304,54309,1,0
300,268,54493,1,0
316,216,54678,1,8
212,176,55048,1,0
248,136,55232,1,0
304,144,55417,1,8
352,172,55602,1,0
412,268,55971,1,0
428,292,56063,1,0
424,264,56156,1,8
420,208,56341,1,0
388,252,56525,1,0
400,140,56895,1,8
368,248,57264,1,0
328,288,57449,1,0
328,232,57633,1,8
224,188,58003,1,0
268,152,58188,1,0
324,152,58372,1,8
380,164,58557,1,0
376,220,58742,1,0
380,276,58926,1,0
408,284,59019,1,0
416,256,59111,1,8
380,164,59296,1,0
328,184,59481,5,0
328,240,59665,1,0
384,240,59850,1,8
424,136,60219,1,0
464,96,60404,1,0
460,152,60589,1,8
400,248,60958,1,0
348,272,61143,1,0
376,224,61328,1,8
412,180,61512,1,0
464,164,61697,1,0
412,180,62066,1,8
300,200,62436,1,0
356,188,62621,1,8
404,216,62805,1,8
296,192,63175,1,0
348,176,63359,1,8
400,156,63544,1,8
356,260,63913,1,0
408,244,64098,1,8
444,200,64283,1,8
400,156,64468,1,0
404,184,64652,1,0
352,204,64837,1,0
400,176,65022,1,8
444,144,65206,1,8
444,200,65391,5,0
368,116,65761,1,8
276,180,66130,1,0
232,216,66315,1,0
284,236,66499,1,8
444,200,66869,1,0
444,256,67053,1,0
408,216,67238,1,8
360,188,67423,1,0
304,92,67792,1,0
320,116,67885,1,0
348,120,67977,1,8
396,148,68162,1,0
392,204,68346,1,0
424,312,68716,1,8
316,288,69085,1,0
268,260,69270,1,0
304,216,69455,1,8
384,140,69824,1,0
420,184,70009,1,0
476,176,70193,1,8
440,220,70378,1,0
396,252,70563,1,0
344,268,70748,1,0
316,272,70840,1,0
300,252,70932,1,8
344,188,71302,5,4
256,264,71672,1,12
344,192,72041,1,4
440,132,72410,1,8
440,188,72595,1,0
436,216,72687,1,0
428,244,72780,1,0
376,268,72964,1,0
364,212,73149,1,8
344,160,73334,1,0
332,136,73426,1,0
312,116,73519,1,0
368,128,73703,1,0
436,216,73888,1,8
428,244,74073,1,8
372,248,74257,1,4
260,256,74627,1,4
152,228,74996,1,4
252,180,75366,1,8
308,180,75550,1,0
336,184,75643,1,0
364,192,75735,1,0
392,240,75920,1,0
424,196,76104,1,8
472,224,76289,1,0
460,248,76382,1,8
448,272,76474,1,0
400,300,76659,1,0
372,252,76843,1,8
316,256,77028,1,0
280,212,77213,5,4
364,136,77582,1,4
364,248,77952,1,4
404,144,78321,1,8
400,200,78506,1,0
396,228,78598,1,0
392,256,78690,1,0
340,276,78875,1,0
288,252,79060,1,8
316,204,79244,1,0
336,184,79337,1,0
360,196,79429,1,0
400,236,79614,1,0
436,192,79799,1,8
432,136,79983,1,0
376,136,80168,1,4
284,196,80537,1,4
216,284,80907,1,4
324,256,81276,1,4
396,172,81646,2,4,B|320:108|320:108|120:160,1,280
200,168,82569,1,4
248,196,82754,1,4
292,228,82938,1,4
220,276,83123,5,4
308,208,83492,1,12
420,228,83862,1,4
448,120,84231,1,8
464,172,84416,1,0
464,200,84508,1,0
464,228,84601,1,0
416,260,84785,1,0
376,220,84970,1,8
320,224,85155,1,0
292,232,85247,1,0
264,236,85339,1,0
292,188,85524,1,0
344,168,85709,1,8
356,192,85801,1,8
364,220,85894,1,8
376,165,86078,1,4
456,242,86448,1,4
352,284,86817,1,4
368,173,87186,1,8
423,182,87371,1,0
442,202,87464,1,0
442,202,87556,1,0
385,201,87741,1,0
362,150,87925,1,8
394,104,88110,1,0
414,123,88202,1,8
433,143,88295,1,0
425,198,88479,1,0
434,142,88664,1,8
437,114,88756,1,8
442,202,88849,1,0
391,225,89034,5,4
288,268,89403,1,4
176,268,89772,1,4
269,206,90142,1,8
312,171,90326,1,0
335,155,90419,1,0
359,142,90511,1,0
409,167,90696,1,0
408,223,90881,1,8
400,278,91065,1,0
374,289,91158,1,0
349,302,91250,1,0
296,282,91435,1,0
327,236,91619,1,8
373,210,91804,1,0
332,170,91989,1,0
321,114,92174,1,0
339,93,92266,1,0
365,101,92358,1,8
321,114,92543,1,0
365,101,92727,1,8
321,114,92912,1,0
339,93,93004,1,0
365,101,93096,1,8
334,148,93282,1,0
303,194,93466,1,4
327,244,93651,1,0
338,269,93744,1,0
348,294,93836,1,0
403,286,94021,1,0
430,292,94113,1,0
439,318,94205,1,0
385,333,94390,1,0
357,334,94482,1,0
328,334,94575,1,0
300,332,94667,1,0
272,330,94759,1,0
264,276,94944,5,0
288,264,95036,1,0
312,252,95129,1,8
356,216,95314,1,0
400,180,95498,1,8
440,220,95683,1,0
448,248,95775,1,0
448,220,95868,1,8
420,172,96052,1,0
364,168,96237,1,0
308,178,96422,1,0
325,199,96514,1,0
339,223,96606,1,0
348,249,96699,1,0
354,276,96791,1,0
389,319,96976,1,0
282,284,97345,1,0
225,284,97530,1,8
168,281,97715,1,0
175,225,97899,1,0
284,200,98269,1,8
312,196,98361,1,8
340,204,98454,1,0
360,256,98638,1,0
416,352,99008,1,0
424,296,99192,1,8
436,240,99377,1,0
428,212,99469,1,0
428,184,99562,1,8
420,156,99654,1,0
400,136,99746,1,0
344,132,99931,1,0
264,212,100301,1,0
300,256,100485,1,8
404,292,100855,5,0
428,184,100947,1,0
448,204,101039,1,8
392,200,101224,1,0
444,176,101409,1,8
392,156,101594,1,0
428,184,101686,1,0
448,164,101778,1,8
420,212,101963,1,0
384,252,102148,1,0
328,252,102332,1,0
300,252,102425,1,0
272,252,102517,1,0
244,252,102609,1,0
216,248,102702,1,0
172,212,102887,1,0
240,164,103256,1,0
296,164,103441,1,8
380,176,103625,1,0
396,232,103810,1,0
424,280,103995,1,0
436,256,104087,1,8
444,228,104179,1,0
400,264,104364,1,0
352,296,104549,1,0
296,312,104734,1,0
380,176,104826,1,8
380,176,104918,1,0
336,140,105103,1,0
392,124,105288,1,8
440,152,105472,1,0
456,176,105565,1,0
452,204,105657,1,0
472,152,105842,1,8
464,208,106027,1,0
440,220,106119,1,0
428,244,106211,1,0
420,188,106396,1,8
312,212,106765,5,0
396,136,107135,1,8
448,156,107319,1,0
480,204,107504,1,8
396,280,107874,1,0
408,224,108058,1,8
372,180,108243,1,0
456,104,108612,1,8
476,156,108797,1,0
480,204,108982,1,8
388,140,109351,1,0
444,128,109536,1,8
444,184,109721,1,8
332,176,110090,1,0
368,220,110275,1,8
372,276,110459,1,8
392,164,110829,1,0
448,160,111014,1,8
436,216,111198,1,8
436,216,111291,1,8
432,244,111383,1,8
428,188,111568,1,0
388,148,111752,1,8
332,140,111937,1,8
304,136,112029,1,8
276,132,112122,1,8
332,132,112307,1,0
380,104,112491,1,8
356,156,112676,5,8
344,180,112768,1,8
332,204,112861,1,8
300,248,113045,1,8
252,272,113230,1,8
200,252,113415,1,8
176,240,113507,1,8
156,220,113599,1,8
140,168,113784,1,8
152,112,113969,1,8
196,144,114154,1,8
220,160,114246,1,8
240,176,114338,1,8
264,192,114431,1,8
284,208,114523,1,0
316,160,114708,1,8
380,264,114892,1,8
408,276,114985,1,8
436,280,115077,1,8
436,280,115169,1,8
436,280,115262,1,0
384,180,115631,1,4
421,204,116185,1,12
461,175,116739,1,4
292,165,117294,1,12
356,320,117848,1,4
321,213,118217,1,4
401,135,118587,5,0
489,203,118956,1,8
371,235,119695,1,8
444,175,120434,1,8
414,131,121172,1,12
313,181,121542,1,0
368,174,121727,1,8
444,175,121911,1,8
357,246,122281,1,0
444,175,122465,1,8
461,228,122650,1,8
403,132,123019,1,0
434,178,123204,1,8
421,232,123389,1,8
383,273,123574,1,0
330,293,123758,1,0
282,263,123943,1,0
306,212,124128,1,8
350,109,124497,5,0
452,154,124867,1,8
426,262,125236,1,0
374,285,125421,1,0
360,230,125605,1,8
248,212,125975,1,0
192,224,126160,1,0
248,216,126344,1,8
300,236,126529,1,0
408,268,126898,1,0
420,292,126991,1,0
420,264,127083,1,8
404,212,127268,1,0
364,172,127452,1,0
456,108,127822,1,8
448,220,128191,1,0
408,268,128376,1,0
392,216,128561,1,8
288,176,128930,1,0
280,120,129115,1,0
336,132,129300,1,8
388,148,129484,1,0
412,228,129669,1,0
408,268,129854,1,0
432,216,130038,1,8
476,180,130223,1,0
460,200,130315,1,0
460,200,130408,5,0
404,192,130592,1,0
348,192,130777,1,8
363,80,131147,1,0
408,111,131331,1,0
397,166,131516,1,8
285,171,131885,1,0
232,190,132070,1,0
287,198,132255,1,8
340,215,132440,1,0
388,242,132624,1,0
397,166,132994,1,8
314,90,133363,1,0
362,117,133548,1,8
407,148,133732,1,8
503,205,134102,1,0
456,236,134287,1,8
413,271,134471,1,8
313,219,134841,1,0
351,178,135025,1,8
391,139,135210,1,8
442,160,135395,1,0
472,206,135580,1,0
456,236,135764,1,0
462,180,135949,1,8
444,126,136134,1,0
418,175,136318,5,0
392,284,136688,1,8
288,242,137057,1,0
240,212,137242,1,0
274,167,137427,1,8
384,181,137796,1,0
438,195,137981,1,0
467,147,138165,1,8
470,202,138350,1,0
398,288,138720,1,0
371,295,138812,1,0
362,268,138904,1,8
326,224,139089,1,0
279,191,139274,1,0
387,163,139643,1,8
461,246,140012,1,0
406,231,140197,1,0
419,176,140382,1,8
307,177,140751,1,0
338,130,140936,1,0
394,127,141121,1,8
435,164,141305,1,0
399,207,141490,1,0
354,241,141675,1,0
327,250,141767,1,0
303,235,141860,1,8
220,276,142229,5,4
308,208,142598,1,12
420,228,142968,1,4
448,120,143337,1,8
464,172,143522,1,0
464,200,143614,1,0
464,228,143707,1,0
416,260,143891,1,0
376,220,144076,1,8
320,224,144261,1,0
292,232,144353,1,0
264,236,144445,1,0
292,188,144630,1,0
292,232,144722,1,0
344,168,144815,1,8
356,192,144907,1,8
364,220,145000,1,8
376,165,145184,1,4
456,242,145554,1,4
352,284,145923,1,4
368,173,146292,1,8
423,182,146477,1,0
442,202,146570,1,0
442,202,146662,1,0
385,201,146847,1,0
362,150,147031,1,8
394,104,147216,1,0
414,123,147308,1,8
433,143,147401,1,0
425,198,147585,1,0
410,222,147678,1,0
434,142,147770,1,8
437,114,147862,1,8
442,202,147955,1,0
391,225,148140,5,4
288,268,148509,1,4
176,268,148878,1,4
269,206,149248,1,8
312,171,149432,1,0
335,155,149525,1,0
359,142,149617,1,0
409,167,149802,1,0
408,223,149987,1,8
400,278,150171,1,0
374,289,150264,1,0
349,302,150356,1,0
296,282,150541,1,0
327,236,150725,1,8
373,210,150910,1,0
367,237,151003,1,0
332,170,151095,1,0
321,114,151280,1,0
339,93,151372,1,0
365,101,151464,1,8
321,114,151649,1,0
365,101,151833,1,8
321,114,152018,1,0
339,93,152110,1,0
365,101,152202,1,8
334,148,152388,1,0
366,194,152573,2,4,B|76:259,1,280
136,220,153496,1,4
183,190,153681,1,4
229,159,153865,1,4
279,133,154050,5,4
386,164,154420,1,12
384,275,154789,1,4
411,166,155158,1,8
366,200,155343,1,0
344,218,155435,1,0
319,231,155528,1,0
319,258,155713,1,0
362,223,155897,1,8
394,268,156082,1,0
369,255,156174,1,0
343,242,156267,1,0
442,177,156451,1,12
442,177,156636,1,12
454,231,156821,1,12
407,199,157005,1,4
340,108,157375,1,12
387,209,157744,1,4
453,118,158114,1,8
407,199,158298,1,0
408,227,158391,1,0
391,249,158483,1,0
334,251,158668,1,0
346,196,158853,1,8
400,183,159037,1,0
407,199,159130,1,8
408,227,159222,1,0
368,187,159407,1,12
314,171,159591,1,12
258,164,159776,1,12
310,145,159961,5,4
342,251,160330,1,12
375,357,160700,1,4
415,252,161069,1,8
361,236,161254,1,0
333,230,161346,1,0
305,224,161438,1,0
266,183,161623,1,0
315,156,161808,1,8
370,164,161993,1,0
394,178,162085,1,0
415,252,162177,1,0
410,196,162362,1,12
370,164,162547,1,12
315,156,162731,1,12
359,190,162916,1,4
351,301,163285,1,4
248,255,163655,1,4
353,218,164024,1,4
398,185,164209,1,12
