osu file format v9

[General]
AudioFilename: Jimmy Eat World - The Middle.mp3
AudioLeadIn: 0
PreviewTime: 34360
Countdown: 0
SampleSet: Normal
StackLeniency: 0.5
Mode: 0
LetterboxInBreaks: 0

[Editor]
Bookmarks: 88468
DistanceSpacing: 0.6
BeatDivisor: 4
GridSize: 4

[Metadata]
Title:The Middle
Artist:Jimmy Eat World
Creator:Gonzvlo
Version:Tough
Source:
Tags:Rock Band lepidopodus

[Difficulty]
HPDrainRate:8
CircleSize:4
OverallDifficulty:8
ApproachRate:8
SliderMultiplier:2.5
SliderTickRate:2

[Events]
//Background and Video events
0,0,"BG.png"
//Break Periods
2,95144,100105
2,118587,120792
//Storyboard Layer 0 (Background)
//Storyboard Layer 1 (Fail)
//Storyboard Layer 2 (Pass)
//Storyboard Layer 3 (Foreground)
//Storyboard Sound Samples
//Background Colour Transformations
3,100,163,162,255

[TimingPoints]
375,369.41263391208,4,1,1,80,1,0
36208,-100,4,1,1,60,0,1
47659,-100,4,1,1,60,0,0
71671,-100,4,1,1,60,0,1
82015,-100,4,1,1,60,0,0
83485,-100,4,1,1,60,0,1
94944,-100,4,1,1,60,0,0
100475,-100,4,2,1,80,0,0
111799,-100,4,1,1,51,0,0
112445,-100,4,2,1,80,0,0
121344,-100,4,1,1,60,0,0
142598,-100,4,1,1,60,0,1
152942,-100,4,1,1,60,0,0
154422,-100,4,1,1,60,0,1
157005,-100,4,1,1,60,0,0
157375,-100,4,1,1,60,0,1
159961,-100,4,1,1,60,0,0
160330,-100,4,1,1,60,0,1
164209,-100,4,1,1,60,0,0

[Colours]
Combo1 : 24,152,220
Combo2 : 34,83,210
Combo3 : 65,189,216
SliderTrackOverride : 173,173,173
SliderBorder : 0,0,0

[HitObjects]
256,204,11826,1,8
196,344,12196,2,0,B|64:400|20:264|120:168|256:296|256:296|392:168|492:264|448:400|316:344,1,750,4|8
140,168,13858,6,0,B|204:160|256:204|256:204|308:160|372:168,1,250
372,168,14412,1,0
372,316,14782,2,0,B|308:324|256:280|256:280|204:324|140:316,2,250,8|0|8
352,168,15890,6,0,B|348:56|256:100|184:80|188:12,1,250,0|8
324,15,16629,2,0,B|328:80|256:100|164:56|160:168,1,250,0|8
184,240,17183,2,0,B|236:220|232:160|232:160|280:160|280:160|276:220|328:240,1,250
256,280,17737,1,8
104,84,18106,5,0
256,280,18476,1,8
408,84,18845,1,0
360,224,19215,2,0,B|332:168|256:144|180:168|152:224,1,250,8|0
252,336,19953,5,8
212,272,20138,1,0
152,224,20323,1,0
208,176,20507,1,0
256,120,20692,1,8
304,176,20877,1,0
360,224,21062,1,0
252,336,21431,5,8
152,224,21800,2,0,B|100:112,2,125,0|0|8
360,224,22539,2,0,B|412:112,2,125,0|0|8
292,192,23093,5,0
320,124,23278,1,0
352,56,23463,1,0
352,56,23647,1,8
280,32,23832,2,0,B|28:32,1,250
28,108,24386,5,8
96,136,24571,1,0
100,212,24756,2,0,B|104:248|76:276|32:272|12:248,2,125,0|0|8
96,136,25310,1,0
128,68,25495,1,0
200,44,25679,6,0,B|284:140,1,125,0|8
264,212,26049,2,0,B|244:189|200:185|172:213|176:249,1,125
243,283,26418,2,0,B|246:318|218:346|174:342|155:319,2,125,0|8|0
308,324,26972,2,0,B|436:324,1,125
492,276,27342,5,8
416,248,27526,1,0
412,172,27711,2,0,B|408:136|436:108|480:112|500:136,2,125,0|0|8
416,248,28265,1,0
384,316,28450,1,0
300,192,28819,5,8
256,252,29004,1,0
212,192,29189,1,0
256,132,29373,1,0
180,124,29558,2,0,B|52:116,2,125,8|0|0
332,124,30297,2,0,B|460:116,2,125,8|0|0
332,276,31036,5,8
180,276,31405,1,0
216,132,31775,1,8
296,132,31959,1,0
156,76,32329,1,0
216,28,32513,1,8
296,28,32698,1,0
356,76,32883,1,0
256,192,33068,12,8,34730
256,336,35284,5,0
256,336,35469,1,8
52,192,35838,1,0
256,48,36208,1,4
460,192,36577,1,0
256,192,36946,5,8
300,252,37131,2,0,B|376:284|424:192|376:100|300:132,1,250
256,192,37685,1,8
256,192,37870,1,0
211,131,38055,2,0,B|136:100|88:192|136:284|212:252,1,250
256,312,38609,1,0
372,260,38793,5,0
256,40,39163,1,12
140,260,39532,1,0
256,164,39902,5,8
300,104,40086,2,0,B|360:-4,1,125
428,28,40456,2,0,B|364:140,1,125,0|8
212,104,40825,2,0,B|152:-4,1,125
84,28,41195,2,0,B|148:140,1,125,0|8
216,184,41564,5,0
296,184,41749,1,0
256,328,42118,1,8
256,328,42488,1,0
256,328,42857,1,8
175,332,43042,6,0,B|136:332|136:300|136:300|136:284|136:256|136:233,1,125
216,264,43411,2,0,B|216:140,1,125,0|8
296,264,43780,2,0,B|296:139,1,125
336,332,44150,2,0,B|376:332|376:300|376:300|376:284|376:256|376:232,1,125,0|8
296,184,44519,1,0
216,184,44704,1,0
160,44,45073,6,0,B|176:108|256:132|336:108|352:44,1,250,8|0
352,340,45812,2,0,B|336:276|256:252|176:276|160:340,2,250,8|0|4
256,192,47105,5,8
256,192,47290,1,8
256,192,47475,1,8
376,112,47659,2,0,B|280:32|72:108|92:328|256:368|420:328|440:108|232:32|136:112,1,750,4|8
156,344,49322,5,0
216,300,49506,1,8
296,300,49691,1,0
356,344,49876,1,0
256,232,50245,2,0,B|256:104,1,125,8|0
256,107,50615,1,0
104,108,50984,2,0,B|104:236,2,125,8|0|0
408,108,51723,2,0,B|408:236,2,125,8|0|0
456,48,52277,6,0,B|448:16|408:4|368:16|360:48,1,125,0|8
328,116,52646,1,0
296,184,52831,1,0
216,184,53016,1,0
184,116,53201,1,8
152,47,53385,2,0,B|144:16|104:4|64:16|56:48,1,125
184,116,53939,5,8
328,116,54309,1,0
256,248,54678,1,8
256,248,55048,1,0
384,172,55417,1,8
408,244,55602,1,0
380,312,55786,1,0
256,192,55971,12,0,58003
128,172,58372,1,8
104,244,58557,1,0
132,312,58742,1,0
256,228,59111,1,8
256,228,59296,1,0
436,92,59850,2,0,B|412:0|284:16|256:120|256:120|228:16|100:0|76:92,1,500,8|8
48,160,60773,1,0
104,208,60958,1,0
176,184,61143,6,0,B|184:264|256:292|328:264|336:184,1,250
256,160,61697,1,0
428,192,62066,2,0,B|392:348|256:396|120:348|84:192,2,500,8|8|8
200,156,64098,6,0,B|256:204|312:156,2,125,0|8|0
148,100,64652,1,0
184,36,64837,1,0
256,16,65022,1,8
328,36,65206,1,0
364,100,65391,1,0
480,192,65761,2,0,B|452:308|292:284|256:156|256:156|220:284|60:308|32:192,1,625,8|0
32,192,66869,1,0
256,192,67238,12,8,70193
256,48,70748,5,0
256,48,70932,1,8
460,192,71302,1,0
256,336,71671,1,4
52,192,72041,1,0
184,268,72410,5,8
208,196,72595,1,0
256,136,72779,1,0
304,196,72964,1,0
328,268,73149,1,8
400,284,73333,6,0,B|396:328|348:360|304:336,1,125
256,284,73703,1,0
204,338,73888,2,0,B|164:360|116:328|112:284,1,125,8|0
24,192,74257,5,0
256,100,74626,1,8
488,192,74996,1,0
256,284,75365,1,8
332,284,75550,6,0,B|340:208|292:168,1,125
217,170,75919,2,0,B|172:208|180:284,1,125
196,356,76289,2,0,B|256:384|316:356,3,125,0|0|0|8
296,284,77028,1,0
216,284,77212,5,0
256,140,77582,1,8
256,140,77951,1,0
112,188,78321,1,8
108,112,78505,6,0,B|212:40,1,125
404,112,78875,2,0,B|301:40,1,125,0|8
360,172,79244,2,0,B|296:200|296:276,1,125
152,172,79614,2,0,B|216:200|215:270,1,125,0|8
256,336,79983,1,0
256,336,80168,1,0
152,172,80537,5,8
364,172,80906,1,0
192,96,81276,1,8
320,96,81645,1,0
256,272,82015,1,4
256,60,82569,5,0
256,60,82754,1,8
36,192,83123,1,0
476,192,83492,1,4
256,192,83862,1,0
156,304,84231,5,8
216,348,84416,1,0
256,284,84601,1,0
296,348,84785,1,0
356,304,84970,1,8
320,240,85155,6,0,B|320:112,1,125
256,72,85524,1,0
192,115,85709,2,0,B|192:240,1,125,8|0
256,284,86078,5,0
256,284,86448,1,8
256,284,86817,1,0
256,72,87186,5,8
256,148,87371,2,0,B|332:140|336:64,1,125
256,148,87741,2,0,B|180:140|176:64,1,125,0|8
100,68,88110,2,0,B|100:144|152:188,1,125
412,68,88479,2,0,B|412:144|360:188,1,125,0|8
300,216,88849,5,0
212,216,89034,1,0
132,340,89403,1,4
380,340,89772,1,0
256,288,90142,5,0
332,280,90326,2,0,B|408:180,1,125
180,280,90696,2,0,B|104:180,1,125,0|8
216,204,91065,2,0,B|136:100,1,125
296,204,91435,2,0,B|376:100,1,125,0|8
296,80,91804,1,0
216,80,91989,1,0
80,256,92358,6,0,B|56:372|324:376|256:252|188:136|456:140|424:256,1,500,4|8
472,112,93466,5,0
456,80,93559,1,0
424,60,93651,1,0
388,48,93744,1,0
352,48,93836,1,0
316,60,93928,1,0
284,84,94021,1,0
264,116,94113,1,0
256,152,94205,1,0
256,188,94298,1,0
236,220,94390,1,0
204,244,94482,1,0
168,256,94575,1,0
132,256,94667,1,0
96,244,94759,1,0
64,224,94852,1,0
48,192,94944,1,4
152,146,100855,6,0,B|152:84,3,62.5,0|0|2|0
220,144,101224,6,0,B|220:81,3,62.5,8|0|2|0
288,144,101594,6,0,B|288:81,3,62.5,0|0|2|0
356,148,101963,6,0,B|356:85,3,62.5,8|0|2|0
400,212,102332,6,0,B|180:252|208:324|148:412|256:432|364:412|304:324|332:252|112:212,1,625,0|2
160,68,103625,6,0,B|224:24|308:180|204:180|288:24|352:68,1,250,2|2
352,68,104087,1,0
352,68,104179,1,8
344,148,104364,2,0,B|324:204|256:232|256:232|188:204|168:148,1,250,2|2
167,147,104826,1,0
167,147,104918,1,8
104,192,105103,6,0,B|124:232|152:260|192:280,1,125,2|0
256,316,105472,2,0,B|256:380,2,62.5,2|0|8
321,279,105842,2,0,B|360:260|388:232|408:192,1,125,2|0
364,116,106211,1,2
308,60,106396,2,0,B|192:152|256:200|320:152|204:60,1,250,8|4
180,208,107135,5,8
184,284,107319,1,2
256,308,107504,1,0
108,336,107874,1,8
256,112,108243,5,2
332,208,108612,5,8
328,284,108797,1,2
256,308,108982,1,0
404,336,109351,1,8
380,136,109721,6,0,B|396:76,4,62.5,0|0|2|0|8
300,192,110275,1,2
256,100,110459,2,0,B|256:36,4,62.5,0|0|2|0|10
212,192,111014,1,2
132,136,111198,2,0,B|116:76,4,62.5,0|0|2|0|8
152,236,111752,6,2,B|216:224|340:272|348:428|256:452|164:428|172:272|296:224|360:236,1,500,2|2
292,112,112676,6,0,B|292:48,15,62.5,0|0|2|0|8|0|2|0|0|0|2|0|8|0|2|0
220,49,114154,2,0,B|220:111,15,62.5,0|0|2|0|8|0|2|0|0|0|2|0|8|0|2|0
256,172,115631,5,4
32,352,116185,1,2
484,352,116739,1,4
484,32,117294,1,2
32,32,117848,1,4
256,192,118217,1,4
444,168,121542,6,0,B|400:32|256:-24|112:32|68:168,2,500,4|0|0
304,116,123389,1,8
296,192,123574,1,0
256,256,123758,1,0
216,192,123943,1,0
208,116,124128,1,8
68,172,124497,6,0,B|28:256|96:360|184:340,1,250,0|8
329,340,125236,2,0,B|416:360|484:256|444:172,2,250,0|8|0
204,256,126344,1,8
256,200,126529,1,0
308,256,126714,1,0
332,184,126898,2,0,B|352:96|256:24|256:24|160:96|180:184,1,375
256,312,127822,1,8
416,60,128561,6,0,B|304:-12|256:188|256:188|208:-12|96:60,1,500,8|8
68,128,129484,1,0
144,128,129669,1,0
184,192,129854,1,0
108,200,130038,2,0,B|88:288|152:376|256:396|360:376|424:288|404:200,1,500,8|8
444,128,130962,1,0
368,128,131147,1,0
328,192,131331,1,0
404,200,131516,2,0,B|424:288|360:376|256:396|152:376|88:288|108:200,1,500,8|8
256,272,132624,5,0
128,56,132994,1,8
384,56,133363,1,0
320,192,133732,1,8
256,96,134102,1,0
192,192,134471,1,8
256,288,134841,1,0
120,304,135210,5,8
184,344,135395,1,0
256,364,135580,1,0
328,344,135764,1,0
392,304,135949,1,8
216,252,136318,2,0,B|24:168|136:-40|256:120|256:120|376:-40|488:168|296:252,2,750,0|8|0
256,384,138904,1,8
256,384,139274,1,0
256,192,139458,12,8,141121
256,48,141675,5,0
256,48,141860,1,8
460,192,142229,1,0
256,336,142598,1,4
52,192,142968,1,0
212,132,143337,6,0,B|136:100|88:192|136:284|212:252,1,250,8|0
256,192,143891,1,0
256,192,144076,1,8
301,253,144261,2,0,B|376:284|424:192|376:100|300:132,1,250
256,72,144815,1,8
140,124,145184,5,0
256,344,145554,1,12
372,124,145923,1,0
256,220,146292,5,8
212,280,146477,2,0,B|152:388,1,125
84,356,146847,2,0,B|148:244,1,125,0|8
300,280,147216,2,0,B|360:388,1,125
428,356,147585,2,0,B|364:244,1,125,0|8
296,200,147955,5,0
216,200,148140,1,0
256,56,148509,1,12
256,56,148878,1,0
256,56,149248,1,8
336,51,149432,6,0,B|376:52|376:84|376:84|376:100|376:128|376:150,1,125
296,120,149801,2,0,B|296:244,1,125,0|8
216,120,150170,2,0,B|216:245,1,125
176,52,150540,2,0,B|136:52|136:84|136:84|136:100|136:128|136:152,1,125,0|8
216,244,150910,1,0
296,244,151095,1,0
256,192,151464,12,4,152942
252,192,153496,5,0
252,192,153681,1,8
36,36,154050,1,0
256,344,154420,1,4
476,36,154789,1,0
360,132,155158,5,8
308,80,155343,1,0
256,24,155528,1,0
204,80,155713,1,0
152,132,155897,1,8
184,200,156082,6,0,B|256:304|256:304|328:200,1,250
256,164,156636,1,4
256,164,156821,1,4
256,40,157005,5,0
384,256,157375,1,4
128,256,157744,1,0
256,336,158114,5,8
324,304,158298,2,0,B|328:256|256:204|256:204|184:256|188:304,3,250
256,336,159591,1,8
204,384,159776,5,0
308,384,159961,1,4
112,192,160330,1,12
400,192,160700,1,0
256,192,161069,12,0,162916
256,192,163285,5,8
72,124,163655,1,8
188,104,163840,1,0
324,104,164024,1,8
440,124,164209,1,4
