osu file format v9

[General]
AudioFilename: jimmyeatworldjusttonigth.mp3
AudioLeadIn: 1500
PreviewTime: 74330
Countdown: 1
SampleSet: Normal
StackLeniency: 0.7
Mode: 0
LetterboxInBreaks: 1

[Editor]
DistanceSpacing: 1
BeatDivisor: 4
GridSize: 16

[Metadata]
Title:Just Tonight
Artist:Jimmy Eat World
Creator:Metroid
Version:Insane
Source:
Tags:Futures Album Alt. Rock Alternative

[Difficulty]
HPDrainRate:6
CircleSize:6
OverallDifficulty:9
ApproachRate:9
SliderMultiplier:1.4
SliderTickRate:2

[Events]
//Background and Video events
0,0,"FuturesAlbumWallpaper.jpg"
//Break Periods
2,56016,57991
2,100416,105340
2,126086,127367
//Storyboard Layer 0 (Background)
//Storyboard Layer 1 (Fail)
//Storyboard Layer 2 (Pass)
//Storyboard Layer 3 (Foreground)
//Storyboard Sound Samples
//Background Colour Transformations
3,100,163,162,255

[TimingPoints]
662,346.880962016535,4,1,0,85,1,0
22322,-200,4,1,0,85,0,0
22495,-100,4,1,0,85,0,0
26831,-200,4,1,0,85,0,0
27698,-100,4,1,0,85,0,0
34097,-100,4,1,0,85,0,1
56123,-100,4,1,0,85,0,0
78488,-100,4,1,0,85,0,1
100509,-100,4,1,0,85,0,0
127907,-200,4,1,0,85,0,0
128080,-100,4,1,0,85,0,0
172654,-100,4,1,0,85,0,1
191729,-100,4,1,0,85,0,0

[Colours]
Combo1 : 64,0,128
Combo2 : 128,128,128
Combo3 : 0,0,128
Combo4 : 192,192,192

[HitObjects]
320,48,662,1,0
368,96,835,1,0
384,160,1008,1,8
352,224,1182,1,0
288,256,1355,1,0
224,256,1529,1,0
160,272,1702,1,8
96,240,1876,1,0
96,240,1962,1,0
96,240,2049,1,0
112,176,2222,5,0
160,128,2396,1,8
208,176,2569,1,8
256,128,2743,2,14,B|336:128,2,70,6|4|14
144,80,3437,5,0
80,112,3610,1,0
48,176,3783,1,8
80,240,3957,1,0
144,272,4130,1,0
208,256,4304,1,0
256,208,4477,1,8
272,144,4651,1,8
272,112,4737,1,0
288,80,4824,1,8
336,32,4998,5,0
400,32,5171,1,8
448,80,5344,1,8
480,144,5518,2,14,B|496:256|416:288,1,140,6|14
320,320,6212,5,0
256,352,6385,1,0
192,320,6558,1,8
256,288,6732,1,0
320,256,6905,1,0
256,224,7079,1,0
192,256,7252,1,8
256,224,7426,1,8
256,224,7512,1,0
256,224,7599,1,8
320,192,7773,5,0
256,160,7946,1,8
320,192,8119,1,8
256,160,8293,2,14,B|256:80,2,70,6|4|14
256,304,8987,5,0
256,240,9160,1,0
320,272,9334,1,8
320,208,9507,1,0
256,240,9680,1,0
256,176,9854,1,0
192,208,10027,1,8
192,272,10201,1,8
256,304,10374,1,8
192,272,10548,1,0
224,256,10634,1,8
256,240,10721,1,8
256,176,10894,1,8
256,112,11068,1,6
256,112,11415,1,14
112,80,11762,5,0
32,144,12022,1,0
48,240,12282,2,0,B|128:272|208:224,1,140,0|0
240,192,12802,1,8
192,144,12976,2,0,B|272:112|352:160,1,140,0|0
272,192,13496,1,8
224,240,13670,2,0,B|304:272|368:240,1,140,0|0
416,208,14190,1,8
416,208,14277,1,0
416,208,14363,1,0
448,144,14537,1,0
448,80,14710,1,0
400,32,14884,1,12
400,32,15057,1,0
256,352,15404,5,0
320,256,15577,1,8
192,256,15751,1,0
256,32,16098,5,0
192,128,16271,1,8
320,128,16445,1,0
256,256,16791,5,0
256,128,16965,1,8
256,256,17138,1,0
208,192,17312,6,0,B|160:240|96:208,2,105,0|8|4
320,112,18179,1,8
448,144,18526,2,0,B|496:224|384:256,2,140,0|8|4
352,32,19567,5,0
304,80,19740,1,8
240,80,19913,1,0
224,144,20087,1,0
160,144,20260,1,0
144,208,20434,1,12
96,192,20954,5,0
192,256,21127,1,8
192,128,21301,1,0
416,192,21648,5,0
320,128,21821,1,8
320,256,21995,1,0
256,128,22342,6,4,B|256:160,2,17.5,4|4|12
192,128,22862,6,4,B|192:32|320:32|320:128,3,210
256,128,24596,1,0
256,128,24770,1,0
256,256,25290,5,4
320,256,25637,2,4,B|320:352|192:352|192:256,2,210
256,256,26851,2,0,B|256:112,1,140,0|4
256,116,27718,1,0
256,320,28065,5,4
256,320,28412,2,4,B|224:192|320:256|256:96,3,210
256,96,30493,5,4
160,192,30840,1,4
256,288,31187,1,4
256,192,31360,12,0,33962
128,208,34136,5,0
160,272,34309,1,8
224,288,34482,1,0
336,192,34829,1,0
272,160,35003,1,8
272,96,35176,1,0
336,80,35350,5,4
336,112,35436,1,0
336,144,35523,1,0
192,112,35696,1,8
192,144,35783,1,0
192,176,35870,1,0
336,144,36043,1,4
336,176,36130,1,0
336,208,36217,1,0
192,176,36390,1,8
192,208,36477,1,0
192,240,36564,1,4
240,288,36737,5,0
288,336,36911,1,0
224,352,37084,1,8
128,240,37431,1,0
64,240,37604,1,0
96,304,37778,1,8
160,336,37951,2,0,B|224:352|320:320,1,140,0|0
352,288,38472,1,8
352,288,38645,1,8
144,96,39339,5,0
96,144,39512,2,0,B|176:176|224:96,1,140,8|0
272,64,40032,2,0,B|352:64|368:160,2,140,0|8|0
272,128,40900,2,0,B|336:192|256:272,1,140,0|8
224,288,41420,2,0,B|144:336|80:288|112:192,2,210,0|12|0
224,288,42634,1,12
256,32,43328,5,4
400,192,43848,1,4
256,336,44369,1,4
224,352,44455,1,0
192,352,44542,1,0
160,336,44629,1,0
144,304,44715,1,0
256,224,45062,5,0
304,176,45236,1,0
320,112,45409,1,8
272,64,45583,1,0
208,192,45929,1,0
160,240,46103,1,8
96,224,46276,1,0
192,128,46623,1,0
208,64,46797,2,0,B|176:16|96:32|80:96,3,140,8|0|8|0
48,208,48184,5,0
80,272,48358,2,0,B|144:320|224:272,1,140,8|0
240,208,48878,1,8
208,144,49051,2,0,B|144:96|80:144,2,140,8|0|8
272,352,50612,5,0
336,320,50786,1,0
368,256,50959,1,8
384,192,51133,2,0,B|368:96|288:80,1,140
240,64,51653,1,8
176,80,51826,1,0
128,128,52000,1,0
112,192,52173,2,12,B|128:272|208:304,1,140
256,64,53041,6,12,B|256:352,1,280
160,96,54428,5,4
256,288,54948,1,4
352,96,55469,1,4
256,192,55816,1,4
176,64,58591,5,8
112,96,58764,1,0
80,160,58938,1,0
64,224,59111,1,0
80,288,59284,1,8
144,336,59458,1,0
208,208,59805,5,0
208,144,59978,1,8
256,96,60152,1,0
320,224,60498,5,0
320,160,60672,1,8
368,112,60845,1,0
432,240,61192,5,0
432,176,61366,1,8
480,128,61539,1,0
480,64,61713,6,0,B|416:32|352:48,2,105,0|8|0
352,128,62580,1,8
256,32,62927,1,0
160,128,63274,1,8
256,224,63620,1,0
224,96,63967,5,0
208,160,64141,1,8
144,192,64314,1,0
96,240,64488,1,0
80,304,64661,1,0
144,336,64834,1,12
192,192,65355,5,0
256,288,65528,1,8
320,192,65702,1,0
192,192,66049,5,0
256,96,66222,1,8
320,192,66395,1,0
256,320,66742,5,0
256,288,66829,1,0
256,256,66916,1,8
336,128,67263,2,0,B|432:160|432:320,3,210,4|4|4|4
256,192,69344,1,4
256,48,69691,1,4
176,128,70038,2,0,B|80:160|80:320,2,210,4|4|4
256,64,72466,5,4
192,192,72813,2,4,B|256:336|336:192,3,210,4|4|4|4
176,48,74894,5,4
256,160,75241,1,4
336,48,75588,1,4
256,192,75675,12,0,78363
160,96,78536,5,0
192,160,78710,1,8
224,96,78883,1,0
80,112,79230,1,0
80,176,79403,1,8
112,240,79577,1,0
208,288,79750,5,4
208,288,79837,1,0
208,288,79924,1,0
320,224,80097,1,8
320,224,80184,1,0
320,224,80271,1,0
208,144,80444,1,4
208,144,80531,1,0
208,144,80618,1,0
320,80,80791,1,8
320,80,80878,1,0
320,80,80964,1,4
384,112,81138,5,0
416,176,81311,1,0
384,240,81485,1,8
256,304,81832,1,0
192,304,82005,1,0
128,272,82179,1,8
128,272,82352,2,0,B|48:208|112:128,1,140
144,96,82872,1,8
144,96,83046,1,8
144,96,83739,5,0
96,48,83913,2,0,B|48:112|128:192,1,140,8|0
176,160,84433,2,0,B|208:240|144:304,2,140,0|8|0
112,160,85300,2,0,B|64:208|96:304,1,140,0|12
160,320,85821,2,0,B|272:304|304:176,2,210,4|12|0
160,320,87035,1,12
256,32,87729,5,4
112,192,88249,1,4
256,336,88769,1,4
288,352,88856,1,0
320,352,88943,1,0
352,336,89029,1,0
368,304,89116,1,0
432,176,89463,5,0
368,224,89636,1,0
320,176,89810,1,8
272,224,89983,1,0
160,320,90330,1,0
112,368,90504,1,8
64,320,90677,1,0
112,192,91024,1,0
48,160,91197,2,0,B|80:112|144:112|176:160,3,140,8|0|8|0
224,272,92585,5,0
176,320,92758,2,0,B|240:368|320:320,1,140,8|0
368,288,93279,1,8
320,240,93452,2,0,B|384:192|448:240,2,140,8|0|8
32,48,95013,5,0
48,112,95187,1,0
112,144,95360,1,8
176,128,95533,2,0,B|272:144|288:224,1,140
288,272,96054,1,8
256,336,96227,1,0
192,352,96401,1,0
128,320,96574,2,12,B|64:288|64:192,1,140
256,352,97441,6,4,B|256:64,1,280
352,288,98829,5,4
256,96,99349,1,4
160,288,99869,1,4
256,192,100216,1,4
256,64,105940,5,0
224,128,106113,1,8
288,176,106287,2,0,B|352:224|272:304,2,140,0|8|0
288,176,107327,1,12
96,224,108888,5,0
160,176,109062,2,0,B|208:272|288:208,2,140,0|8|0
256,80,110102,2,8,B|384:64|304:192|448:176,1,210
422,177,110796,1,12
480,144,110970,1,0
480,144,111056,1,0
480,144,111143,1,0
480,208,111317,1,8
432,256,111490,5,0
384,304,111663,2,0,B|320:368|240:304,1,140,0|8
288,256,112184,2,0,B|192:256|192:336,4,140,0|8|0|8|0
256,48,114092,1,12
256,192,114765,5,4
256,192,114765,12,6,116867
48,192,117214,6,0,B|48:48|176:48,2,210,0|8|8
112,192,118428,1,0
176,192,118601,2,0,B|176:288|80:288,3,140,0|8|0|8
464,192,119989,6,0,B|464:336|336:336,2,210,4|8|8
400,192,121203,1,0
336,192,121376,2,0,B|336:96|432:96,3,140,0|8|0|8
256,192,122764,5,0
224,144,122937,1,0
288,144,123110,1,8
320,192,123284,1,0
288,240,123457,1,0
224,240,123631,1,0
256,192,123804,1,8
192,192,123978,1,0
224,144,124151,1,0
256,96,124325,2,12,B|256:16,2,70,12|4|12
256,192,125018,12,4,125886
256,32,127967,6,10,B|256:80,1,35,14|10
256,128,128314,6,0,B|384:128|384:288,3,210,0|8|0|8
320,272,130048,2,0,B|224:272,1,70
192,272,130395,1,8
160,272,130482,1,0
128,272,130568,1,0
64,272,130742,1,8
64,272,130915,1,8
64,208,131089,6,0,B|64:80|208:80,3,210,0|8|0|8
256,80,132823,2,0,B|256:224,1,140,0|8
256,288,133343,1,0
256,288,133430,1,0
256,288,133517,1,8
256,352,133690,1,8
320,352,133864,6,8,B|464:352,1,140
464,288,134384,2,8,B|320:288,1,140
320,224,134904,1,8
320,224,135078,2,8,B|320:128|240:128,1,140
240,192,135598,1,0
240,256,135772,2,0,B|160:256|160:160,2,140,8|8|8
304,256,136639,2,6,B|304:176,1,70,14|6
256,192,136899,12,4,139240
192,192,139414,6,0,B|64:192|64:352,3,210,0|8|0|8
128,352,141148,2,0,B|224:352,1,70
256,320,141495,1,8
240,288,141582,1,0
208,272,141669,1,0
144,288,141842,1,8
208,272,142015,1,8
160,224,142189,6,0,B|160:96|304:96,3,210,0|8|0|8
288,160,143923,2,0,B|368:160|368:64,1,140,0|8
416,32,144444,1,0
416,32,144530,1,0
416,32,144617,1,8
464,64,144791,1,8
464,128,144964,6,8,B|304:128,1,140
324,128,145484,2,8,B|176:128,1,140
184,128,146005,1,8
112,128,146178,2,8,B|16:128|16:208,1,140
80,208,146698,1,0
144,208,146872,2,0,B|144:288|48:288,2,140,8|8|8
144,208,147739,2,6,B|224:208,1,70,14|6
224,272,148086,6,0,B|304:272|352:176|304:112,1,210,8|0
256,144,148780,1,8
256,192,148866,12,0,150514
160,160,150688,5,0
128,224,150861,1,8
176,272,151034,2,0,B|256:320|304:240,1,140
256,208,151555,1,8
256,208,151728,1,0
224,160,151902,2,0,B|256:112|352:176|304:240,3,140,0|8|0|8
208,304,153289,5,0
256,352,153463,1,0
320,352,153636,1,8
384,352,153809,1,0
480,256,154156,1,0
480,192,154330,1,8
480,192,154503,2,0,B|432:80|320:48,1,210,0|8
332,51,155197,1,8
144,256,155891,5,0
144,256,156064,2,8,B|64:288|32:192,1,140
64,144,156584,2,0,B|112:80|192:112,4,140,0|8|0|8|0
128,160,158145,2,0,B|160:160|208:208|160:256|128:256,2,140,0|8|0
128,160,159186,1,12
96,304,159880,5,4
416,80,160400,1,4
256,192,160921,1,4
256,64,161267,1,4
256,64,161354,1,0
256,64,161441,1,0
256,64,161528,1,0
256,64,161614,5,0
208,112,161788,1,0
160,64,161961,1,8
160,64,162135,1,0
256,64,162481,1,0
304,112,162655,1,8
352,64,162828,1,0
256,176,163175,1,0
320,176,163349,2,0,B|400:224|336:304,2,140,8|0|8
224,272,164389,6,0,B|128:160,1,140,0|8
128,96,164910,2,0,B|32:208,2,140,0|8|0
256,32,165950,2,8,B|352:32|352:128,1,140,8|0
48,288,167164,5,0
112,320,167338,1,0
176,336,167511,1,8
240,336,167685,1,0
304,304,167858,1,0
352,256,168032,1,0
384,192,168205,1,8
384,128,168378,1,0
336,80,168552,1,0
336,80,168725,2,12,B|272:48|192:64,1,140
256,192,169246,12,4,170286
144,32,170980,5,4
368,32,171500,1,4
256,176,172021,1,4
256,176,172194,1,0
256,176,172368,1,4
176,272,172714,5,0
224,320,172888,1,0
288,320,173061,1,8
336,272,173235,1,0
288,224,173408,1,0
224,224,173582,1,0
208,160,173755,1,8
256,112,173929,1,0
256,112,174015,1,0
256,112,174102,1,0
304,160,174275,5,0
288,224,174449,1,8
224,224,174622,1,8
256,288,174796,2,14,B|256:368,2,70,6|12|14
256,144,175490,5,0
224,80,175663,1,0
160,64,175836,1,8
96,80,176010,1,0
144,128,176183,1,0
80,144,176357,1,0
32,192,176530,1,8
16,256,176704,1,8
16,256,176790,1,0
16,256,176877,1,8
32,320,177050,5,0
96,352,177224,1,8
96,352,177397,1,8
96,352,177571,2,14,B|208:368|240:288,1,140,6|14
320,208,178265,5,0
368,160,178438,1,0
384,96,178611,1,8
368,32,178785,1,0
304,16,178958,1,0
240,0,179132,1,0
192,64,179305,1,8
128,96,179479,1,8
112,128,179565,1,0
112,160,179652,1,8
160,208,179826,5,0
224,224,179999,1,8
288,192,180172,1,8
288,192,180346,2,14,B|336:128,2,70,6|12|14
400,112,181040,5,0
464,96,181213,1,0
480,160,181386,1,8
480,224,181560,1,0
432,272,181733,1,0
368,288,181907,1,0
304,272,182080,1,8
240,240,182254,1,8
192,192,182427,1,8
128,160,182601,1,0
96,160,182687,1,8
64,176,182774,1,8
64,240,182947,1,8
128,272,183121,1,12
128,272,183468,1,12
224,176,183815,5,0
272,128,183988,1,0
336,96,184162,1,8
400,112,184335,1,0
448,160,184508,1,0
464,224,184682,1,0
432,288,184855,1,8
368,320,185029,1,0
224,320,185376,5,0
160,304,185549,1,8
160,304,185722,1,8
160,304,185896,2,6,B|96:272|96:176,1,140,6|14
144,64,186590,5,0
208,48,186763,1,0
272,64,186937,1,8
304,128,187110,1,0
288,192,187283,1,0
304,256,187457,1,0
352,304,187630,1,8
416,304,187804,1,0
496,192,188151,5,0
496,128,188324,1,8
496,128,188498,1,8
496,128,188671,2,6,B|480:48|384:32,1,140,6|14
256,16,189365,5,0
208,64,189538,1,0
192,128,189712,1,8
224,192,189885,1,0
288,224,190059,1,0
288,224,190232,1,0
336,272,190405,1,8
336,336,190579,1,0
336,336,190926,2,12,B|256:352|192:336,1,140
256,192,191793,12,4,194221
352,256,194568,5,4
256,96,194741,1,0
160,256,194915,1,4
