osu file format v8

[General]
AudioFilename: Umineko no Naku Koro ni - la divina tragedia ~Makyoku~ (end TV size).mp3
AudioLeadIn: 0
PreviewTime: -1
Countdown: 0
SampleSet: Soft
StackLeniency: 0.7
Mode: 0
LetterboxInBreaks: 1

[Editor]
Bookmarks: 3009,3713,5705,6759,8166,78034,80328,82976,85799
DistanceSpacing: 1
BeatDivisor: 4
GridSize: 8

[Metadata]
Title:The Divine Tragedy: Diabolic Song
Artist:Jimang
Creator:lizzehb
Version:Maria
Source:
Tags:Umineko no naku koro ni 7th expansion

[Difficulty]
HPDrainRate:2
CircleSize:3
OverallDifficulty:4
ApproachRate:4
SliderMultiplier:1
SliderTickRate:2

[Events]
//Background and Video events
0,0,"maria.jpg"
Video,0,"Umineko no Naku Koro ni Ending HQ HD Video ~Raw~.flv"
//Break Periods
2,11412,14950
//Storyboard Layer 0 (Background)
//Storyboard Layer 1 (Fail)
//Storyboard Layer 2 (Pass)
//Storyboard Layer 3 (Foreground)
//Storyboard Sound Samples
//Background Colour Transformations
3,100,0,0,0

[TimingPoints]
1838,468.75,4,2,0,100,1,0
1838,468.75,4,2,0,100,1,0
12741,705.882352941176,4,2,0,100,1,0
26858,363.636363636364,4,2,0,100,1,0
35329,352.941176470588,4,2,0,100,1,0
41329,352.941176470588,4,2,0,100,1,0

[Colours]
Combo1 : 255,255,255
Combo2 : 255,232,176
Combo3 : 64,0,64
Combo4 : 128,0,0
Combo5 : 0,0,128

[HitObjects]
256,192,80,12,0,900
144,88,1369,6,0,B|184:104|200:96|176:144|160:144|208:200,1,125
195,184,2306,1,0
240,272,2541,1,0
336,272,3009,2,0,B|368:224|384:216|360:208|336:160|376:128,1,150
88,64,5705,6,0,B|136:112|72:176|64:176|120:240,1,175
107,226,6759,2,0,B|184:184|200:176|208:184|296:256|312:256|384:184,1,300
256,192,9806,12,0,11212
312,144,16270,5,2
312,240,16976,1,0
216,240,17682,1,2
216,144,18388,1,0
312,144,19093,1,2
312,240,19799,1,8
40,280,21740,6,0,B|80:280,3,25
80,232,22623,2,0,B|112:160,1,75
110,163,23505,2,0,B|160:104,1,75
256,192,24740,12,8,26858
400,89,27585,5,0
400,89,28130,2,8,B|400:144,1,50
400,139,28585,2,2,B|400:240,1,100
256,272,30403,5,0
160,272,31130,2,0,L|96:272|96:272|96:216,1,100
96,236,31767,1,8
104,136,32312,5,0
200,136,33039,1,0
208,232,33767,1,0
104,232,34494,1,0
72,56,35329,6,0,B|160:120,1,100
152,114,36034,2,0,B|232:176,2,100,0|8|0
352,88,37446,1,8
352,88,37799,1,12
64,320,39211,5,8
128,240,39564,1,8
192,168,39917,1,8
256,96,40270,1,8
328,160,40623,1,8
392,232,40976,1,8
456,304,41329,1,8
472,208,41681,6,0,B|400:128,1,100
408,136,42387,2,0,B|347:43,1,100
352,56,43093,2,0,B|266:135,1,100
408,104,44152,2,0,B|464:248|248:392|56:344|16:200|0:96,1,650
152,112,46976,5,0
232,176,47329,1,0
304,240,47681,1,0
376,304,48034,1,0
472,304,48387,2,0,B|352:304,1,100
272,304,49093,1,0
168,304,49446,1,0
168,304,49799,2,0,B|168:204,6,100,0|8|0|8|0|8|0
72,296,52976,6,0,B|40:320|32:320|40:328|56:344|64:344|64:344|48:376,6,100,0|8|0|8|0|8|0
168,288,55446,2,0,B|256:48|256:48|320:136|320:136|376:40|376:40|432:264,1,700
328,272,58270,6,8,B|256:288|168:280|120:232,1,200
328,216,59681,2,8,B|256:200|168:208|120:256,1,200
135,242,60740,6,0,B|96:216|88:208|104:192|72:160,1,100
76,164,61446,2,0,B|48:144|40:144|64:104|64:96|24:88,2,100,0|8|0
76,164,62505,2,0,B|112:200|112:208|192:144|200:128|208:144|304:240,1,275
160,64,64270,5,8
232,128,64623,1,2
136,160,64976,1,8
216,216,65328,1,2
120,248,65681,1,8
200,304,66034,1,2
104,336,66387,1,12
256,192,66740,12,0,69564
352,64,69917,5,2
280,128,70270,1,8
376,160,70623,1,2
296,216,70976,1,8
392,248,71329,1,2
312,304,71681,1,8
408,336,72034,1,6
312,304,72387,2,0,B|248:328|208:312|184:272|192:240|216:208,3,200,0|8|8|0
96,40,75564,5,0
168,104,75917,1,0
248,168,76270,1,0
328,232,76623,1,0
416,280,76976,1,8
416,280,77329,1,8
416,280,77681,1,8
328,232,78034,6,0,B|464:192|480:112|408:56|304:24|184:16|72:40|40:64|24:96|88:176|104:184|120:200,1,650
136,336,80858,6,0,B|152:288|152:280|-16:200|-24:168|152:16,1,400
256,192,82976,12,0,85799
