osu file format v8

[General]
AudioFilename: Umineko no Naku Koro ni - la divina tragedia ~Makyoku~ (end TV size).mp3
AudioLeadIn: 0
PreviewTime: -1
Countdown: 0
SampleSet: Soft
StackLeniency: 0.7
Mode: 0
LetterboxInBreaks: 1

[Editor]
Bookmarks: 1976,2329,2682,3035,3741,4094,5506,5859,6565,6918,8329,8682,9388,9741,11153,21740,22446,22623,23152,23505,24035,24740,26858,28093,28446,28623,29329,30388,31093,31799,39211,39564,39917,40270,40623,40976,51917,55446,57917,58270,58976,60740,61093,61446,62152,62505,63564,64270,66387,66740,69564,72387,73093,73799,74505,78034,80858,82270,82976,83681
DistanceSpacing: 1.1
BeatDivisor: 4
GridSize: 8

[Metadata]
Title:The Divine Tragedy: Diabolic Song
Artist:Jimang
Creator:lizzehb
Version:Guest
Source:
Tags:Umineko no naku koro ni 7th expansion

[Difficulty]
HPDrainRate:4
CircleSize:4
OverallDifficulty:6
ApproachRate:5
SliderMultiplier:1.2
SliderTickRate:2

[Events]
//Background and Video events
0,0,"umineko3.jpg"
Video,0,"Umineko no Naku Koro ni Ending HQ HD Video ~Raw~.flv"
//Break Periods
2,11352,11541
2,12941,15070
//Storyboard Layer 0 (Background)
//Storyboard Layer 1 (Fail)
//Storyboard Layer 2 (Pass)
//Storyboard Layer 3 (Foreground)
//Storyboard Sound Samples
//Background Colour Transformations
3,100,0,0,0

[TimingPoints]
1271,352.941176470588,4,2,0,100,1,0
12741,705.882352941176,4,2,0,100,1,0
35329,352.941176470588,4,2,0,100,1,0
41329,352.941176470588,4,2,0,100,1,0

[Colours]
Combo1 : 255,255,255
Combo2 : 255,232,176
Combo3 : 64,0,64
Combo4 : 128,0,0
Combo5 : 0,0,128

[HitObjects]
312,88,1976,2,0,B|408:112|448:256|424:304,1,240
296,320,3035,1,0
368,192,3388,1,0
248,112,3741,1,0
176,240,4094,2,0,B|112:272,2,60
112,112,4800,1,0
112,112,4976,1,0
112,112,5153,1,0
400,88,5859,6,0,B|432:192|368:240,1,120
312,88,6565,2,0,B|272:184|312:288,1,180
256,320,7270,1,0
200,184,7623,1,0
416,192,8153,1,0
288,264,8506,6,0,B|240:240|224:232,2,60
352,224,9035,2,0,B|416:264,2,60
272,88,9741,5,0
200,88,9918,1,0
128,88,10094,1,0
224,200,10447,1,0
296,200,10623,2,0,B|376:200,1,60
336,272,10976,2,0,B|256:272,1,60
48,40,12741,5,0
376,280,16270,5,0
416,216,16623,1,0
464,160,16976,2,0,B|376:112|320:176,2,120
352,248,19093,2,0,B|288:280|240:256,1,60
160,312,20152,1,0
256,120,21211,5,0
360,120,21740,5,0
400,184,22093,1,0
424,208,22270,2,0,B|336:224|304:336|264:288,1,180
248,320,23505,1,0
248,208,24035,1,0
104,176,24740,2,0,B|168:88|264:72,1,180
376,248,26858,5,0
248,320,27564,2,0,B|168:320|112:288,1,120
224,192,28976,1,0
480,56,30388,2,0,B|424:112|424:112|368:112|368:112|320:176|320:176|232:176,1,300
256,192,32505,12,0,35329
112,200,39211,5,0
216,296,39564,1,0
312,192,39917,1,0
208,88,40270,1,0
352,88,40623,1,0
448,192,40976,1,0
448,336,41329,1,0
344,232,41681,6,0,B|296:304|232:320,2,120
224,144,42740,1,0
96,208,43093,2,0,B|96:304|152:344,1,150
224,264,43799,1,0
344,184,44152,6,0,B|416:264|320:328,2,150
136,240,45564,2,0,B|88:160|160:112,2,120
368,72,46976,5,0
368,216,47329,1,0
248,136,47681,1,0
120,208,48034,2,0,B|224:208|144:320|240:352|232:344,3,180
464,72,50505,5,0
280,288,51211,1,0
88,72,51917,1,0
376,96,52623,5,0
328,232,52976,2,0,B|264:192|208:248|152:176,2,180
208,136,54387,2,0,B|224:168|304:144|328:176,1,120
408,56,55093,1,0
416,200,55446,6,0,B|144:200,1,270
360,64,56858,2,0,B|360:328,1,240
128,136,58270,6,0,B|120:224|160:272,1,120
272,184,58976,1,0
408,144,59328,2,0,B|440:216|400:264,2,120
304,40,60387,1,0
72,312,61270,5,0
128,176,61534,1,0
208,296,61799,1,0
264,160,62064,1,0
352,272,62328,1,0
96,64,63211,5,0
224,72,63564,2,0,B|200:152|88:192,1,180
96,248,64270,1,0
224,280,64623,1,0
336,216,64976,1,0
208,184,65328,1,0
320,120,65681,2,0,B|176:120,3,120
432,240,67446,6,0,B|432:280,7,30
432,304,68152,2,0,B|432:344,9,30
200,296,69564,5,0
192,168,69917,2,0,B|280:176|320:216,2,120
304,104,70976,1,0
384,208,71328,1,0
312,320,71681,1,0
448,320,72034,1,0
336,256,72387,2,0,B|240:256|208:112|112:120,1,270
344,72,73799,5,0
344,208,74152,1,0
456,136,74505,1,0
456,264,74858,1,0
264,288,75387,6,0,B|160:312|128:312,1,120
336,248,76270,1,0
264,144,76623,1,0
272,272,76976,1,0
200,176,77328,1,0
320,112,77681,1,0
432,184,78034,6,0,B|312:320|136:320|80:296,1,390
72,200,79446,2,0,B|72:64,2,120
320,104,80858,1,0
384,224,81211,1,0
328,344,81564,1,0
264,232,81917,1,0
192,120,82270,6,0,B|112:160|112:256|112:256|112:344,2,240
256,192,83770,12,0,85093
